osu file format v14

[General]
AudioFilename: audio.mp3
AudioLeadIn: 0
PreviewTime: 2102
Countdown: 0
SampleSet: Normal
StackLeniency: 0.7
Mode: 2
LetterboxInBreaks: 0
WidescreenStoryboard: 1

[Editor]
DistanceSpacing: 0.9
BeatDivisor: 4
GridSize: 4
TimelineZoom: 1

[Metadata]
Title:Harumachi Clover (Swing Arrangement) [Dictate Edit]
TitleUnicode:Harumachi Clover (Swing Arrangement) [Dictate Edit]
Artist:Will Stetson
ArtistUnicode:Will Stetson
Creator:fireyun06
Version:Overdose
Source:OneRoom
Tags:Will Stetson Harumachi Clover (Swing Arrangement) [Dictate Edit] OneRoom Harder Than You Can Believe Overdose Rain Deluge Platter fireyun06 ctb Catch The Beats Osu
BeatmapID:1940049
BeatmapSetID:928868

[Difficulty]
HPDrainRate:4
CircleSize:5.5
OverallDifficulty:6
ApproachRate:9.3
SliderMultiplier:1.8
SliderTickRate:1

[Events]
//Background and Video events
0,0,"bg.jpg",0,0
//Break Periods
//Storyboard Layer 0 (Background)
//Storyboard Layer 1 (Fail)
//Storyboard Layer 2 (Pass)
//Storyboard Layer 3 (Foreground)
//Storyboard Sound Samples

[TimingPoints]
-1250,352.941176470588,4,1,0,20,1,0
14279,-66.6666666666667,4,1,0,20,0,1
25573,-66.6666666666667,4,1,0,20,0,0
28220,-100,4,1,0,20,0,0

[HitObjects]
308,221,44,5,0,0:0:0:0:
371,217,161,2,0,P|413:142|354:64,1,180
204,221,749,1,0,0:0:0:0:
141,217,866,2,0,P|99:142|158:64,1,180
311,145,1455,5,0,0:0:0:0:
245,153,1573,2,0,P|221:94|280:52,1,120
427,61,1926,2,0,P|437:144|387:159,1,120
286,154,2279,6,0,L|144:157,1,120
406,85,2632,2,0,L|276:86,1,120
95,57,2985,6,0,L|80:190,1,120
342,196,3338,2,0,L|351:52,1,120
288,69,3691,2,0,L|148:69,1,120
444,68,4044,6,0,P|464:140|410:207,1,120
331,192,4397,2,0,L|201:191,1,120
58,188,4749,1,0,0:0:0:0:
279,189,4985,1,0,0:0:0:0:
71,191,5455,1,0,0:0:0:0:
191,195,5691,1,0,0:0:0:0:
254,198,5808,6,0,P|266:120|196:60,1,120
429,203,6161,2,0,P|436:120|398:68,1,120
201,212,6514,2,0,P|199:129|243:87,1,120
358,98,6867,2,0,L|498:99,1,120
166,81,7220,2,0,L|137:212,1,120
372,183,7573,5,0,0:0:0:0:
151,189,7808,1,0,0:0:0:0:
372,183,8161,1,0,0:0:0:0:
311,184,8279,1,0,0:0:0:0:
166,186,8514,1,0,0:0:0:0:
219,187,8632,6,0,L|356:184,1,120
97,193,8985,2,0,P|72:85|95:75,1,120
177,97,9338,2,0,L|302:97,1,120
486,101,9691,1,0,0:0:0:0:
328,92,9926,6,0,P|275:147|386:222,1,240
459,222,10632,1,0,0:0:0:0:
411,224,10749,2,0,L|261:225,1,120
87,229,11102,2,0,P|41:169|91:138,1,120
254,137,11455,5,0,0:0:0:0:
152,138,11691,1,0,0:0:0:0:
254,137,12044,1,0,0:0:0:0:
363,137,12397,1,0,0:0:0:0:
268,131,12749,6,0,B|172:133|172:133|310:161|310:161|197:202|197:202|201:217|272:248,1,420
339,246,13808,5,0,0:0:0:0:
256,194,13926,5,0,0:0:0:0:
256,194,14014,1,0,0:0:0:0:
256,194,14102,1,0,0:0:0:0:
511,191,14279,5,0,0:0:0:0:
256,194,14455,1,0,0:0:0:0:
511,191,14632,1,0,0:0:0:0:
235,189,14808,1,0,0:0:0:0:
496,196,14985,1,0,0:0:0:0:
199,186,15161,1,0,0:0:0:0:
462,194,15338,1,0,0:0:0:0:
151,151,15514,6,0,L|316:141,1,135.000005149841
14,99,15867,2,0,L|178:89,1,135.000005149841
395,64,16220,6,0,P|449:127|384:285,1,270.000010299683
93,273,16749,1,0,0:0:0:0:
383,276,16926,1,0,0:0:0:0:
97,265,17102,6,0,L|61:124,1,135.000005149841
315,136,17455,2,0,L|130:137,1,135.000005149841
491,148,17808,1,0,0:0:0:0:
188,194,17985,1,0,0:0:0:0:
487,212,18161,6,0,L|343:212,1,135.000005149841
1,196,18514,5,0,0:0:0:0:
256,199,18691,1,0,0:0:0:0:
510,200,18867,1,0,0:0:0:0:
253,218,19044,6,0,P|191:149|295:31,1,270.000010299683
512,41,19573,1,0,0:0:0:0:
277,80,19749,1,0,0:0:0:0:
0,119,19926,5,0,0:0:0:0:
252,125,20102,1,0,0:0:0:0:
19,155,20279,1,0,0:0:0:0:
273,155,20455,1,0,0:0:0:0:
40,187,20632,1,0,0:0:0:0:
300,188,20808,1,0,0:0:0:0:
51,217,20985,1,0,0:0:0:0:
285,212,21161,1,0,0:0:0:0:
511,203,21338,1,0,0:0:0:0:
247,179,21514,5,0,0:0:0:0:
203,144,21602,1,0,0:0:0:0:
199,87,21691,1,0,0:0:0:0:
252,51,21779,1,0,0:0:0:0:
504,55,21867,5,0,0:0:0:0:
227,84,22044,1,0,0:0:0:0:
506,127,22220,1,0,0:0:0:0:
165,135,22397,1,0,0:0:0:0:
447,184,22573,6,0,L|526:184,1,67.5000025749208
229,159,22749,2,0,P|140:201|227:312,1,270.000010299683
398,290,23279,6,0,P|252:263|141:302,1,270.000010299683
387,319,23808,2,0,P|450:225|335:126,1,270.000010299683
29,132,24338,6,0,L|192:132,1,135.000005149842
485,129,24691,1,0,0:0:0:0:
0,188,25044,1,0,0:0:0:0:
255,193,25220,1,0,0:0:0:0:
511,192,25397,1,0,0:0:0:0:
12,190,25573,5,0,0:0:0:0:
381,190,25749,1,0,0:0:0:0:
11,232,25926,1,0,0:0:0:0:
381,235,26102,1,0,0:0:0:0:
12,281,26279,1,0,0:0:0:0:
382,282,26455,1,0,0:0:0:0:
17,154,26632,6,0,L|19:65,2,67.5000025749208
376,190,26985,1,0,0:0:0:0:
15,204,27161,1,0,0:0:0:0:
382,301,27338,1,0,0:0:0:0:
16,284,27514,1,0,0:0:0:0:
384,256,27691,1,0,0:0:0:0:
10,238,27867,6,0,P|24:154|196:92,1,270.000010299683
432,210,28397,2,0,P|437:122|351:76,1,180
226,204,28926,2,0,P|109:182|82:108,1,180
477,150,29455,1,0,0:0:0:0:
