osu file format v14

[General]
AudioFilename: audio.mp3
AudioLeadIn: 0
PreviewTime: 2102
Countdown: 0
SampleSet: Normal
StackLeniency: 0.7
Mode: 2
LetterboxInBreaks: 0
WidescreenStoryboard: 1

[Editor]
DistanceSpacing: 0.9
BeatDivisor: 4
GridSize: 4
TimelineZoom: 1

[Metadata]
Title:Harumachi Clover (Swing Arrangement) [Dictate Edit]
TitleUnicode:Harumachi Clover (Swing Arrangement) [Dictate Edit]
Artist:Will Stetson
ArtistUnicode:Will Stetson
Creator:fireyun06
Version:Harder Than You Can Believe
Source:OneRoom
Tags:Will Stetson Harumachi Clover (Swing Arrangement) [Dictate Edit] OneRoom Harder Than You Can Believe Overdose Rain Deluge Platter fireyun06 ctb Catch The Beats Osu
BeatmapID:1940048
BeatmapSetID:928868

[Difficulty]
HPDrainRate:7
CircleSize:3.7
OverallDifficulty:9
ApproachRate:9.7
SliderMultiplier:2.5
SliderTickRate:1

[Events]
//Background and Video events
0,0,"bg.jpg",0,0
//Break Periods
//Storyboard Layer 0 (Background)
//Storyboard Layer 1 (Fail)
//Storyboard Layer 2 (Pass)
//Storyboard Layer 3 (Foreground)
//Storyboard Sound Samples

[TimingPoints]
-1250,352.941176470588,4,1,0,20,1,0
1573,-40,4,1,0,20,0,0
1926,-32.258064516129,4,1,0,20,0,0
2279,-47.6190476190476,4,1,0,20,0,0
2632,-55.5555555555556,4,1,0,20,0,0
2985,-43.4782608695652,4,1,0,20,0,0
3338,-100,4,1,0,20,0,0
4044,-30.3030303030303,4,1,0,20,0,0
4397,-66.6666666666667,4,1,0,20,0,0
4749,-1000,4,1,0,20,0,0
5102,-100,4,1,0,20,0,0
14279,-100,4,1,0,20,0,1
15073,-25,4,1,0,20,0,1
15602,-30.3030303030303,4,1,0,20,0,1
15779,-35.7142857142857,4,1,0,20,0,1
15955,-27.027027027027,4,1,0,20,0,1
17014,-25,4,1,0,20,0,1
17191,-52.6315789473684,4,1,0,20,0,1
17544,-25.6410256410256,4,1,0,20,0,1
17720,-37.037037037037,4,1,0,20,0,1
17808,-100,4,1,0,20,0,1
20985,-43.4782608695652,4,1,0,20,0,1
21338,-83.3333333333333,4,1,0,20,0,1
25573,-66.6666666666667,4,1,0,20,0,0
28220,-100,4,1,0,20,0,0

[HitObjects]
336,197,44,5,0,0:0:0:0:
336,197,161,1,0,0:0:0:0:
180,193,749,5,0,0:0:0:0:
180,193,867,1,0,0:0:0:0:
488,174,1455,5,0,0:0:0:0:
488,174,1573,2,0,L|61:174,1,416.666666666667
24,172,1926,2,0,L|541:170,1,516.666670608521
499,171,2279,6,0,L|132:172,1,349.999989318848
122,172,2632,2,0,L|428:171,1,299.999990844727
458,171,2985,2,0,L|-26:173,1,383.333340644837
347,145,3338,6,0,P|409:77|357:18,1,166.666666666667
121,33,3691,2,0,P|81:136|141:190,1,166.666666666667
512,196,4044,6,0,L|-61:195,1,550.000005245209
410,131,4397,6,0,L|142:131,1,250.000009536744
420,77,4749,2,0,L|399:76,1,16.6666666666667
127,78,5102,6,0,L|307:80,1,166.666666666667
33,93,5455,2,0,P|15:188|89:268,1,166.666666666667
340,195,5808,6,0,L|143:191,1,166.666666666667
503,150,6161,6,0,L|310:150,1,166.666666666667
33,145,6514,1,0,0:0:0:0:
486,146,6749,1,0,0:0:0:0:
47,192,6867,1,0,0:0:0:0:
36,136,7102,5,0,0:0:0:0:
489,100,7220,2,0,L|259:100,1,166.666666666667
32,99,7573,2,0,L|249:88,1,166.666666666667
443,82,8161,5,0,0:0:0:0:
182,76,8279,1,0,0:0:0:0:
105,77,8514,1,0,0:0:0:0:
376,183,8632,6,0,P|445:150|455:103,1,125
204,198,8867,6,0,P|127:164|139:44,1,208.333333333333
437,55,9220,6,0,L|181:57,1,250
86,88,9691,2,0,L|274:81,1,166.666666666667
459,92,10044,1,0,0:0:0:0:
428,163,10279,5,0,0:0:0:0:
255,121,10338,1,0,0:0:0:0:
426,117,10397,2,0,P|300:92|210:103,1,166.666666666667
86,117,10749,6,0,P|22:206|85:292,1,166.666666666667
370,275,11102,2,0,P|429:187|410:81,1,166.666666666667
206,133,11455,2,0,L|26:130,1,166.666666666667
316,126,11808,2,0,L|492:131,1,166.666666666667
76,122,12397,1,0,0:0:0:0:
164,110,12749,6,0,P|252:153|146:303,1,333.333333333333
65,295,13455,1,0,0:0:0:0:
289,310,13573,2,0,L|494:301,1,166.666666666667
510,192,13926,5,0,0:0:0:0:
256,191,14014,1,0,0:0:0:0:
0,192,14102,1,0,0:0:0:0:
107,192,14279,6,0,L|191:191,1,62.5
5,174,14455,2,0,L|7:87,1,62.5
348,188,14632,2,0,L|454:189,1,62.5
134,182,14808,2,0,L|40:180,1,62.5
377,187,14985,5,0,0:0:0:0:
431,188,15073,2,0,L|5:189,1,250
117,188,15249,2,0,L|465:189,1,250
426,187,15426,1,0,0:0:0:0:
496,188,15514,1,0,0:0:0:0:
426,187,15602,2,0,L|173:185,1,206.250001966953
285,185,15779,2,0,L|51:184,1,174.999994659424
161,184,15955,6,0,L|465:184,1,231.249999117851
445,184,16132,1,0,0:0:0:0:
126,127,16220,5,0,0:0:0:0:
67,88,16308,1,0,0:0:0:0:
67,23,16397,1,0,0:0:0:0:
129,8,16485,1,0,0:0:0:0:
313,12,16573,5,0,0:0:0:0:
386,11,16661,1,0,0:0:0:0:
78,92,16749,1,0,0:0:0:0:
140,91,16838,1,0,0:0:0:0:
333,111,16926,1,0,0:0:0:0:
401,112,17014,6,0,L|65:113,1,250
211,114,17191,2,0,L|78:112,1,118.749996829033
150,113,17367,2,0,L|11:112,1,118.749996829033
92,113,17544,2,0,L|427:115,1,243.750000929832
335,114,17720,2,0,L|584:115,1,168.75000064373
507,83,17897,1,0,0:0:0:0:
191,197,17985,5,0,0:0:0:0:
17,194,18073,1,0,0:0:0:0:
388,198,18161,2,0,L|491:197,1,62.5
80,163,18338,2,0,L|161:160,1,62.5
284,153,18514,5,0,0:0:0:0:
506,157,18602,1,0,0:0:0:0:
259,154,18691,1,0,0:0:0:0:
7,152,18779,1,0,0:0:0:0:
366,148,18867,6,0,L|465:153,1,62.5
153,113,19044,2,0,L|67:113,1,62.5
152,165,19220,2,0,L|228:167,1,62.5
375,93,19397,2,0,L|459:93,1,62.5
183,92,19573,2,0,L|85:88,1,62.5
108,149,19749,2,0,L|209:153,1,62.5
501,192,19926,6,0,L|501:113,1,62.5
255,198,20102,2,0,L|256:120,1,62.5
1,193,20279,2,0,L|4:111,1,62.5
442,190,20455,6,0,L|520:191,1,62.5
221,188,20632,2,0,L|307:191,1,62.5
2,190,20808,2,0,L|91:190,1,62.5
468,191,20985,6,0,P|312:158|223:52,1,287.500005483627
293,54,21249,1,0,0:0:0:0:
84,142,21338,2,0,L|-11:139,1,74.9999977111817
146,88,21514,2,0,L|39:84,1,74.9999977111817
227,46,21691,2,0,L|121:36,1,74.9999977111817
503,56,21867,6,0,L|501:162,1,74.9999977111817
259,97,22044,2,0,L|258:196,1,74.9999977111817
12,181,22220,2,0,L|10:288,1,74.9999977111817
300,215,22397,5,0,0:0:0:0:
484,215,22485,1,0,0:0:0:0:
129,185,22573,6,0,L|23:186,1,74.9999977111817
336,171,22749,1,0,0:0:0:0:
398,131,22838,1,0,0:0:0:0:
404,54,22926,1,0,0:0:0:0:
331,15,23014,1,0,0:0:0:0:
159,34,23102,6,0,L|47:32,1,74.9999977111817
349,111,23279,2,0,L|446:117,1,74.9999977111817
356,169,23455,2,0,L|252:170,1,74.9999977111817
127,173,23632,6,0,L|2:172,1,74.9999977111817
355,182,23808,2,0,L|467:184,1,74.9999977111817
127,101,23985,2,0,L|0:99,1,74.9999977111817
49,52,24161,2,0,L|178:47,1,74.9999977111817
355,73,24338,2,0,L|445:69,1,74.9999977111817
172,117,24514,2,0,L|72:124,1,74.9999977111817
435,136,24691,6,0,L|336:133,1,74.9999977111817
225,138,24867,2,0,L|346:137,1,74.9999977111817
126,94,25044,6,0,L|246:93,1,74.9999977111817
25,49,25220,2,0,L|153:46,1,74.9999977111817
369,88,25397,5,0,0:0:0:0:
401,53,25455,1,0,0:0:0:0:
407,7,25514,1,0,0:0:0:0:
129,196,25573,6,0,L|-12:194,1,93.7500035762788
351,193,25749,1,0,0:0:0:0:
509,192,25838,1,0,0:0:0:0:
238,192,25926,1,0,0:0:0:0:
5,190,26014,1,0,0:0:0:0:
255,191,26102,1,0,0:0:0:0:
509,192,26191,1,0,0:0:0:0:
255,190,26279,1,0,0:0:0:0:
5,190,26367,1,0,0:0:0:0:
351,193,26455,5,0,0:0:0:0:
509,192,26544,1,0,0:0:0:0:
177,190,26632,5,0,0:0:0:0:
5,190,26720,1,0,0:0:0:0:
358,192,26808,5,0,0:0:0:0:
509,192,26897,1,0,0:0:0:0:
72,193,26985,5,0,0:0:0:0:
5,190,27073,1,0,0:0:0:0:
386,140,27161,5,0,0:0:0:0:
476,139,27249,1,0,0:0:0:0:
388,189,27338,1,0,0:0:0:0:
476,192,27426,1,0,0:0:0:0:
391,247,27514,1,0,0:0:0:0:
481,251,27602,1,0,0:0:0:0:
126,140,27691,5,0,0:0:0:0:
36,139,27779,1,0,0:0:0:0:
124,189,27868,1,0,0:0:0:0:
36,192,27956,1,0,0:0:0:0:
121,247,28044,1,0,0:0:0:0:
31,251,28132,1,0,0:0:0:0:
318,243,28220,6,0,P|406:184|417:157,1,125
310,158,28749,1,0,0:0:0:0:
214,152,28926,2,0,P|121:135|-42:182,1,250
496,162,29455,5,0,0:0:0:0:
