osu file format v14

[General]
AudioFilename: audio.mp3
AudioLeadIn: 0
PreviewTime: 2102
Countdown: 0
SampleSet: Normal
StackLeniency: 0.7
Mode: 2
LetterboxInBreaks: 0
WidescreenStoryboard: 1

[Editor]
DistanceSpacing: 0.9
BeatDivisor: 4
GridSize: 4
TimelineZoom: 1

[Metadata]
Title:Harumachi Clover (Swing Arrangement) [Dictate Edit]
TitleUnicode:Harumachi Clover (Swing Arrangement) [Dictate Edit]
Artist:Will Stetson
ArtistUnicode:Will Stetson
Creator:fireyun06
Version:Deluge
Source:OneRoom
Tags:Will Stetson Harumachi Clover (Swing Arrangement) [Dictate Edit] OneRoom Harder Than You Can Believe Overdose Rain Deluge Platter fireyun06 ctb Catch The Beats Osu
BeatmapID:1940047
BeatmapSetID:928868

[Difficulty]
HPDrainRate:6
CircleSize:4.6
OverallDifficulty:9
ApproachRate:9.5
SliderMultiplier:1.9
SliderTickRate:2

[Events]
//Background and Video events
0,0,"bg.jpg",0,0
//Break Periods
//Storyboard Layer 0 (Background)
//Storyboard Layer 1 (Fail)
//Storyboard Layer 2 (Pass)
//Storyboard Layer 3 (Foreground)
//Storyboard Sound Samples

[TimingPoints]
-1250,352.941176470588,4,1,0,20,1,0
14279,-66.6666666666667,4,1,0,20,0,1
25573,-66.6666666666667,4,1,0,20,0,0
28220,-100,4,1,0,20,0,0

[HitObjects]
351,187,44,5,0,0:0:0:0:
447,188,161,2,0,P|355:158|128:182,1,316.666666666667
331,198,867,6,0,P|376:141|221:11,1,316.666666666667
35,53,1573,2,0,P|111:32|176:69,1,126.666666666667
374,87,1926,2,0,P|300:80|231:98,1,126.666666666667
62,118,2279,6,0,L|40:253,1,126.666666666667
411,259,2632,2,0,L|389:117,1,126.666666666667
309,129,2985,6,0,L|154:134,1,126.666666666667
120,132,3338,1,0,0:0:0:0:
265,107,3573,1,0,0:0:0:0:
312,102,3691,2,0,P|345:173|317:260,1,126.666666666667
139,227,4044,6,0,L|8:233,1,126.666666666667
348,189,4397,2,0,L|497:188,1,126.666666666667
300,222,4749,2,0,L|148:220,1,126.666666666667
350,224,5102,6,0,P|379:142|324:58,1,190
84,65,5691,1,0,0:0:0:0:
305,73,5808,6,0,L|470:75,1,126.666666666667
169,142,6161,2,0,L|314:143,1,126.666666666667
65,222,6514,2,0,L|224:222,1,126.666666666667
383,217,6867,6,0,P|405:144|361:98,1,126.666666666667
121,106,7220,1,0,0:0:0:0:
365,108,7455,1,0,0:0:0:0:
121,106,7573,2,0,P|83:178|119:262,1,126.666666666667
344,164,8161,5,0,0:0:0:0:
398,162,8279,1,0,0:0:0:0:
271,163,8514,1,0,0:0:0:0:
130,165,8632,6,0,L|16:169,1,95
271,163,8867,2,0,L|404:162,1,126.666666666667
134,222,9161,6,0,P|43:181|106:99,1,221.666666666667
227,100,9691,6,0,L|381:103,1,126.666666666667
195,172,10044,6,0,L|60:173,1,126.666666666667
235,173,10338,1,0,0:0:0:0:
386,176,10397,1,0,0:0:0:0:
151,181,10632,6,0,P|114:104|206:60,1,190
247,56,11102,1,0,0:0:0:0:
363,57,11338,6,0,B|441:124|316:239|314:241|183:229|180:230|147:245|147:245|314:268|314:268|208:318,1,633.333333333333
118,312,12749,6,0,P|59:249|147:181,1,190
227,180,13220,2,0,L|413:178,1,126.666666666667
95,167,13573,1,0,0:0:0:0:
242,164,13808,1,0,0:0:0:0:
169,163,13926,5,0,0:0:0:0:
113,162,14014,1,0,0:0:0:0:
55,160,14102,1,0,0:0:0:0:
501,170,14279,5,0,0:0:0:0:
250,174,14455,1,0,0:0:0:0:
506,223,14632,1,0,0:0:0:0:
253,222,14808,1,0,0:0:0:0:
3,222,14985,5,0,0:0:0:0:
509,274,15161,1,0,0:0:0:0:
255,282,15338,1,0,0:0:0:0:
3,277,15514,1,0,0:0:0:0:
253,222,15691,1,0,0:0:0:0:
509,228,15867,6,0,L|507:121,1,71.2500027179719
253,222,16044,2,0,L|253:122,1,71.2500027179719
1,218,16220,2,0,L|4:129,1,71.2500027179719
320,197,16397,5,0,0:0:0:0:
364,166,16485,1,0,0:0:0:0:
369,107,16573,1,0,0:0:0:0:
315,69,16661,1,0,0:0:0:0:
159,68,16749,6,0,L|68:67,1,71.2500027179719
162,106,16926,2,0,L|239:108,1,71.2500027179719
511,113,17102,5,0,0:0:0:0:
253,120,17279,1,0,0:0:0:0:
511,183,17455,2,0,L|434:183,1,71.2500027179719
256,182,17632,2,0,L|169:180,1,71.2500027179719
1,186,17808,2,0,L|78:186,1,71.2500027179719
487,195,17985,5,0,0:0:0:0:
251,191,18161,1,0,0:0:0:0:
505,236,18338,1,0,0:0:0:0:
203,251,18514,6,0,L|116:252,1,71.2500027179719
413,253,18691,2,0,L|489:253,1,71.2500027179719
2,200,18867,5,0,0:0:0:0:
510,197,19044,1,0,0:0:0:0:
256,188,19220,6,0,L|171:185,1,71.2500027179719
259,217,19397,2,0,L|341:222,1,71.2500027179719
255,247,19573,2,0,L|166:248,1,71.2500027179719
257,278,19749,2,0,L|357:279,1,71.2500027179719
0,255,19926,5,0,0:0:0:0:
255,261,20102,1,0,0:0:0:0:
511,263,20279,1,0,0:0:0:0:
252,208,20455,5,0,0:0:0:0:
511,207,20632,1,0,0:0:0:0:
255,152,20808,1,0,0:0:0:0:
511,149,20985,1,0,0:0:0:0:
0,186,21161,1,0,0:0:0:0:
238,191,21338,6,0,P|283:71|205:45,1,213.750008153916
8,53,21691,2,0,L|161:52,1,142.500005435944
512,71,22044,1,0,0:0:0:0:
254,132,22220,6,0,L|93:133,2,142.500005435944
389,135,22749,2,0,P|468:225|348:289,1,285.000010871888
174,288,23279,6,0,P|93:259|156:110,1,285.000010871888
479,106,23808,1,0,0:0:0:0:
170,95,23985,6,0,P|101:210|246:324,1,285.000010871888
288,321,24514,1,0,0:0:0:0:
407,327,24691,2,0,P|476:243|422:77,1,285.000010871888
295,83,25220,1,0,0:0:0:0:
136,83,25397,1,0,0:0:0:0:
3,198,25573,5,0,0:0:0:0:
142,197,25749,1,0,0:0:0:0:
2,254,25926,1,0,0:0:0:0:
177,254,26102,1,0,0:0:0:0:
4,306,26279,1,0,0:0:0:0:
230,303,26455,1,0,0:0:0:0:
4,363,26632,1,0,0:0:0:0:
316,348,26808,1,0,0:0:0:0:
4,306,26985,1,0,0:0:0:0:
384,293,27161,1,0,0:0:0:0:
2,243,27338,1,0,0:0:0:0:
406,230,27514,1,0,0:0:0:0:
3,185,27691,1,0,0:0:0:0:
382,194,27867,6,0,P|437:135|384:57,1,142.500005435944
240,96,28220,2,0,L|100:93,1,95
291,150,28749,1,0,0:0:0:0:
216,154,28926,2,0,P|129:162|119:257,1,190
479,251,29455,5,0,0:0:0:0:
