osu file format v14

[General]
AudioFilename: audio.mp3
AudioLeadIn: 0
PreviewTime: 14191
Countdown: 1
SampleSet: Soft
StackLeniency: 0.7
Mode: 0
LetterboxInBreaks: 0
WidescreenStoryboard: 1

[Editor]
Bookmarks: 14279
DistanceSpacing: 0.9
BeatDivisor: 4
GridSize: 4
TimelineZoom: 1

[Metadata]
Title:Harumachi Clover (Swing Arrangement) [Dictate Edit]
TitleUnicode:Harumachi Clover (Swing Arrangement) [Dictate Edit]
Artist:Will Stetson
ArtistUnicode:Will Stetson
Creator:MBmasher
Version:Spring Clover
Source:
Tags:
BeatmapID:1789315
BeatmapSetID:856483

[Difficulty]
HPDrainRate:5
CircleSize:4
OverallDifficulty:9.3
ApproachRate:9.3
SliderMultiplier:1.7
SliderTickRate:1

[Events]
//Background and Video events
0,0,"oneroombg.jpg",0,0
//Break Periods
//Storyboard Layer 0 (Background)
//Storyboard Layer 1 (Fail)
//Storyboard Layer 2 (Pass)
//Storyboard Layer 3 (Foreground)
//Storyboard Sound Samples

[TimingPoints]
-1250,352.941176470588,4,2,0,100,1,0
161,-100,4,2,0,50,0,0
14279,-80,4,2,0,50,0,1
22749,-80,4,2,0,50,0,0
25573,-80,4,2,0,50,0,1
29455,-80,4,2,0,50,0,0

[HitObjects]
92,274,161,6,0,P|57:194|169:23,1,283.333333333333,0|0,0:0|0:0,0:0:0:0:
232,50,867,2,0,P|267:130|155:301,1,283.333333333333,0|0,0:0|0:0,0:0:0:0:
128,230,1573,2,0,P|168:212|253:268,1,113.333333333333,0|0,0:0|0:0,0:0:0:0:
229,349,1926,2,0,P|189:366|103:310,1,113.333333333333,0|0,0:0|0:0,0:0:0:0:
128,230,2279,6,0,L|124:107,1,113.333333333333,0|0,0:0|0:0,0:0:0:0:
202,28,2632,2,0,L|205:141,1,113.333333333333,0|0,0:0|0:0,0:0:0:0:
274,200,2985,6,0,P|321:163|345:112,1,113.333333333333,0|0,0:0|0:0,0:0:0:0:
440,76,3338,2,0,P|417:131|421:187,1,113.333333333333,0|0,0:0|0:0,0:0:0:0:
476,234,3691,2,0,P|478:290|456:341,1,113.333333333333,0|0,0:0|0:0,0:0:0:0:
376,365,4044,2,0,P|350:314|306:280,1,113.333333333333,0|0,0:0|0:0,0:0:0:0:
218,259,4397,6,0,B|264:217|264:217|295:166,1,113.333333333333,0|0,0:0|0:0,0:0:0:0:
315,98,4749,1,0,0:0:0:0:
152,69,4985,2,0,B|198:58|232:81|232:81|271:106|315:97,1,170,0|0,0:0|0:0,0:0:0:0:
388,64,5455,2,0,L|406:190,1,113.333333333333,0|0,0:0|0:0,0:0:0:0:
418,255,5808,6,0,P|350:244|290:260,1,113.333333333333,0|0,0:0|0:0,0:0:0:0:
249,324,6161,2,0,P|193:333|138:321,1,113.333333333333,0|0,0:0|0:0,0:0:0:0:
85,248,6514,2,0,P|96:192|87:137,1,113.333333333333,0|0,0:0|0:0,0:0:0:0:
178,63,6867,2,0,P|166:118|175:173,1,113.333333333333,0|0,0:0|0:0,0:0:0:0:
236,238,7220,6,0,L|278:119,1,113.333333333333,0|0,0:0|0:0,0:0:0:0:
304,54,7573,1,0,0:0:0:0:
466,84,7808,2,0,B|421:92|383:67|383:67|349:44|302:55,1,170,0|0,0:0|0:0,0:0:0:0:
214,81,8279,2,0,L|176:187,1,113.333333333333,0|0,0:0|0:0,0:0:0:0:
193,269,8632,6,0,P|250:232|310:235,1,113.333333333333,0|0,0:0|0:0,0:0:0:0:
385,220,8985,2,0,P|350:165|351:103,1,113.333333333333,0|0,0:0|0:0,0:0:0:0:
314,43,9338,2,0,P|268:76|148:72,1,170,0|0,0:0|0:0,0:0:0:0:
341,313,9926,6,0,B|342:264|380:239|380:239|357:198|374:159,1,170,0|0,0:0|0:0,0:0:0:0:
322,72,10397,6,0,L|283:183,1,113.333333333333,0|0,0:0|0:0,0:0:0:0:
200,188,10749,2,0,L|237:81,1,113.333333333333,0|0,0:0|0:0,0:0:0:0:
169,28,11102,2,0,L|131:134,1,113.333333333333,0|0,0:0|0:0,0:0:0:0:
88,252,11455,6,0,P|110:288|180:323,1,113.333333333333,0|0,0:0|0:0,0:0:0:0:
171,321,12044,2,0,B|207:285|207:285|215:214|215:214|253:171,1,170,0|0,0:0|0:0,0:0:0:0:
305,115,12514,1,0,0:0:0:0:
324,203,12749,6,0,P|245:179|216:103,1,170,0|0,0:0|0:0,0:0:0:0:
209,20,13220,2,0,P|146:52|115:95,1,113.333333333333,0|0,0:0|0:0,0:0:0:0:
45,110,13573,2,0,P|36:54|52:0,1,113.333333333333,0|0,0:0|0:0,0:0:0:0:
141,28,13926,2,0,L|151:72,2,42.5,0|0|0,0:0|0:0|0:0,0:0:0:0:
110,154,14279,5,0,0:0:0:0:
69,10,14455,1,0,0:0:0:0:
183,172,14632,5,0,0:0:0:0:
141,28,14808,1,0,0:0:0:0:
58,208,14985,5,0,0:0:0:0:
17,64,15161,1,0,0:0:0:0:
131,226,15338,5,0,0:0:0:0:
89,82,15514,1,0,0:0:0:0:
79,280,15691,6,0,P|113:331|156:350,1,106.25,0|0,0:0|0:0,0:0:0:0:
256,191,16044,1,0,0:0:0:0:
224,317,16220,1,0,0:0:0:0:
328,209,16397,5,0,0:0:0:0:
297,335,16573,1,0,0:0:0:0:
203,244,16749,2,0,P|182:194|194:145,1,106.25,0|0,0:0|0:0,0:0:0:0:
422,299,17102,5,0,0:0:0:0:
235,118,17279,1,0,0:0:0:0:
453,173,17455,5,0,0:0:0:0:
203,244,17632,1,0,0:0:0:0:
401,227,17808,5,0,0:0:0:0:
215,46,17985,1,0,0:0:0:0:
432,101,18161,5,0,0:0:0:0:
183,172,18338,1,0,0:0:0:0:
370,353,18514,5,0,0:0:0:0:
235,118,18691,1,0,0:0:0:0:
432,101,18867,5,0,0:0:0:0:
203,244,19044,1,0,0:0:0:0:
401,227,19220,6,0,P|394:168|356:123,1,106.25,0|0,0:0|0:0,0:0:0:0:
203,244,19573,2,0,P|210:303|248:348,1,106.25,0|0,0:0|0:0,0:0:0:0:
401,227,19926,5,0,0:0:0:0:
183,172,20102,1,0,0:0:0:0:
360,83,20279,5,0,0:0:0:0:
203,244,20455,1,0,0:0:0:0:
494,317,20632,5,0,0:0:0:0:
256,190,20808,1,0,0:0:0:0:
504,118,20985,5,0,0:0:0:0:
224,317,21161,1,0,0:0:0:0:
474,245,21338,5,0,0:0:0:0:
161,102,21514,1,0,0:0:0:0:
432,101,21691,5,0,0:0:0:0:
131,228,21867,1,0,0:0:0:0:
370,353,22044,5,0,0:0:0:0:
89,82,22220,1,0,0:0:0:0:
360,83,22397,5,0,0:0:0:0:
79,280,22573,1,0,0:0:0:0:
473,248,22749,6,0,P|479:191|424:46,1,212.5
213,80,23279,2,0,P|245:164|255:83,1,212.5
265,12,23808,1,0,0:0:0:0:
119,161,23985,6,0,P|191:237|299:221,1,212.5,0|0,0:0|0:0,0:0:0:0:
235,118,24514,1,0,0:0:0:0:
75,244,24691,2,0,P|171:311|294:307,1,212.5,0|0,0:0|0:0,0:0:0:0:
380,167,25220,2,0,P|376:220|352:269,1,106.25,0|0,0:0|0:0,0:0:0:0:
172,370,25573,5,0,0:0:0:0:
235,118,25749,1,0,0:0:0:0:
58,208,25926,5,0,0:0:0:0:
349,281,26102,1,0,0:0:0:0:
89,82,26279,5,0,0:0:0:0:
26,334,26455,1,0,0:0:0:0:
349,281,26632,5,0,0:0:0:0:
89,82,26808,1,0,0:0:0:0:
412,29,26985,5,0,0:0:0:0:
151,298,27161,1,0,0:0:0:0:
474,245,27338,5,0,0:0:0:0:
89,82,27514,1,0,0:0:0:0:
505,119,27691,5,0,0:0:0:0:
58,208,27867,1,0,0:0:0:0:
442,371,28044,5,0,0:0:0:0:
255,34,28220,1,0,0:0:0:0:
172,370,28397,6,0,P|115:306|110:256,1,106.25,0|0,0:0|0:0,0:0:0:0:
89,82,28749,1,0,0:0:0:0:
380,155,28926,6,0,P|353:236|312:265,1,106.25,0|0,0:0|0:0,0:0:0:0:
172,370,29278,1,0,0:0:0:0:
255,34,29455,5,0,0:0:0:0:
