osu file format v14

[General]
AudioFilename: audio.mp3
AudioLeadIn: 0
PreviewTime: 2161
Countdown: 1
SampleSet: Soft
StackLeniency: 0.7
Mode: 3
LetterboxInBreaks: 0
SpecialStyle: 0
WidescreenStoryboard: 1

[Editor]
DistanceSpacing: 0.9
BeatDivisor: 4
GridSize: 4
TimelineZoom: 1.7

[Metadata]
Title:Harumachi Clover (Swing Arrangement) [Dictate Edit]
TitleUnicode:Harumachi Clover (Swing Arrangement) [Dictate Edit]
Artist:Will Stetson
ArtistUnicode:Will Stetson
Creator:Edvo
Version:HSTest (Ignore this one)
Source:OneRoom
Tags:
BeatmapID:1848333
BeatmapSetID:876598

[Difficulty]
HPDrainRate:8
CircleSize:4
OverallDifficulty:7
ApproachRate:5
SliderMultiplier:1.4
SliderTickRate:1

[Events]
//Background and Video events
0,0,"L2k2TP7.jpg",0,0
//Break Periods
//Storyboard Layer 0 (Background)
//Storyboard Layer 1 (Fail)
//Storyboard Layer 2 (Pass)
//Storyboard Layer 3 (Foreground)
//Storyboard Sound Samples

[TimingPoints]
-1250,352.941176470588,4,2,22,42,1,0
-1250,352.941176470588,4,2,22,42,1,0

[Colours]
Combo1 : 255,171,45
Combo2 : 255,60,255
Combo3 : 108,255,104

[HitObjects]
192,192,44,128,0,161:0:0:0:0:
64,192,161,5,0,0:0:0:0:
320,192,749,128,0,867:0:0:0:0:
192,192,867,1,0,0:0:0:0:
192,192,1455,128,0,1573:0:0:0:0:
64,192,1573,1,0,0:0:0:0:
192,192,1926,1,0,0:0:0:0:
320,192,2161,1,0,0:0:0:0:
64,192,2279,1,0,0:0:0:0:
448,192,2514,1,0,0:0:0:0:
192,192,2632,1,0,0:0:0:0:
64,192,2867,1,0,0:0:0:0:
192,192,2985,1,0,0:0:0:0:
192,192,3220,128,0,3338:0:0:0:0:
64,192,3338,1,0,0:0:0:0:
448,192,3338,1,0,0:0:0:0:
192,192,3573,1,0,0:0:0:0:
320,192,3691,128,0,4044:0:0:0:0:
192,192,3926,1,0,0:0:0:0:
64,192,4044,1,0,0:0:0:0:
448,192,4044,1,0,0:0:0:0:
192,192,4279,1,0,0:0:0:0:
448,192,4397,128,0,4514:0:0:0:0:
320,192,4632,1,0,0:0:0:0:
448,192,4749,1,0,0:0:0:0:
64,192,4749,1,0,0:0:0:0:
448,192,4985,128,0,5338:0:0:0:0:
192,192,5102,1,0,0:0:0:0:
192,192,5338,1,0,0:0:0:0:
448,192,5455,1,0,0:0:0:0:
64,192,5455,128,0,5573:0:0:0:0:
192,192,5691,1,0,0:0:0:0:
320,192,5808,1,0,0:0:0:0:
64,192,6044,128,0,6161:0:0:0:0:
192,192,6161,1,0,0:0:0:0:
448,192,6161,1,0,0:0:0:0:
192,192,6397,128,0,6514:0:0:0:0:
320,192,6514,1,0,0:0:0:0:
192,192,6749,128,0,6985:0:0:0:0:
64,192,6867,1,0,0:0:0:0:
448,192,6867,1,0,0:0:0:0:
192,192,7102,128,0,7338:0:0:0:0:
64,192,7220,128,0,7338:0:0:0:0:
448,192,7455,1,0,0:0:0:0:
320,192,7573,1,0,0:0:0:0:
64,192,7573,1,0,0:0:0:0:
192,192,7808,128,0,8161:0:0:0:0:
320,192,7926,1,0,0:0:0:0:
320,192,8161,1,0,0:0:0:0:
64,192,8279,1,0,0:0:0:0:
448,192,8279,1,0,0:0:0:0:
320,192,8514,1,0,0:0:0:0:
192,192,8632,128,0,8867:0:0:0:0:
448,192,8867,128,0,8985:0:0:0:0:
64,192,8985,1,0,0:0:0:0:
320,192,8985,1,0,0:0:0:0:
320,192,9220,128,0,9573:0:0:0:0:
192,192,9338,1,0,0:0:0:0:
192,192,9573,1,0,0:0:0:0:
448,192,9691,1,0,0:0:0:0:
64,192,9691,1,0,0:0:0:0:
320,192,9926,1,0,0:0:0:0:
64,192,10044,128,0,10161:0:0:0:0:
192,192,10279,1,0,0:0:0:0:
64,192,10397,1,0,0:0:0:0:
448,192,10397,1,0,0:0:0:0:
320,192,10632,128,0,10985:0:0:0:0:
192,192,10749,1,0,0:0:0:0:
192,192,10985,1,0,0:0:0:0:
64,192,11102,1,0,0:0:0:0:
448,192,11102,1,0,0:0:0:0:
192,192,11338,1,0,0:0:0:0:
320,192,11455,128,0,11691:0:0:0:0:
448,192,11691,128,0,11926:0:0:0:0:
64,192,11808,1,0,0:0:0:0:
192,192,11808,1,0,0:0:0:0:
320,192,12044,128,0,12161:0:0:0:0:
192,192,12161,1,0,0:0:0:0:
320,192,12397,128,0,12514:0:0:0:0:
448,192,12514,1,0,0:0:0:0:
64,192,12514,1,0,0:0:0:0:
192,192,12749,128,0,13102:0:0:0:0:
448,192,12867,1,0,0:0:0:0:
448,192,13102,1,0,0:0:0:0:
448,192,13220,1,0,0:0:0:0:
64,192,13220,1,0,0:0:0:0:
192,192,13455,128,0,13573:0:0:0:0:
320,192,13573,1,0,0:0:0:0:
320,192,13808,1,0,0:0:0:0:
64,192,13926,1,0,0:0:0:0:
192,192,13926,1,0,0:0:0:0:
448,192,13926,1,0,0:0:0:0:
64,192,14014,1,0,0:0:0:0:
192,192,14014,1,0,0:0:0:0:
320,192,14102,1,0,0:0:0:0:
448,192,14102,1,0,0:0:0:0:
64,192,14279,1,0,0:0:0:0:
448,192,14279,1,0,0:0:0:0:
320,192,14279,1,0,0:0:0:0:
192,192,14367,1,0,0:0:0:0:
320,192,14455,1,0,0:0:0:0:
448,192,14455,1,0,0:0:0:0:
192,192,14544,1,0,0:0:0:0:
64,192,14632,1,0,0:0:0:0:
448,192,14632,1,0,0:0:0:0:
320,192,14632,1,0,0:0:0:0:
192,192,14720,1,0,0:0:0:0:
64,192,14808,1,0,0:0:0:0:
320,192,14808,1,0,0:0:0:0:
448,192,14897,1,0,0:0:0:0:
320,192,14985,1,0,0:0:0:0:
192,192,14985,1,0,0:0:0:0:
64,192,14985,1,0,0:0:0:0:
448,192,15073,1,0,0:0:0:0:
320,192,15161,1,0,0:0:0:0:
192,192,15161,1,0,0:0:0:0:
64,192,15249,1,0,0:0:0:0:
192,192,15338,1,0,0:0:0:0:
320,192,15338,1,0,0:0:0:0:
448,192,15338,1,0,0:0:0:0:
64,192,15426,1,0,0:0:0:0:
192,192,15514,1,0,0:0:0:0:
448,192,15514,1,0,0:0:0:0:
320,192,15602,1,0,0:0:0:0:
64,192,15691,1,0,0:0:0:0:
192,192,15691,1,0,0:0:0:0:
448,192,15691,1,0,0:0:0:0:
320,192,15779,1,0,0:0:0:0:
192,192,15867,1,0,0:0:0:0:
64,192,15867,1,0,0:0:0:0:
448,192,15955,1,0,0:0:0:0:
320,192,16044,1,0,0:0:0:0:
192,192,16044,1,0,0:0:0:0:
64,192,16044,1,0,0:0:0:0:
448,192,16132,1,0,0:0:0:0:
320,192,16220,1,0,0:0:0:0:
192,192,16220,1,0,0:0:0:0:
64,192,16308,1,0,0:0:0:0:
320,192,16397,1,0,0:0:0:0:
192,192,16397,1,0,0:0:0:0:
448,192,16397,1,0,0:0:0:0:
64,192,16485,1,0,0:0:0:0:
192,192,16573,1,0,0:0:0:0:
448,192,16573,1,0,0:0:0:0:
320,192,16661,1,0,0:0:0:0:
448,192,16749,1,0,0:0:0:0:
64,192,16749,1,0,0:0:0:0:
192,192,16749,1,0,0:0:0:0:
320,192,16838,1,0,0:0:0:0:
192,192,16926,1,0,0:0:0:0:
448,192,16926,1,0,0:0:0:0:
64,192,17014,1,0,0:0:0:0:
448,192,17102,1,0,0:0:0:0:
192,192,17102,1,0,0:0:0:0:
320,192,17102,1,0,0:0:0:0:
64,192,17191,1,0,0:0:0:0:
192,192,17279,1,0,0:0:0:0:
320,192,17279,1,0,0:0:0:0:
448,192,17367,1,0,0:0:0:0:
192,192,17455,1,0,0:0:0:0:
320,192,17455,1,0,0:0:0:0:
64,192,17455,1,0,0:0:0:0:
448,192,17544,1,0,0:0:0:0:
320,192,17632,1,0,0:0:0:0:
64,192,17632,1,0,0:0:0:0:
192,192,17720,1,0,0:0:0:0:
448,192,17808,1,0,0:0:0:0:
64,192,17808,1,0,0:0:0:0:
320,192,17808,1,0,0:0:0:0:
192,192,17897,1,0,0:0:0:0:
64,192,17985,1,0,0:0:0:0:
448,192,17985,1,0,0:0:0:0:
192,192,18073,1,0,0:0:0:0:
320,192,18161,1,0,0:0:0:0:
64,192,18161,1,0,0:0:0:0:
448,192,18161,1,0,0:0:0:0:
192,192,18249,1,0,0:0:0:0:
320,192,18338,1,0,0:0:0:0:
448,192,18338,1,0,0:0:0:0:
64,192,18426,1,0,0:0:0:0:
320,192,18514,1,0,0:0:0:0:
192,192,18514,1,0,0:0:0:0:
448,192,18514,1,0,0:0:0:0:
64,192,18602,1,0,0:0:0:0:
448,192,18691,1,0,0:0:0:0:
192,192,18691,1,0,0:0:0:0:
320,192,18779,1,0,0:0:0:0:
64,192,18867,1,0,0:0:0:0:
448,192,18867,1,0,0:0:0:0:
192,192,18867,1,0,0:0:0:0:
320,192,18955,1,0,0:0:0:0:
64,192,19044,1,0,0:0:0:0:
448,192,19044,1,0,0:0:0:0:
192,192,19132,1,0,0:0:0:0:
64,192,19220,1,0,0:0:0:0:
448,192,19220,1,0,0:0:0:0:
320,192,19220,1,0,0:0:0:0:
192,192,19308,1,0,0:0:0:0:
448,192,19397,1,0,0:0:0:0:
320,192,19397,1,0,0:0:0:0:
192,192,19485,1,0,0:0:0:0:
448,192,19573,1,0,0:0:0:0:
320,192,19573,1,0,0:0:0:0:
64,192,19573,1,0,0:0:0:0:
192,192,19661,1,0,0:0:0:0:
320,192,19749,1,0,0:0:0:0:
64,192,19749,1,0,0:0:0:0:
448,192,19838,1,0,0:0:0:0:
320,192,19926,1,0,0:0:0:0:
192,192,19926,1,0,0:0:0:0:
64,192,19926,1,0,0:0:0:0:
448,192,20014,1,0,0:0:0:0:
192,192,20102,1,0,0:0:0:0:
320,192,20102,1,0,0:0:0:0:
64,192,20191,1,0,0:0:0:0:
448,192,20279,1,0,0:0:0:0:
192,192,20279,1,0,0:0:0:0:
320,192,20279,1,0,0:0:0:0:
64,192,20367,1,0,0:0:0:0:
192,192,20455,1,0,0:0:0:0:
448,192,20455,1,0,0:0:0:0:
320,192,20544,1,0,0:0:0:0:
192,192,20632,1,0,0:0:0:0:
64,192,20632,1,0,0:0:0:0:
448,192,20632,1,0,0:0:0:0:
320,192,20720,1,0,0:0:0:0:
448,192,20808,1,0,0:0:0:0:
192,192,20808,1,0,0:0:0:0:
320,192,20897,1,0,0:0:0:0:
64,192,20985,1,0,0:0:0:0:
448,192,20985,1,0,0:0:0:0:
192,192,20985,1,0,0:0:0:0:
320,192,21073,1,0,0:0:0:0:
448,192,21161,128,0,21514:0:0:0:0:
64,192,21161,1,0,0:0:0:0:
192,192,21249,1,0,0:0:0:0:
320,192,21338,1,0,0:0:0:0:
64,192,21338,1,0,0:0:0:0:
192,192,21426,1,0,0:0:0:0:
320,192,21514,1,0,0:0:0:0:
64,192,21514,1,0,0:0:0:0:
192,192,21602,1,0,0:0:0:0:
64,192,21691,1,0,0:0:0:0:
320,192,21691,1,0,0:0:0:0:
448,192,21691,1,0,0:0:0:0:
192,192,21779,1,0,0:0:0:0:
64,192,21867,1,0,0:0:0:0:
448,192,21867,1,0,0:0:0:0:
320,192,21955,1,0,0:0:0:0:
448,192,22044,1,0,0:0:0:0:
192,192,22044,1,0,0:0:0:0:
64,192,22044,1,0,0:0:0:0:
320,192,22132,1,0,0:0:0:0:
448,192,22220,1,0,0:0:0:0:
192,192,22220,1,0,0:0:0:0:
64,192,22308,1,0,0:0:0:0:
448,192,22397,1,0,0:0:0:0:
192,192,22397,1,0,0:0:0:0:
320,192,22397,1,0,0:0:0:0:
64,192,22485,1,0,0:0:0:0:
192,192,22573,1,0,0:0:0:0:
448,192,22573,1,0,0:0:0:0:
320,192,22661,1,0,0:0:0:0:
448,192,22749,1,0,0:0:0:0:
64,192,22749,128,0,23102:0:0:0:0:
192,192,22749,1,0,0:0:0:0:
320,192,22926,1,0,0:0:0:0:
320,192,23102,1,0,0:0:0:0:
64,192,23279,1,0,0:0:0:0:
320,192,23279,1,0,0:0:0:0:
448,192,23279,128,0,23632:0:0:0:0:
192,192,23455,1,0,0:0:0:0:
192,192,23632,1,0,0:0:0:0:
192,192,23808,1,0,0:0:0:0:
320,192,23808,1,0,0:0:0:0:
192,192,23985,1,0,0:0:0:0:
320,192,23985,1,0,0:0:0:0:
64,192,24338,1,0,0:0:0:0:
192,192,24338,1,0,0:0:0:0:
448,192,24338,1,0,0:0:0:0:
64,192,24514,1,0,0:0:0:0:
320,192,24514,1,0,0:0:0:0:
64,192,24691,1,0,0:0:0:0:
320,192,24691,1,0,0:0:0:0:
448,192,25044,1,0,0:0:0:0:
64,192,25044,1,0,0:0:0:0:
320,192,25044,1,0,0:0:0:0:
320,192,25220,1,0,0:0:0:0:
448,192,25220,1,0,0:0:0:0:
64,192,25397,1,0,0:0:0:0:
320,192,25397,1,0,0:0:0:0:
192,192,25397,1,0,0:0:0:0:
448,192,25573,128,0,26102:0:0:0:0:
320,192,25573,1,0,0:0:0:0:
192,192,25573,1,0,0:0:0:0:
64,192,25661,1,0,0:0:0:0:
320,192,25749,1,0,0:0:0:0:
192,192,25838,1,0,0:0:0:0:
64,192,25926,1,0,0:0:0:0:
320,192,25926,1,0,0:0:0:0:
192,192,26014,1,0,0:0:0:0:
320,192,26102,128,0,26808:0:0:0:0:
64,192,26102,1,0,0:0:0:0:
192,192,26191,1,0,0:0:0:0:
448,192,26279,1,0,0:0:0:0:
64,192,26279,1,0,0:0:0:0:
192,192,26367,1,0,0:0:0:0:
448,192,26455,1,0,0:0:0:0:
64,192,26544,1,0,0:0:0:0:
448,192,26632,1,0,0:0:0:0:
192,192,26632,1,0,0:0:0:0:
64,192,26720,1,0,0:0:0:0:
192,192,26808,1,0,0:0:0:0:
448,192,26808,128,0,27338:0:0:0:0:
64,192,26897,1,0,0:0:0:0:
320,192,26985,1,0,0:0:0:0:
192,192,26985,1,0,0:0:0:0:
64,192,27073,1,0,0:0:0:0:
320,192,27161,1,0,0:0:0:0:
192,192,27249,1,0,0:0:0:0:
320,192,27338,1,0,0:0:0:0:
64,192,27338,1,0,0:0:0:0:
192,192,27426,1,0,0:0:0:0:
64,192,27514,1,0,0:0:0:0:
448,192,27514,1,0,0:0:0:0:
192,192,27602,1,0,0:0:0:0:
448,192,27691,1,0,0:0:0:0:
320,192,27691,1,0,0:0:0:0:
64,192,27691,1,0,0:0:0:0:
192,192,27779,1,0,0:0:0:0:
64,192,27867,1,0,0:0:0:0:
448,192,27867,1,0,0:0:0:0:
320,192,27955,1,0,0:0:0:0:
192,192,28044,1,0,0:0:0:0:
64,192,28044,1,0,0:0:0:0:
448,192,28044,1,0,0:0:0:0:
320,192,28132,1,0,0:0:0:0:
448,192,28220,1,0,0:0:0:0:
192,192,28220,1,0,0:0:0:0:
64,192,28308,1,0,0:0:0:0:
448,192,28397,1,0,0:0:0:0:
320,192,28397,128,0,28749:0:0:0:0:
192,192,28397,1,0,0:0:0:0:
192,192,28573,1,0,0:0:0:0:
64,192,28749,1,0,0:0:0:0:
448,192,28749,1,0,0:0:0:0:
320,192,28926,128,0,29279:0:0:0:0:
64,192,28926,1,0,0:0:0:0:
192,192,28926,1,0,0:0:0:0:
448,192,28926,1,0,0:0:0:0:
64,192,29102,1,0,0:0:0:0:
64,192,29279,1,0,0:0:0:0:
448,192,29279,1,0,0:0:0:0:
448,192,29455,128,0,29544:0:0:0:0:
320,192,29455,128,0,29632:0:0:0:0:
192,192,29455,128,0,29720:0:0:0:0:
64,192,29455,128,0,29808:0:0:0:0:
