osu file format v14

[General]
AudioFilename: audio.mp3
AudioLeadIn: 0
PreviewTime: 375
Countdown: 0
SampleSet: Soft
StackLeniency: 0.7
Mode: 0
LetterboxInBreaks: 0
WidescreenStoryboard: 0

[Editor]
DistanceSpacing: 1.5
BeatDivisor: 4
GridSize: 8
TimelineZoom: 2.1

[Metadata]
Title:Despacito ft. R3 Music Box
TitleUnicode:Despacito ft. R3 Music Box
Artist:Will Stetson
ArtistUnicode:Will Stetson
Creator:Sotarks
Version:Slowly
Source:
Tags:cut edit reggaeton universal music latino short ver version akitoshi corinn -laura- shunao shogunmoon snownino_ nevo monstrata mir piggey hakura hightec armin a_r_m_i_n lami intoon luis fonsi daddy yankee ThatTromboneGuy ringtone size kin
BeatmapID:1675844
BeatmapSetID:798007

[Difficulty]
HPDrainRate:5.2
CircleSize:4.2
OverallDifficulty:9.4
ApproachRate:9.2
SliderMultiplier:1.82
SliderTickRate:1

[Events]
//Background and Video events
0,0,"swimsuit.jpg",0,0
//Break Periods
//Storyboard Layer 0 (Background)
//Storyboard Layer 1 (Fail)
//Storyboard Layer 2 (Pass)
//Storyboard Layer 3 (Foreground)
//Storyboard Sound Samples

[TimingPoints]
540,659.340659340659,4,2,2,42,1,0
2245,674.157303370787,4,2,2,52,1,0
2245,-58.1395348837209,4,2,2,52,0,0
10334,-75.7575757575758,4,2,2,52,0,0
10671,-54.9450549450549,4,2,2,52,0,0
11009,-75.7575757575758,4,2,2,52,0,0
11346,-54.9450549450549,4,2,2,52,0,0
13031,-75.7575757575758,4,2,2,52,0,0
13537,-58.1395348837209,4,2,2,52,0,0
23818,-54.9450549450549,4,2,2,62,0,0
44042,-98.0392156862745,4,2,2,42,0,0

[Colours]
Combo1 : 255,51,56
Combo2 : 145,250,255
Combo3 : 244,250,37
Combo4 : 255,198,140

[HitObjects]
192,225,540,6,0,P|176:194|277:215,1,227.5,2|2,0:0|0:0,0:0:0:0:
285,197,2245,5,2,1:0:0:0:
226,136,2413,2,0,B|123:138|182:190|58:195,1,156.520002388306,0|8,3:0|0:0,0:0:0:0:
206,237,2919,5,2,1:0:0:0:
98,109,3087,1,0,3:0:0:0:
131,267,3256,5,10,0:0:0:0:
250,55,3424,1,0,0:0:0:0:
350,258,3593,5,2,1:0:0:0:
175,84,3761,1,2,0:0:0:0:
171,332,3930,5,2,3:0:0:0:
345,158,4098,1,10,0:0:0:0:
102,274,4267,6,0,L|-15:257,1,78.2600011941528,2|0,1:0|0:0,0:0:0:0:
345,158,4604,2,0,L|462:141,1,78.2600011941528,2|2,1:0|0:0,0:0:0:0:
107,60,4941,5,0,1:0:0:0:
184,11,5110,2,0,L|200:185,1,156.520002388306,2|8,3:0|0:0,0:0:0:0:
340,55,5615,5,2,1:0:0:0:
253,232,5784,1,0,3:0:0:0:
107,60,5952,5,10,0:0:0:0:
179,265,6121,1,0,3:0:0:0:
260,54,6289,5,2,1:0:0:0:
349,296,6458,1,2,0:0:0:0:
183,55,6627,5,2,3:0:0:0:
107,309,6796,1,10,0:0:0:0:
344,136,6964,6,0,L|439:118,1,78.2600011941528,2|0,1:0|0:0,0:0:0:0:
104,230,7301,2,0,L|27:215,1,78.2600011941528,10|0,0:0|0:0,0:0:0:0:
269,345,7638,5,2,1:0:0:0:
321,276,7806,2,0,B|338:186|286:230|310:88,1,156.520002388306,2|8,3:0|0:0,0:0:0:0:
109,58,8312,5,2,1:0:0:0:
335,30,8480,1,0,3:0:0:0:
128,134,8649,5,10,0:0:0:0:
381,163,8817,1,0,3:0:0:0:
69,202,8986,5,2,1:0:0:0:
305,123,9155,1,2,0:0:0:0:
5,89,9323,5,2,3:0:0:0:
241,168,9492,1,10,0:0:0:0:
70,308,9660,6,0,L|-19:289,1,78.2600011941528,2|0,1:0|0:0,0:0:0:0:
352,246,9997,2,0,L|441:227,1,78.2600011941528,2|2,1:0|0:0,0:0:0:0:
178,114,10334,6,0,P|162:142|162:186,1,60.0599998167114,0|2,1:0|3:0,0:0:0:0:
249,329,10671,2,0,P|264:235|241:205,1,82.8100027798768,2|8,0:0|0:0,0:0:0:0:
233,26,11009,6,0,P|241:57|272:88,1,60.0599998167114,0|0,1:0|3:0,0:0:0:0:
435,127,11346,2,0,P|379:49|341:44,1,82.8100027798768,10|0,0:0|3:0,0:0:0:0:
95,72,11683,5,2,1:0:0:0:
95,72,12357,1,10,3:0:0:0:
95,72,13031,6,0,L|108:192,1,120.119999633423,2|0,1:0|0:0,0:0:0:0:
231,40,13537,1,8,0:0:0:0:
298,275,13705,5,2,1:0:0:0:
185,107,13874,1,0,3:0:0:0:
119,315,14042,5,10,0:0:0:0:
274,110,14211,1,0,3:0:0:0:
383,337,14379,5,2,1:0:0:0:
182,238,14548,1,2,0:0:0:0:
383,160,14716,5,2,3:0:0:0:
186,27,14885,1,10,0:0:0:0:
386,247,15053,6,0,L|502:219,1,78.2600011941528,2|0,1:0|0:0,0:0:0:0:
185,130,15391,2,0,L|69:102,1,78.2600011941528,2|2,1:0|0:0,0:0:0:0:
262,327,15728,5,0,1:0:0:0:
307,251,15896,2,0,L|275:76,1,156.520002388306,2|8,3:0|0:0,0:0:0:0:
187,271,16402,5,2,1:0:0:0:
371,311,16570,1,2,3:0:0:0:
167,192,16739,5,0,0:0:0:0:
364,150,16907,1,2,3:0:0:0:
139,74,17076,5,2,1:0:0:0:
280,292,17245,1,2,0:0:0:0:
412,62,17413,5,2,3:0:0:0:
167,192,17582,1,10,0:0:0:0:
438,284,17750,6,0,L|533:253,1,78.2600011941528,2|0,1:0|0:0,0:0:0:0:
213,98,18087,2,0,L|138:73,1,78.2600011941528,10|2,0:0|0:0,0:0:0:0:
17,287,18424,5,0,1:0:0:0:
82,232,18593,2,0,B|184:235|122:290|264:293,1,156.520002388306,2|8,3:0|0:0,0:0:0:0:
429,152,19098,5,2,1:0:0:0:
220,206,19267,1,0,3:0:0:0:
220,206,19351,1,0,0:0:0:0:
220,206,19436,5,10,0:0:0:0:
440,328,19604,1,0,3:0:0:0:
344,92,19773,5,2,1:0:0:0:
188,354,19941,1,2,0:0:0:0:
496,201,20110,5,2,3:0:0:0:
258,24,20278,1,10,0:0:0:0:
347,271,20447,6,0,L|366:361,1,78.2600011941528,2|0,1:0|0:0,0:0:0:0:
159,100,20784,2,0,L|175:23,1,78.2600011941528,2|0,1:0|0:0,0:0:0:0:
29,257,21121,6,0,P|107:210|126:211,1,78.2600011941528,2|2,1:0|3:0,0:0:0:0:
279,175,21458,5,2,0:0:0:0:
98,54,21627,1,10,0:0:0:0:
264,259,21795,5,2,1:0:0:0:
296,19,21964,1,2,3:0:0:0:
344,294,22132,5,10,0:0:0:0:
195,36,22301,1,2,3:0:0:0:
82,297,22469,1,0,1:0:0:0:
82,297,22806,5,2,0:0:0:0:
112,217,22975,1,2,0:0:0:0:
168,289,23143,1,2,0:0:0:0:
198,209,23312,1,2,0:0:0:0:
259,291,23480,1,0,3:0:0:0:
259,291,23565,1,0,3:0:0:0:
259,291,23649,1,0,3:0:0:0:
259,291,23733,1,0,3:0:0:0:
259,291,23818,5,2,1:0:0:0:
129,95,23986,1,2,3:0:0:0:
82,297,24155,1,2,0:0:0:0:
337,211,24323,1,10,0:0:0:0:
138,58,24492,2,0,L|40:47,1,82.8100027798768,2|0,1:0|3:0,0:0:0:0:
223,253,24829,1,10,0:0:0:0:
341,66,24997,1,2,3:0:0:0:
439,271,25166,5,0,1:0:0:0:
260,99,25334,1,2,0:0:0:0:
156,311,25503,1,2,3:0:0:0:
402,200,25671,1,10,0:0:0:0:
170,68,25840,2,0,L|72:57,1,82.8100027798768,0|2,1:0|0:0,0:0:0:0:
231,271,26177,1,0,1:0:0:0:
356,100,26346,1,2,0:0:0:0:
356,100,26430,1,0,0:0:0:0:
356,100,26514,5,2,1:0:0:0:
282,156,26683,2,0,B|170:154|228:211|98:211,1,165.620005559754,0|10,3:0|0:0,0:0:0:0:
345,245,27188,2,0,P|385:199|387:158,1,82.8100027798768,0|2,1:0|3:0,0:0:0:0:
254,80,27525,2,0,P|281:161|276:183,1,82.8100027798768,10|2,0:0|3:0,0:0:0:0:
201,303,27862,5,0,1:0:0:0:
134,120,28031,1,2,0:0:0:0:
264,230,28200,1,2,3:0:0:0:
46,131,28368,2,0,P|51:90|73:55,1,82.8100027798768,10|0,0:0|1:0,0:0:0:0:
179,222,28705,1,2,0:0:0:0:
309,80,28874,2,0,P|303:39|281:4,1,82.8100027798768,10|2,0:0|0:0,0:0:0:0:
252,272,29211,5,0,1:0:0:0:
310,206,29379,2,0,L|499:181,1,165.620005559754,2|10,3:0|0:0,0:0:0:0:
302,332,29885,2,0,P|244:301|200:301,1,82.8100027798768,0|2,1:0|3:0,0:0:0:0:
121,172,30222,2,0,P|179:141|223:141,1,82.8100027798768,10|0,0:0|3:0,0:0:0:0:
63,291,30559,5,2,1:0:0:0:
18,105,30728,1,2,0:0:0:0:
178,237,30896,1,2,3:0:0:0:
216,43,31065,2,0,L|311:25,1,82.8100027798768,10|0,0:0|1:0,0:0:0:0:
426,194,31402,5,2,0:0:0:0:
194,139,31570,1,2,1:0:0:0:
433,55,31739,1,2,0:0:0:0:
253,201,31907,5,0,1:0:0:0:
335,96,32076,2,0,L|357:298,1,165.620005559754,2|8,3:0|0:0,0:0:0:0:
139,75,32582,5,2,1:0:0:0:
177,300,32750,1,2,3:0:0:0:
256,90,32919,1,10,0:0:0:0:
294,315,33087,1,2,3:0:0:0:
127,50,33256,5,2,1:0:0:0:
165,275,33424,1,2,0:0:0:0:
244,65,33593,1,2,3:0:0:0:
282,290,33761,1,10,0:0:0:0:
81,112,33930,6,0,L|-23:91,1,82.8100027798768,2|0,1:0|0:0,0:0:0:0:
265,209,34267,2,0,L|346:192,1,82.8100027798768,10|0,0:0|0:0,0:0:0:0:
129,350,34604,5,2,1:0:0:0:
171,126,34773,1,2,3:0:0:0:
320,341,34941,1,2,0:0:0:0:
362,117,35110,1,10,0:0:0:0:
151,234,35278,1,2,1:0:0:0:
424,173,35447,1,2,3:0:0:0:
257,3,35615,2,0,L|152:37,1,82.8100027798768,10|0,0:0|3:0,0:0:0:0:
304,252,35952,5,0,1:0:0:0:
345,35,36121,1,2,0:0:0:0:
229,241,36289,1,2,3:0:0:0:
178,28,36458,1,10,0:0:0:0:
307,169,36627,1,0,1:0:0:0:
257,3,36795,1,2,0:0:0:0:
154,227,36964,1,0,1:0:0:0:
281,81,37132,1,2,0:0:0:0:
346,275,37301,5,2,1:0:0:0:
272,167,37469,2,0,L|262:340,1,165.620005559754,0|10,3:0|0:0,0:0:0:0:
171,149,37975,2,0,P|88:115|70:116,1,82.8100027798768,0|2,1:0|3:0,0:0:0:0:
281,81,38312,2,0,P|364:47|382:48,1,82.8100027798768,10|2,0:0|3:0,0:0:0:0:
88,35,38649,5,0,1:0:0:0:
179,233,38818,1,2,0:0:0:0:
220,10,38986,1,2,3:0:0:0:
311,208,39155,1,10,0:0:0:0:
96,115,39323,2,0,P|6:103|-8:108,1,82.8100027798768,2|2,1:0|0:0,0:0:0:0:
255,130,39660,2,0,P|296:130|334:115,1,82.8100027798768,8|2,0:0|0:0,0:0:0:0:
91,202,39997,5,0,1:0:0:0:
174,94,40166,2,0,L|203:301,1,165.620005559754,2|10,3:0|0:0,0:0:0:0:
271,101,40671,2,0,P|358:60|393:64,1,82.8100027798768,0|2,1:0|3:0,0:0:0:0:
451,196,41009,2,0,P|364:155|329:159,1,82.8100027798768,10|0,0:0|3:0,0:0:0:0:
242,324,41346,5,2,1:0:0:0:
380,245,41514,1,2,0:0:0:0:
174,94,41683,1,2,3:0:0:0:
283,246,41851,1,10,0:0:0:0:
384,50,42020,1,0,1:0:0:0:
180,198,42188,1,2,0:0:0:0:
457,285,42357,1,2,1:0:0:0:
357,128,42525,1,2,0:0:0:0:
136,334,42694,5,0,1:0:0:0:
206,97,42862,1,2,3:0:0:0:
263,350,43031,5,0,0:0:0:0:
117,87,43199,1,8,0:0:0:0:
41,363,43368,5,2,1:0:0:0:
299,101,43536,1,2,3:0:0:0:
437,376,43705,1,10,0:0:0:0:
437,376,44042,6,0,L|419:191,1,185.640001133057,2|2,0:0|0:0,0:0:0:0:
498,173,45391,5,2,0:0:0:0:
350,206,45728,1,2,0:0:0:0:
