osu file format v14

[General]
AudioFilename: audio.mp3
AudioLeadIn: 0
PreviewTime: 375
Countdown: 0
SampleSet: Soft
StackLeniency: 0.7
Mode: 0
LetterboxInBreaks: 0
WidescreenStoryboard: 0

[Editor]
Bookmarks: 1815,11253,13275,23388,32152,34174,42264,43612
DistanceSpacing: 1.5
BeatDivisor: 4
GridSize: 4
TimelineZoom: 1.3

[Metadata]
Title:Despacito ft. R3 Music Box
TitleUnicode:Despacito ft. R3 Music Box
Artist:Will Stetson
ArtistUnicode:Will Stetson
Creator:Sotarks
Version:Piggey's Extra
Source:
Tags:cut edit reggaeton universal music latino short ver version akitoshi corinn -laura- shunao shogunmoon snownino_ nevo monstrata mir piggey hakura hightec armin a_r_m_i_n lami intoon luis fonsi daddy yankee ThatTromboneGuy ringtone size kin
BeatmapID:1675842
BeatmapSetID:798007

[Difficulty]
HPDrainRate:5
CircleSize:4
OverallDifficulty:9
ApproachRate:9.1
SliderMultiplier:1.8
SliderTickRate:1

[Events]
//Background and Video events
0,0,"swimsuit.jpg",0,0
//Break Periods
//Storyboard Layer 0 (Background)
//Storyboard Layer 1 (Fail)
//Storyboard Layer 2 (Pass)
//Storyboard Layer 3 (Foreground)
//Storyboard Sound Samples

[TimingPoints]
540,659.340659340659,4,2,2,42,1,0
540,-166.666666666667,4,2,2,42,0,0
2245,674.157303370787,4,2,2,52,1,0
2245,-80,4,2,2,60,0,0
10334,-80,4,2,2,52,0,0
10671,-66.6666666666667,4,2,2,52,0,0
11009,-80,4,2,2,52,0,0
11346,-66.6666666666667,4,2,2,52,0,0
11683,-166.666666666667,4,2,2,40,0,0
13031,-80,4,2,2,52,0,0
13537,-80,4,2,2,52,0,0
13705,-80,4,2,2,60,0,0
23818,-57.1428571428571,4,2,2,62,0,1
44042,-166.666666666667,4,2,2,42,0,0
45391,-166.666666666667,4,2,2,30,0,0
45728,-166.666666666667,4,2,2,25,0,0

[Colours]
Combo1 : 255,51,56
Combo2 : 145,250,255
Combo3 : 244,250,37
Combo4 : 255,198,140

[HitObjects]
0,328,540,6,0,B|69:308|68:358|142:328,1,134.999995880127,2|2,0:0|0:0,0:0:0:0:
408,252,2245,6,0,L|412:348,1,56.25,2|0,1:0|3:0,0:0:0:0:
276,221,2582,2,0,L|272:125,1,56.25,2|8,0:0|0:0,0:0:0:0:
396,24,2919,1,2,1:0:0:0:
401,138,3087,1,0,3:0:0:0:
282,29,3256,2,0,P|252:32|216:44,1,56.25,10|0,0:0|0:0,0:0:0:0:
276,221,3593,5,2,1:0:0:0:
180,104,3761,1,2,0:0:0:0:
193,289,3930,1,2,3:0:0:0:
282,29,4098,1,10,0:0:0:0:
110,75,4267,2,0,P|69:74|37:86,1,56.25,2|0,1:0|0:0,0:0:0:0:
268,112,4604,2,0,P|309:113|341:101,1,56.25,2|2,1:0|0:0,0:0:0:0:
87,161,4941,6,0,L|92:308,1,112.5,0|0,1:0|0:0,0:0:0:0:
175,183,5447,1,8,0:0:0:0:
294,327,5615,1,2,1:0:0:0:
276,221,5784,1,0,3:0:0:0:
148,355,5952,2,0,L|213:370,1,56.25,10|0,0:0|3:0,0:0:0:0:
259,115,6289,5,2,1:0:0:0:
92,252,6458,1,2,0:0:0:0:
294,327,6627,1,2,3:0:0:0:
175,183,6795,1,10,0:0:0:0:
360,154,6964,2,0,P|376:188|376:244,1,56.25,2|0,1:0|0:0,0:0:0:0:
157,76,7301,2,0,P|177:44|224:13,1,56.25,10|0,0:0|0:0,0:0:0:0:
388,76,7638,6,0,P|432:116|440:172,1,112.5,2|0,1:0|0:0,0:0:0:0:
360,154,8143,1,8,0:0:0:0:
233,63,8312,1,2,1:0:0:0:
268,282,8480,1,0,3:0:0:0:
274,141,8649,2,0,L|208:144,1,56.25,10|0,0:0|3:0,0:0:0:0:
128,301,8986,5,2,1:0:0:0:
74,146,9155,1,2,0:0:0:0:
68,353,9323,1,2,3:0:0:0:
148,144,9492,1,10,0:0:0:0:
203,328,9660,2,0,P|232:356|268:364,1,56.25,2|0,1:0|0:0,0:0:0:0:
317,151,9997,2,0,P|288:123|252:115,1,56.25,2|2,1:0|0:0,0:0:0:0:
121,309,10334,6,0,L|126:383,1,56.25,0|2,1:0|3:0,0:0:0:0:
313,218,10671,2,0,L|317:151,1,67.5000025749208,2|8,0:0|0:0,0:0:0:0:
204,138,11009,6,0,L|208:209,1,56.25,0|0,1:0|3:0,0:0:0:0:
408,296,11346,2,0,L|404:228,1,67.5000025749208,10|0,0:0|3:0,0:0:0:0:
424,28,11683,6,0,B|371:42|371:15|318:28,1,107.999996704102,2|10,1:0|3:0,0:0:0:0:
212,88,13031,6,0,P|150:89|112:50,1,112.5,2|0,1:0|0:0,0:0:0:0:
188,8,13537,1,8,0:0:0:0:
48,0,13705,2,0,L|44:68,1,56.25,2|0,1:0|3:0,0:0:0:0:
156,141,14042,2,0,L|160:73,1,56.25,10|0,0:0|3:0,0:0:0:0:
68,153,14379,5,2,1:0:0:0:
176,293,14548,1,2,0:0:0:0:
244,129,14716,1,2,3:0:0:0:
257,326,14885,1,10,0:0:0:0:
79,238,15053,2,0,P|45:242|9:266,1,56.25,2|0,1:0|0:0,0:0:0:0:
246,240,15391,2,0,P|280:236|316:212,1,56.25,2|2,1:0|0:0,0:0:0:0:
277,46,15728,6,0,P|216:44|164:96,1,112.5,0|0,1:0|0:0,0:0:0:0:
244,129,16233,1,8,0:0:0:0:
365,33,16402,1,2,1:0:0:0:
387,185,16570,1,2,3:0:0:0:
277,46,16739,1,0,0:0:0:0:
211,212,16907,1,2,3:0:0:0:
421,103,17076,6,0,P|456:128|472:164,1,56.25,2|2,1:0|0:0,0:0:0:0:
353,267,17413,1,2,3:0:0:0:
332,116,17582,1,10,0:0:0:0:
319,349,17750,2,0,P|360:356|384:352,1,56.25,2|0,1:0|0:0,0:0:0:0:
298,196,18087,2,0,P|257:189|233:193,1,56.25,10|2,0:0|0:0,0:0:0:0:
80,372,18424,6,0,L|76:248,1,112.5,0|0,1:0|0:0,0:0:0:0:
155,141,18930,1,8,0:0:0:0:
180,380,19098,1,2,1:0:0:0:
246,127,19267,1,0,3:0:0:0:
246,127,19351,1,0,0:0:0:0:
246,127,19436,1,10,0:0:0:0:
136,289,19604,1,0,3:0:0:0:
96,72,19773,5,2,1:0:0:0:
236,296,19941,1,2,0:0:0:0:
279,41,20110,1,2,3:0:0:0:
79,218,20278,1,10,0:0:0:0:
333,303,20447,2,0,P|384:308|408:300,1,56.25,2|0,1:0|0:0,0:0:0:0:
403,96,20784,2,0,P|352:91|328:99,1,56.25,2|0,1:0|0:0,0:0:0:0:
368,228,21121,6,0,L|368:160,1,56.25,2|2,1:0|3:0,0:0:0:0:
187,56,21458,5,2,0:0:0:0:
236,296,21627,1,10,0:0:0:0:
279,41,21795,5,2,1:0:0:0:
328,281,21964,1,2,3:0:0:0:
371,26,22132,5,10,0:0:0:0:
420,266,22301,1,2,3:0:0:0:
187,188,22469,5,0,1:0:0:0:
478,338,22806,5,2,0:0:0:0:
295,369,22975,1,2,0:0:0:0:
453,178,23143,5,2,0:0:0:0:
387,354,23312,1,2,0:0:0:0:
267,208,23480,5,0,3:0:0:0:
294,205,23564,1,0,3:0:0:0:
322,211,23648,1,0,3:0:0:0:
346,224,23732,1,0,3:0:0:0:
366,245,23818,6,0,L|370:145,1,78.7500007510185,2|2,1:0|3:0,0:0:0:0:
295,369,24155,2,0,L|291:269,1,78.7500007510185,2|10,0:0|0:0,0:0:0:0:
372,87,24492,2,0,B|282:70|304:124|184:88,1,157.500001502037,2|10,1:0|0:0,0:0:0:0:
144,216,24997,1,2,3:0:0:0:
4,88,25166,2,0,L|12:272,1,157.500001502037,0|2,1:0|3:0,0:0:0:0:
107,118,25671,1,10,0:0:0:0:
78,298,25840,2,0,L|73:389,1,78.7500007510185,0|2,1:0|0:0,0:0:0:0:
229,360,26177,2,0,L|226:282,1,78.7500007510185,0|2,1:0|0:0,0:0:0:0:
144,216,26430,1,0,0:0:0:0:
144,216,26514,6,0,P|60:196|-4:236,1,157.500001502037,2|2,1:0|0:0,0:0:0:0:
78,298,27020,1,10,0:0:0:0:
107,118,27188,1,0,1:0:0:0:
248,233,27357,1,2,3:0:0:0:
173,36,27525,2,0,P|124:16|68:24,1,78.7500007510185,10|2,0:0|3:0,0:0:0:0:
144,216,27862,5,0,1:0:0:0:
173,36,28031,1,2,0:0:0:0:
27,129,28200,1,2,3:0:0:0:
255,102,28368,1,10,0:0:0:0:
25,51,28537,2,0,L|28:144,1,78.7500007510185,0|2,1:0|0:0,0:0:0:0:
257,180,28874,2,0,L|254:87,1,78.7500007510185,10|2,0:0|0:0,0:0:0:0:
182,315,29211,6,0,B|220:328|220:328|344:308,1,157.500001502037,0|2,1:0|0:0,0:0:0:0:
489,303,29716,1,10,0:0:0:0:
342,210,29885,1,0,1:0:0:0:
336,384,30053,1,2,3:0:0:0:
410,151,30222,2,0,P|352:120|308:128,1,78.7500007510185,10|0,0:0|3:0,0:0:0:0:
413,344,30559,5,2,1:0:0:0:
478,92,30728,1,2,0:0:0:0:
339,297,30896,1,2,3:0:0:0:
306,34,31065,1,10,0:0:0:0:
484,198,31233,2,0,L|384:208,1,78.7500007510185,0|2,1:0|0:0,0:0:0:0:
257,376,31570,2,0,L|357:386,1,78.7500007510185,2|2,1:0|0:0,0:0:0:0:
175,250,31907,6,0,P|100:244|36:304,1,157.500001502037,0|0,1:0|0:0,0:0:0:0:
128,336,32413,1,8,0:0:0:0:
124,166,32582,5,2,1:0:0:0:
225,333,32750,1,2,3:0:0:0:
320,163,32919,1,10,0:0:0:0:
118,276,33087,1,2,3:0:0:0:
130,56,33256,5,2,1:0:0:0:
223,213,33424,1,2,0:0:0:0:
313,54,33593,1,2,3:0:0:0:
124,166,33761,1,10,0:0:0:0:
410,102,33930,6,0,P|452:100|492:112,1,78.7500007510185,2|0,1:0|0:0,0:0:0:0:
320,258,34267,2,0,P|277:259|238:248,1,78.7500007510185,10|0,0:0|0:0,0:0:0:0:
33,228,34604,5,2,1:0:0:0:
215,104,34773,1,2,3:0:0:0:
142,382,34941,1,2,0:0:0:0:
124,166,35110,1,10,0:0:0:0:
320,258,35278,2,0,L|410:251,1,78.7500007510185,2|2,1:0|3:0,0:0:0:0:
512,152,35615,2,0,L|421:158,1,78.7500007510185,10|0,0:0|3:0,0:0:0:0:
466,335,35952,6,0,B|482:359|482:359|486:231,1,157.500001502037,0|2,1:0|3:0,0:0:0:0:
360,186,36458,1,10,0:0:0:0:
280,330,36627,2,0,L|276:240,1,78.7500007510185,0|2,1:0|0:0,0:0:0:0:
142,382,36964,2,0,L|146:292,1,78.7500007510185,0|2,1:0|0:0,0:0:0:0:
215,104,37301,2,0,B|136:84|136:123|58:104,1,157.500001502037,2|2,1:0|0:0,0:0:0:0:
176,172,37806,1,10,0:0:0:0:
100,36,37975,1,0,1:0:0:0:
255,38,38143,1,2,3:0:0:0:
99,181,38312,2,0,P|119:232|167:256,1,78.7500007510185,10|2,0:0|3:0,0:0:0:0:
215,104,38649,5,0,1:0:0:0:
19,176,38818,1,2,0:0:0:0:
180,310,38986,1,2,3:0:0:0:
135,109,39155,1,10,0:0:0:0:
104,384,39323,2,0,L|191:380,1,78.7500007510185,2|2,1:0|0:0,0:0:0:0:
337,167,39660,2,0,L|259:171,1,78.7500007510185,8|2,0:0|0:0,0:0:0:0:
22,317,39997,6,0,L|188:309,1,157.500001502037,0|2,1:0|0:0,0:0:0:0:
341,245,40503,1,10,0:0:0:0:
184,384,40671,1,0,1:0:0:0:
143,179,40840,1,2,3:0:0:0:
345,322,41009,2,0,P|392:304|412:272,1,78.7500007510185,10|0,0:0|3:0,0:0:0:0:
267,131,41346,5,2,1:0:0:0:
281,364,41514,1,2,0:0:0:0:
341,101,41683,1,2,3:0:0:0:
212,329,41851,1,10,0:0:0:0:
204,80,42020,2,0,P|244:52|296:56,1,78.7500007510185,0|2,1:0|0:0,0:0:0:0:
403,150,42357,2,0,P|363:178|311:174,1,78.7500007510185,2|2,1:0|0:0,0:0:0:0:
352,21,42694,5,0,1:0:0:0:
294,257,42862,1,2,3:0:0:0:
84,87,43031,1,0,0:0:0:0:
156,333,43200,1,8,0:0:0:0:
204,80,43368,1,2,1:0:0:0:
27,275,43537,1,2,3:0:0:0:
343,147,43705,5,10,0:0:0:0:
343,147,44042,6,0,L|340:260,1,107.999996704102,2|2,0:0|0:0,0:0:0:0:
338,308,45391,2,0,L|339:251,1,53.9999983520508,2|2,0:0|0:0,0:0:0:0:
