osu file format v14

[General]
AudioFilename: audio.mp3
AudioLeadIn: 0
PreviewTime: 375
Countdown: 0
SampleSet: Soft
StackLeniency: 0.7
Mode: 0
LetterboxInBreaks: 0
WidescreenStoryboard: 0

[Editor]
DistanceSpacing: 1.5
BeatDivisor: 8
GridSize: 8
TimelineZoom: 2.1

[Metadata]
Title:Despacito ft. R3 Music Box
TitleUnicode:Despacito ft. R3 Music Box
Artist:Will Stetson
ArtistUnicode:Will Stetson
Creator:Sotarks
Version:Nevo's Insane
Source:
Tags:cut edit reggaeton universal music latino short ver version akitoshi corinn -laura- shunao shogunmoon snownino_ nevo monstrata mir piggey hakura hightec armin a_r_m_i_n lami intoon luis fonsi daddy yankee ThatTromboneGuy ringtone size kin
BeatmapID:1675840
BeatmapSetID:798007

[Difficulty]
HPDrainRate:5.2
CircleSize:4
OverallDifficulty:8.8
ApproachRate:9
SliderMultiplier:1.82
SliderTickRate:1

[Events]
//Background and Video events
0,0,"swimsuit.jpg",0,0
//Break Periods
//Storyboard Layer 0 (Background)
//Storyboard Layer 1 (Fail)
//Storyboard Layer 2 (Pass)
//Storyboard Layer 3 (Foreground)
//Storyboard Sound Samples

[TimingPoints]
540,659.340659340659,4,2,2,42,1,0
540,-125,4,2,2,42,0,0
2245,674.157303370787,4,2,2,52,1,0
2245,-58.1395348837209,4,2,2,52,0,0
10334,-75.7575757575758,4,2,2,52,0,0
10671,-54.9450549450549,4,2,2,52,0,0
11009,-75.7575757575758,4,2,2,52,0,0
11346,-54.9450549450549,4,2,2,52,0,0
13031,-75.7575757575758,4,2,2,52,0,0
13537,-58.1395348837209,4,2,2,52,0,0
23818,-54.9450549450549,4,2,2,62,0,0
44042,-54.9450549450549,4,2,2,42,0,0

[Colours]
Combo1 : 255,51,56
Combo2 : 145,250,255
Combo3 : 244,250,37
Combo4 : 255,198,140

[HitObjects]
286,184,540,6,0,P|372:199|409:279,1,182,2|2,0:0|0:0,0:0:0:0:
410,280,2245,6,0,L|233:266,1,156.520002388306,2|2,1:0|0:0,0:0:0:0:
179,299,2750,1,8,0:0:0:0:
337,165,2919,1,2,1:0:0:0:
206,192,3087,1,0,3:0:0:0:
306,248,3256,1,10,0:0:0:0:
254,120,3424,1,0,0:0:0:0:
232,285,3593,1,2,1:0:0:0:
337,165,3761,1,2,0:0:0:0:
347,334,3930,1,2,3:0:0:0:
306,248,4098,1,10,0:0:0:0:
441,321,4267,6,0,L|450:226,1,78.2600011941528,2|0,1:0|0:0,0:0:0:0:
415,86,4604,2,0,L|424:181,1,78.2600011941528,2|2,1:0|0:0,0:0:0:0:
347,334,4941,1,0,1:0:0:0:
259,172,5110,2,0,L|354:163,1,78.2600011941528,2|0,3:0|0:0,0:0:0:0:
232,285,5447,1,8,0:0:0:0:
181,111,5615,5,2,1:0:0:0:
316,249,5784,1,0,3:0:0:0:
272,78,5952,1,10,0:0:0:0:
137,279,6121,1,0,3:0:0:0:
259,172,6289,1,2,1:0:0:0:
87,127,6458,1,2,0:0:0:0:
232,285,6627,1,2,3:0:0:0:
62,220,6795,1,10,0:0:0:0:
131,357,6964,6,0,L|138:260,1,78.2600011941528,2|0,1:0|0:0,0:0:0:0:
318,241,7301,2,0,L|325:338,1,78.2600011941528,10|0,0:0|0:0,0:0:0:0:
233,194,7638,2,0,P|297:149|380:168,1,156.520002388306,2|0,1:0|0:0,0:0:0:0:
419,222,8143,1,8,0:0:0:0:
318,241,8312,5,2,1:0:0:0:
457,139,8480,1,0,3:0:0:0:
396,297,8649,1,10,0:0:0:0:
329,145,8818,1,0,3:0:0:0:
419,222,8986,1,2,1:0:0:0:
394,78,9155,1,2,0:0:0:0:
457,139,9323,1,2,3:0:0:0:
298,53,9491,1,10,0:0:0:0:
398,0,9660,2,0,L|393:104,1,78.2600011941528,2|0,1:0|0:0,0:0:0:0:
451,217,9997,6,0,L|456:139,1,78.2600011941528,2|2,1:0|0:0,0:0:0:0:
327,255,10334,2,0,P|355:263|432:247,1,60.0599998167114,0|2,1:0|3:0,0:0:0:0:
281,170,10671,1,2,0:0:0:0:
247,248,10840,1,8,0:0:0:0:
366,178,11009,1,0,1:0:0:0:
203,162,11177,1,0,3:0:0:0:
337,288,11346,1,10,0:0:0:0:
376,112,11514,1,0,3:0:0:0:
247,248,11683,6,0,P|160:264|222:168,1,248.43000833963,2|0,1:0|0:0,0:0:0:0:
261,251,12357,2,0,P|128:233|167:156,1,248.43000833963,10|0,3:0|0:0,0:0:0:0:
277,250,13031,6,0,P|256:282|229:301,1,60.0599998167114,2|0,1:0|3:0,0:0:0:0:
134,377,13368,2,0,L|203:369,1,60.0599998167114,0|8,0:0|0:0,0:0:0:0:
306,358,13705,5,2,1:0:0:0:
277,250,13874,1,0,3:0:0:0:
175,295,14042,1,10,0:0:0:0:
367,286,14211,1,0,3:0:0:0:
194,200,14379,1,2,1:0:0:0:
306,358,14548,1,2,0:0:0:0:
281,155,14716,1,2,3:0:0:0:
277,250,14885,1,10,0:0:0:0:
383,124,15053,6,0,L|371:201,1,78.2600011941528,2|0,1:0|0:0,0:0:0:0:
194,200,15391,2,0,L|172:56,1,78.2600011941528,2|2,1:0|0:0,0:0:0:0:
306,0,15728,1,0,1:0:0:0:
306,0,15896,2,0,L|280:158,1,156.520002388306,2|8,3:0|0:0,0:0:0:0:
113,73,16402,6,0,P|160:44|201:37,2,78.2600011941528,2|2|0,1:0|3:0|0:0,0:0:0:0:
45,210,16907,1,2,3:0:0:0:
182,122,17076,1,2,1:0:0:0:
47,121,17245,1,2,0:0:0:0:
138,227,17413,1,2,3:0:0:0:
113,73,17582,1,10,0:0:0:0:
45,210,17750,6,0,L|56:345,1,78.2600011941528,2|0,1:0|0:0,0:0:0:0:
195,353,18087,2,0,L|210:261,1,78.2600011941528,10|2,0:0|0:0,0:0:0:0:
113,73,18424,1,0,1:0:0:0:
113,73,18593,2,0,L|149:294,1,156.520002388306,2|8,3:0|0:0,0:0:0:0:
225,138,19099,1,2,1:0:0:0:
356,165,19267,1,0,3:0:0:0:
256,221,19436,1,10,0:0:0:0:
308,93,19604,1,0,3:0:0:0:
330,258,19773,5,2,1:0:0:0:
225,138,19941,1,2,0:0:0:0:
215,307,20110,1,2,3:0:0:0:
256,221,20278,1,10,0:0:0:0:
121,294,20447,6,0,L|112:199,1,78.2600011941528,2|0,1:0|0:0,0:0:0:0:
202,66,20784,2,0,L|193:161,1,78.2600011941528,2|0,1:0|0:0,0:0:0:0:
263,298,21121,2,0,L|254:203,1,78.2600011941528,2|2,1:0|3:0,0:0:0:0:
289,58,21458,5,2,0:0:0:0:
338,226,21627,1,10,0:0:0:0:
381,84,21795,5,2,1:0:0:0:
246,222,21964,1,2,3:0:0:0:
289,58,22132,5,10,0:0:0:0:
425,252,22301,1,2,3:0:0:0:
318,142,22469,1,0,1:0:0:0:
318,142,22807,5,2,0:0:0:0:
412,79,22975,1,2,0:0:0:0:
425,252,23144,6,0,L|418:155,1,78.2600011941528,2|2,0:0|0:0,0:0:0:0:
244,214,23481,2,0,B|241:301|241:301|274:264,1,117.390001791229,0|0,3:0|3:0,0:0:0:0:
329,167,23818,6,0,P|265:122|182:141,2,165.620005559754,2|2|2,1:0|0:0|1:0,0:0:0:0:
244,214,24660,1,0,3:0:0:0:
404,118,24829,2,0,L|412:214,1,82.8100027798768,10|2,0:0|3:0,0:0:0:0:
331,332,25166,6,0,L|337:241,1,82.8100027798768,0|2,1:0|0:0,0:0:0:0:
489,232,25503,1,2,3:0:0:0:
489,232,25671,2,0,P|470:262|406:277,2,82.8100027798768,10|0|2,0:0|1:0|0:0,0:0:0:0:
477,59,26177,2,0,L|353:46,1,82.8100027798768,0|2,1:0|0:0,0:0:0:0:
206,26,26514,5,2,1:0:0:0:
235,134,26683,1,0,3:0:0:0:
337,89,26851,1,2,0:0:0:0:
145,98,27020,1,10,0:0:0:0:
318,184,27188,1,0,1:0:0:0:
206,26,27357,1,2,3:0:0:0:
231,229,27525,1,10,0:0:0:0:
235,134,27694,1,2,3:0:0:0:
129,260,27862,6,0,L|142:172,1,82.8100027798768,0|2,1:0|0:0,0:0:0:0:
318,184,28200,2,0,L|332:292,1,82.8100027798768,2|10,3:0|0:0,0:0:0:0:
206,384,28537,1,0,1:0:0:0:
206,384,28705,2,0,L|232:226,1,82.8100027798768,2|10,0:0|0:0,0:0:0:0:
399,311,29042,1,2,0:0:0:0:
399,311,29211,6,0,P|352:340|311:347,2,82.8100027798768,0|2|2,1:0|3:0|0:0,0:0:0:0:
467,174,29716,1,10,0:0:0:0:
330,262,29885,1,0,1:0:0:0:
465,263,30054,1,2,3:0:0:0:
374,157,30222,1,10,0:0:0:0:
399,311,30391,1,0,3:0:0:0:
467,174,30559,6,0,L|456:39,1,82.8100027798768,2|2,1:0|0:0,0:0:0:0:
317,31,30896,2,0,L|302:123,1,82.8100027798768,2|10,3:0|0:0,0:0:0:0:
399,311,31233,1,0,1:0:0:0:
399,311,31402,2,0,L|363:90,1,165.620005559754,2|2,0:0|0:0,0:0:0:0:
230,61,31907,1,0,1:0:0:0:
230,61,32076,2,0,L|194:282,1,165.620005559754,2|8,3:0|0:0,0:0:0:0:
139,119,32582,5,2,1:0:0:0:
287,246,32750,1,2,3:0:0:0:
303,112,32919,1,10,0:0:0:0:
203,224,33087,1,2,3:0:0:0:
387,133,33256,6,0,L|396:228,1,82.8100027798768,2|2,1:0|0:0,0:0:0:0:
279,323,33593,2,0,L|288:228,1,82.8100027798768,2|10,3:0|0:0,0:0:0:0:
187,59,33930,2,0,L|202:225,1,165.620005559754,2|10,1:0|0:0,0:0:0:0:
202,223,34604,5,2,1:0:0:0:
266,162,34773,1,2,3:0:0:0:
223,326,34941,1,2,0:0:0:0:
101,176,35110,1,10,0:0:0:0:
287,244,35278,1,2,1:0:0:0:
100,276,35447,1,2,3:0:0:0:
223,326,35615,6,0,L|395:313,1,165.620005559754,10|0,0:0|1:0,0:0:0:0:
374,153,36121,1,2,0:0:0:0:
374,153,36289,2,0,L|369:239,1,82.8100027798768,2|10,3:0|0:0,0:0:0:0:
474,336,36627,2,0,L|467:236,1,82.8100027798768,0|2,1:0|0:0,0:0:0:0:
287,244,36964,2,0,L|283:333,1,82.8100027798768,0|2,1:0|0:0,0:0:0:0:
146,147,37301,6,0,P|244:174|291:77,2,165.620005559754,2|2|0,1:0|0:0|1:0,0:0:0:0:
216,15,38143,1,2,3:0:0:0:
216,15,38312,2,0,L|211:97,1,82.8100027798768,10|2,0:0|3:0,0:0:0:0:
70,193,38649,2,0,L|65:110,2,82.8100027798768,0|2|2,1:0|0:0|3:0,0:0:0:0:
206,267,39155,1,10,0:0:0:0:
206,267,39323,2,0,L|210:184,1,82.8100027798768,2|2,1:0|0:0,0:0:0:0:
92,283,39660,2,0,L|96:365,1,82.8100027798768,8|2,0:0|0:0,0:0:0:0:
306,358,39997,5,0,1:0:0:0:
305,238,40166,1,2,3:0:0:0:
206,267,40334,1,2,0:0:0:0:
392,314,40503,1,10,0:0:0:0:
233,188,40671,1,0,1:0:0:0:
306,358,40840,1,2,3:0:0:0:
316,137,41008,1,10,0:0:0:0:
206,267,41177,1,0,3:0:0:0:
394,231,41345,6,0,L|408:132,1,82.8100027798768,2|2,1:0|0:0,0:0:0:0:
221,110,41683,2,0,L|233:207,1,82.8100027798768,2|10,3:0|0:0,0:0:0:0:
329,55,42020,1,0,1:0:0:0:
329,55,42188,2,0,L|303:213,1,82.8100027798768,2|2,0:0|1:0,0:0:0:0:
113,73,42525,1,2,0:0:0:0:
113,73,42694,6,0,P|160:44|201:37,2,82.8100027798768,0|2|0,1:0|3:0|0:0,0:0:0:0:
45,210,43199,1,8,0:0:0:0:
182,122,43368,1,2,1:0:0:0:
47,121,43537,1,2,3:0:0:0:
138,227,43705,1,10,0:0:0:0:
113,73,43874,1,0,3:0:0:0:
267,78,44042,6,0,P|283:165|187:103,1,248.43000833963,2|0,0:0|0:0,0:0:0:0:
270,64,44716,2,0,P|252:197|175:158,1,248.43000833963,2|0,0:0|0:0,0:0:0:0:
269,48,45390,2,0,P|301:69|326:112,1,82.8100027798768,2|0,0:0|0:0,0:0:0:0:
275,294,45728,1,2,0:0:0:0:
