osu file format v14

[General]
AudioFilename: audio.mp3
AudioLeadIn: 0
PreviewTime: 375
Countdown: 0
SampleSet: Normal
StackLeniency: 0.7
Mode: 1
LetterboxInBreaks: 0
WidescreenStoryboard: 0

[Editor]
DistanceSpacing: 1.4
BeatDivisor: 8
GridSize: 8
TimelineZoom: 0.7999997

[Metadata]
Title:Despacito ft. R3 Music Box
TitleUnicode:Despacito ft. R3 Music Box
Artist:Will Stetson
ArtistUnicode:Will Stetson
Creator:Sotarks
Version:Kin's Muzukashii
Source:
Tags:cut edit reggaeton universal music latino short ver version akitoshi corinn -laura- shunao shogunmoon snownino_ nevo monstrata mir piggey hakura hightec armin a_r_m_i_n lami intoon luis fonsi daddy yankee ThatTromboneGuy ringtone size kin
BeatmapID:1675835
BeatmapSetID:798007

[Difficulty]
HPDrainRate:6
CircleSize:2
OverallDifficulty:5
ApproachRate:5
SliderMultiplier:1.4
SliderTickRate:1

[Events]
//Background and Video events
0,0,"swimsuit.jpg",0,-90
//Break Periods
//Storyboard Layer 0 (Background)
//Storyboard Layer 1 (Fail)
//Storyboard Layer 2 (Pass)
//Storyboard Layer 3 (Foreground)
//Storyboard Sound Samples

[TimingPoints]
540,659.340659340659,4,1,0,42,1,0
2245,674.157303370787,4,1,0,72,1,0

[Colours]
Combo1 : 255,51,56
Combo2 : 145,250,255
Combo3 : 244,250,37
Combo4 : 255,198,140

[HitObjects]
264,256,540,5,8,0:0:0:0:
264,256,1364,1,8,0:0:0:0:
176,232,2245,1,4,0:0:0:0:
176,232,2582,1,0,0:0:0:0:
264,256,2750,1,8,0:0:0:0:
176,232,2919,1,0,0:0:0:0:
176,232,3087,1,0,0:0:0:0:
264,256,3256,1,8,0:0:0:0:
176,232,3593,1,0,0:0:0:0:
264,256,3930,1,0,0:0:0:0:
176,232,4098,1,0,0:0:0:0:
264,256,4267,1,8,0:0:0:0:
264,256,4604,1,8,0:0:0:0:
264,256,4773,1,0,0:0:0:0:
264,256,4941,1,0,0:0:0:0:
176,232,5110,1,8,0:0:0:0:
176,232,5615,1,0,0:0:0:0:
176,232,5784,1,0,0:0:0:0:
264,256,5952,1,8,0:0:0:0:
176,232,6121,1,0,0:0:0:0:
264,256,6289,1,8,0:0:0:0:
264,256,6627,1,8,0:0:0:0:
264,256,6795,1,0,0:0:0:0:
264,256,6964,1,0,0:0:0:0:
176,232,7301,1,0,0:0:0:0:
176,232,7385,1,0,0:0:0:0:
176,232,7469,1,0,0:0:0:0:
264,256,7638,1,8,0:0:0:0:
176,232,7806,1,0,0:0:0:0:
176,232,8312,1,0,0:0:0:0:
264,256,8480,1,8,0:0:0:0:
176,232,8649,1,8,0:0:0:0:
264,256,8818,1,0,0:0:0:0:
176,232,8986,1,8,0:0:0:0:
264,256,9323,1,0,0:0:0:0:
176,232,9492,1,0,0:0:0:0:
264,256,9660,1,8,0:0:0:0:
264,256,9997,1,8,0:0:0:0:
264,256,10166,1,8,0:0:0:0:
176,232,10334,1,0,0:0:0:0:
264,256,10503,1,8,0:0:0:0:
264,256,10840,1,8,0:0:0:0:
176,232,11009,1,0,0:0:0:0:
176,232,11177,1,0,0:0:0:0:
264,256,11346,1,8,0:0:0:0:
264,256,11683,1,0,0:0:0:0:
264,256,12357,1,8,0:0:0:0:
264,256,13031,1,8,0:0:0:0:
176,232,13368,1,8,0:0:0:0:
176,232,13452,1,8,0:0:0:0:
264,256,13537,1,8,0:0:0:0:
176,232,13705,1,0,0:0:0:0:
264,256,14042,1,8,0:0:0:0:
176,232,14211,1,0,0:0:0:0:
264,256,14379,1,8,0:0:0:0:
264,256,14548,1,8,0:0:0:0:
176,232,14716,1,0,0:0:0:0:
176,232,15053,1,0,0:0:0:0:
176,232,15138,1,0,0:0:0:0:
176,232,15222,1,0,0:0:0:0:
264,256,15391,1,8,0:0:0:0:
264,256,15559,1,8,0:0:0:0:
176,232,15728,1,0,0:0:0:0:
264,256,15896,1,8,0:0:0:0:
176,232,16402,1,0,0:0:0:0:
176,232,16570,1,0,0:0:0:0:
264,256,16739,1,8,0:0:0:0:
176,232,16907,1,0,0:0:0:0:
264,256,17076,1,8,0:0:0:0:
176,232,17413,1,0,0:0:0:0:
176,232,17582,1,0,0:0:0:0:
264,256,17750,1,8,0:0:0:0:
264,256,18087,1,8,0:0:0:0:
264,256,18171,1,8,0:0:0:0:
264,256,18256,1,8,0:0:0:0:
176,232,18424,1,0,0:0:0:0:
264,256,18593,1,8,0:0:0:0:
176,232,19098,1,0,0:0:0:0:
264,256,19267,1,8,0:0:0:0:
176,232,19436,1,0,0:0:0:0:
264,256,19604,1,8,0:0:0:0:
176,232,19773,1,0,0:0:0:0:
264,256,20110,1,8,0:0:0:0:
264,256,20278,1,8,0:0:0:0:
176,232,20447,1,0,0:0:0:0:
264,256,20784,1,8,0:0:0:0:
176,232,20952,1,0,0:0:0:0:
176,232,21121,1,0,0:0:0:0:
264,256,21289,1,8,0:0:0:0:
264,256,21627,1,8,0:0:0:0:
176,232,21795,1,0,0:0:0:0:
176,232,21964,1,0,0:0:0:0:
264,256,22132,1,8,0:0:0:0:
176,232,22469,1,0,0:0:0:0:
416,368,23818,1,4,0:0:0:0:
176,232,24155,1,0,0:0:0:0:
264,256,24323,1,8,0:0:0:0:
176,232,24492,1,0,0:0:0:0:
176,232,24660,1,0,0:0:0:0:
264,256,24829,1,8,0:0:0:0:
176,232,25166,1,0,0:0:0:0:
176,232,25334,1,0,0:0:0:0:
264,256,25503,1,8,0:0:0:0:
176,232,25671,1,0,0:0:0:0:
264,256,25840,1,8,0:0:0:0:
176,232,26177,1,0,0:0:0:0:
176,232,26514,1,0,0:0:0:0:
264,256,26851,1,8,0:0:0:0:
176,232,27020,1,0,0:0:0:0:
264,256,27188,1,8,0:0:0:0:
264,256,27357,1,8,0:0:0:0:
176,232,27525,1,0,0:0:0:0:
176,232,27862,1,0,0:0:0:0:
176,232,28031,1,0,0:0:0:0:
264,256,28200,1,8,0:0:0:0:
264,256,28537,1,8,0:0:0:0:
176,232,28705,1,0,0:0:0:0:
264,256,28874,1,8,0:0:0:0:
264,256,29042,1,8,0:0:0:0:
176,232,29211,1,0,0:0:0:0:
264,256,29379,1,8,0:0:0:0:
176,232,29885,1,0,0:0:0:0:
176,232,30053,1,0,0:0:0:0:
264,256,30222,1,8,0:0:0:0:
176,232,30559,1,0,0:0:0:0:
176,232,30728,1,0,0:0:0:0:
264,256,30896,1,8,0:0:0:0:
176,232,31065,1,0,0:0:0:0:
264,256,31402,1,8,0:0:0:0:
176,232,31570,1,0,0:0:0:0:
176,232,31739,1,0,0:0:0:0:
264,256,31907,1,8,0:0:0:0:
176,232,32076,1,0,0:0:0:0:
264,256,32413,1,8,0:0:0:0:
176,232,32582,1,0,0:0:0:0:
264,256,32750,1,0,0:0:0:0:
264,256,32919,1,8,0:0:0:0:
176,232,33256,1,0,0:0:0:0:
264,256,33593,1,8,0:0:0:0:
264,256,33677,1,8,0:0:0:0:
264,256,33761,1,8,0:0:0:0:
176,232,33930,1,0,0:0:0:0:
264,256,34267,1,8,0:0:0:0:
264,256,34436,1,8,0:0:0:0:
176,232,34604,1,0,0:0:0:0:
264,256,34941,1,8,0:0:0:0:
176,232,35110,1,0,0:0:0:0:
176,232,35278,1,0,0:0:0:0:
264,256,35447,1,8,0:0:0:0:
176,232,35615,1,0,0:0:0:0:
264,256,35952,1,0,0:0:0:0:
176,232,36121,1,8,0:0:0:0:
176,232,36289,1,8,0:0:0:0:
264,256,36458,1,0,0:0:0:0:
176,232,36627,1,8,0:0:0:0:
264,256,36964,1,8,0:0:0:0:
264,256,37132,1,8,0:0:0:0:
176,232,37301,1,0,0:0:0:0:
264,256,37469,1,8,0:0:0:0:
264,256,37975,1,8,0:0:0:0:
176,232,38312,1,0,0:0:0:0:
176,232,38480,1,0,0:0:0:0:
264,256,38649,1,8,0:0:0:0:
176,232,38818,1,0,0:0:0:0:
264,256,38986,1,0,0:0:0:0:
264,256,39155,1,8,0:0:0:0:
176,232,39323,1,0,0:0:0:0:
264,256,39660,1,8,0:0:0:0:
176,232,39829,1,0,0:0:0:0:
264,256,39997,1,0,0:0:0:0:
176,232,40166,1,8,0:0:0:0:
176,232,40671,1,0,0:0:0:0:
176,232,40840,1,0,0:0:0:0:
264,256,41009,1,8,0:0:0:0:
176,232,41346,1,0,0:0:0:0:
264,256,41514,1,8,0:0:0:0:
176,232,41683,1,8,0:0:0:0:
264,256,41851,1,0,0:0:0:0:
176,232,42188,1,8,0:0:0:0:
264,256,42357,1,0,0:0:0:0:
176,232,42525,1,0,0:0:0:0:
264,256,42694,1,8,0:0:0:0:
176,232,43031,1,0,0:0:0:0:
264,256,43200,1,8,0:0:0:0:
176,232,43368,1,0,0:0:0:0:
176,232,43537,1,0,0:0:0:0:
264,256,43705,1,8,0:0:0:0:
264,256,44042,1,8,0:0:0:0:
264,256,44716,1,8,0:0:0:0:
264,256,45391,1,8,0:0:0:0:
176,232,45728,1,0,0:0:0:0:
