osu file format v14

[General]
AudioFilename: audio.mp3
AudioLeadIn: 0
PreviewTime: 375
Countdown: 0
SampleSet: Soft
StackLeniency: 0.7
Mode: 0
LetterboxInBreaks: 0
WidescreenStoryboard: 0

[Editor]
DistanceSpacing: 1.5
BeatDivisor: 4
GridSize: 8
TimelineZoom: 2.1

[Metadata]
Title:Despacito ft. R3 Music Box
TitleUnicode:Despacito ft. R3 Music Box
Artist:Will Stetson
ArtistUnicode:Will Stetson
Creator:Sotarks
Version:Insane
Source:
Tags:cut edit reggaeton universal music latino short ver version akitoshi corinn -laura- shunao shogunmoon snownino_ nevo monstrata mir piggey hakura hightec armin a_r_m_i_n lami intoon luis fonsi daddy yankee ThatTromboneGuy ringtone size kin
BeatmapID:1675834
BeatmapSetID:798007

[Difficulty]
HPDrainRate:5
CircleSize:3.8
OverallDifficulty:8.5
ApproachRate:9
SliderMultiplier:1.72
SliderTickRate:1

[Events]
//Background and Video events
0,0,"swimsuit.jpg",0,0
//Break Periods
//Storyboard Layer 0 (Background)
//Storyboard Layer 1 (Fail)
//Storyboard Layer 2 (Pass)
//Storyboard Layer 3 (Foreground)
//Storyboard Sound Samples

[TimingPoints]
540,659.340659340659,4,2,2,42,1,0
540,-121.951219512195,4,2,2,42,0,0
2245,674.157303370787,4,2,2,52,1,0
2245,-58.1395348837209,4,2,2,52,0,0
10334,-75.7575757575758,4,2,2,52,0,0
10671,-54.9450549450549,4,2,2,52,0,0
11009,-75.7575757575758,4,2,2,52,0,0
11346,-54.9450549450549,4,2,2,52,0,0
13031,-75.7575757575758,4,2,2,52,0,0
13537,-58.1395348837209,4,2,2,52,0,0
23818,-54.9450549450549,4,2,2,62,0,0
44042,-98.0392156862745,4,2,2,42,0,0

[Colours]
Combo1 : 255,51,56
Combo2 : 145,250,255
Combo3 : 244,250,37
Combo4 : 255,198,140

[HitObjects]
436,247,540,6,0,B|347:226|367:293|250:256,1,176.300002690125,2|2,0:0|0:0,0:0:0:0:
265,261,2245,5,2,1:0:0:0:
306,175,2413,2,0,L|285:18,1,147.92000225708,0|8,3:0|0:0,0:0:0:0:
220,190,2919,6,0,P|134:212|92:203,1,73.9600011285401,2|0,1:0|3:0,0:0:0:0:
347,250,3256,2,0,P|384:257|417:273,1,73.9600011285401,10|0,0:0|0:0,0:0:0:0:
265,261,3593,5,2,1:0:0:0:
307,175,3761,1,2,0:0:0:0:
220,190,3930,1,2,3:0:0:0:
258,106,4098,1,10,0:0:0:0:
391,159,4267,6,0,L|400:77,1,73.9600011285401,2|0,1:0|0:0,0:0:0:0:
265,261,4604,2,0,L|274:335,1,73.9600011285401,2|2,1:0|0:0,0:0:0:0:
258,106,4941,5,0,1:0:0:0:
220,190,5110,2,0,B|137:168|153:221|56:200,1,147.92000225708,2|8,3:0|0:0,0:0:0:0:
265,261,5615,5,2,1:0:0:0:
177,274,5784,1,0,3:0:0:0:
335,325,5952,1,10,0:0:0:0:
250,342,6121,1,0,3:0:0:0:
277,180,6289,5,2,1:0:0:0:
353,248,6458,1,2,0:0:0:0:
265,261,6627,1,2,3:0:0:0:
335,325,6795,1,10,0:0:0:0:
277,180,6964,6,0,L|163:155,1,73.9600011285401,2|0,1:0|0:0,0:0:0:0:
424,303,7301,2,0,L|539:316,1,73.9600011285401,10|0,0:0|0:0,0:0:0:0:
452,164,7638,5,2,1:0:0:0:
378,105,7806,2,0,P|355:162|358:269,1,147.92000225708,2|8,3:0|0:0,0:0:0:0:
287,108,8312,6,0,P|264:78|234:57,1,73.9600011285401,2|0,1:0|3:0,0:0:0:0:
105,76,8649,2,0,P|127:46|157:25,1,73.9600011285401,10|0,0:0|3:0,0:0:0:0:
190,154,8986,5,2,1:0:0:0:
83,286,9155,1,2,0:0:0:0:
49,138,9323,1,2,3:0:0:0:
139,220,9492,1,10,0:0:0:0:
239,80,9660,6,0,P|331:58|349:63,1,73.9600011285401,2|0,1:0|0:0,0:0:0:0:
71,46,9997,2,0,P|35:53|3:71,1,73.9600011285401,2|2,1:0|0:0,0:0:0:0:
302,141,10334,6,0,L|332:211,1,56.7599998267822,0|2,1:0|3:0,0:0:0:0:
301,317,10671,2,0,P|267:254|275:182,1,78.2600026271363,2|8,0:0|0:0,0:0:0:0:
174,37,11009,6,0,L|144:103,1,56.7599998267822,0|0,1:0|3:0,0:0:0:0:
140,235,11346,2,0,P|174:172|166:100,1,78.2600026271363,10|0,0:0|3:0,0:0:0:0:
327,34,11683,5,2,1:0:0:0:
327,34,12357,1,10,3:0:0:0:
327,34,13031,6,0,L|346:174,1,113.519999653564,2|0,1:0|0:0,0:0:0:0:
211,60,13537,1,8,0:0:0:0:
266,171,13705,2,0,P|246:266|235:281,1,73.9600011285401,2|0,1:0|3:0,0:0:0:0:
423,123,14042,2,0,P|414:88|415:51,1,73.9600011285401,10|0,0:0|3:0,0:0:0:0:
376,280,14379,5,2,1:0:0:0:
342,146,14548,1,2,0:0:0:0:
295,313,14716,1,2,3:0:0:0:
266,171,14885,1,10,0:0:0:0:
208,346,15053,6,0,L|112:365,1,73.9600011285401,2|0,1:0|0:0,0:0:0:0:
339,233,15391,2,0,L|412:248,1,73.9600011285401,2|2,1:0|0:0,0:0:0:0:
161,196,15728,5,0,1:0:0:0:
216,262,15896,2,0,P|243:169|237:90,1,147.92000225708,2|8,3:0|0:0,0:0:0:0:
404,139,16402,5,2,1:0:0:0:
364,57,16570,1,2,3:0:0:0:
358,211,16739,1,0,0:0:0:0:
318,129,16907,1,2,3:0:0:0:
426,254,17076,5,2,1:0:0:0:
326,296,17245,1,2,0:0:0:0:
453,243,17413,1,2,3:0:0:0:
263,194,17582,1,10,0:0:0:0:
432,343,17750,6,0,P|509:360|521:356,1,73.9600011285401,2|0,1:0|0:0,0:0:0:0:
263,194,18087,2,0,P|227:196|194:213,1,73.9600011285401,10|2,0:0|0:0,0:0:0:0:
468,128,18424,5,0,1:0:0:0:
420,198,18593,2,0,P|350:137|239:96,1,147.92000225708,2|8,3:0|0:0,0:0:0:0:
193,213,19098,5,2,1:0:0:0:
218,104,19267,2,0,L|226:37,2,36.98000056427,0|0|10,3:0|0:0|0:0,0:0:0:0:
263,258,19604,1,0,3:0:0:0:
140,121,19773,5,2,1:0:0:0:
119,281,19941,1,2,0:0:0:0:
206,192,20110,1,2,3:0:0:0:
317,323,20278,1,10,0:0:0:0:
102,263,20447,6,0,P|81:178|81:159,1,73.9600011285401,2|0,1:0|0:0,0:0:0:0:
306,291,20784,2,0,P|327:206|327:187,1,73.9600011285401,2|0,1:0|0:0,0:0:0:0:
494,329,21121,6,0,P|473:244|473:225,1,73.9600011285401,2|2,1:0|3:0,0:0:0:0:
341,142,21458,1,2,0:0:0:0:
392,266,21627,1,10,0:0:0:0:
415,99,21795,1,2,1:0:0:0:
307,273,21964,1,2,3:0:0:0:
266,101,22132,1,10,0:0:0:0:
392,266,22301,1,2,3:0:0:0:
347,148,22469,1,0,1:0:0:0:
347,148,22806,6,0,L|266:133,1,73.9600011285401,2|2,0:0|0:0,0:0:0:0:
128,88,23143,2,0,L|201:75,1,73.9600011285401,2|2,0:0|0:0,0:0:0:0:
36,74,23480,2,0,L|25:15,3,36.98000056427,0|0|0|0,3:0|3:0|3:0|3:0,0:0:0:0:
22,92,23818,5,2,1:0:0:0:
74,213,23986,1,2,3:0:0:0:
128,88,24155,1,2,0:0:0:0:
189,202,24323,1,10,0:0:0:0:
244,44,24492,6,0,P|303:59|328:60,1,78.2600026271363,2|0,1:0|3:0,0:0:0:0:
183,173,24829,2,0,P|124:188|99:189,1,78.2600026271363,10|2,0:0|3:0,0:0:0:0:
325,271,25166,6,0,P|413:308|487:282,1,156.520005254273,0|2,1:0|3:0,0:0:0:0:
337,188,25671,1,10,0:0:0:0:
252,302,25840,2,0,P|193:323|140:324,1,78.2600026271363,0|2,1:0|0:0,0:0:0:0:
94,218,26177,2,0,P|153:239|206:240,1,78.2600026271363,0|2,1:0|0:0,0:0:0:0:
337,188,26514,5,2,1:0:0:0:
250,216,26683,2,0,B|229:128|280:168|237:36,1,156.520005254273,0|10,3:0|0:0,0:0:0:0:
168,240,27188,2,0,P|134:315|118:330,1,78.2600026271363,0|2,1:0|3:0,0:0:0:0:
172,122,27525,2,0,P|152:89|142:52,1,78.2600026271363,10|2,0:0|3:0,0:0:0:0:
250,216,27862,5,0,1:0:0:0:
315,106,28031,1,2,0:0:0:0:
397,223,28200,1,2,3:0:0:0:
318,195,28368,2,0,L|215:220,1,78.2600026271363,10|0,0:0|1:0,0:0:0:0:
396,119,28705,1,2,0:0:0:0:
313,79,28874,2,0,L|237:61,1,78.2600026271363,10|2,0:0|0:0,0:0:0:0:
74,153,29211,5,0,1:0:0:0:
147,219,29379,2,0,P|160:125|153:32,1,156.520005254273,2|10,3:0|0:0,0:0:0:0:
238,203,29885,2,0,P|312:235|320:234,1,78.2600026271363,0|2,1:0|3:0,0:0:0:0:
420,118,30222,2,0,P|383:127|352:151,1,78.2600026271363,10|0,0:0|3:0,0:0:0:0:
407,310,30559,5,2,1:0:0:0:
421,206,30728,1,2,0:0:0:0:
282,297,30896,1,2,3:0:0:0:
363,280,31065,2,0,L|464:295,1,78.2600026271363,10|0,0:0|1:0,0:0:0:0:
235,181,31402,5,2,0:0:0:0:
282,297,31570,1,2,1:0:0:0:
319,165,31739,1,2,0:0:0:0:
136,199,31907,1,0,1:0:0:0:
219,125,32076,2,0,L|203:307,1,156.520005254273,2|8,3:0|0:0,0:0:0:0:
326,143,32582,5,2,1:0:0:0:
387,249,32750,1,2,3:0:0:0:
418,117,32919,1,10,0:0:0:0:
347,223,33087,1,2,3:0:0:0:
333,106,33256,5,2,1:0:0:0:
394,212,33424,1,2,0:0:0:0:
425,80,33593,1,2,3:0:0:0:
354,186,33761,1,10,0:0:0:0:
317,28,33930,6,0,L|226:51,1,78.2600026271363,2|0,1:0|0:0,0:0:0:0:
418,117,34267,2,0,L|494:137,1,78.2600026271363,10|0,0:0|0:0,0:0:0:0:
264,277,34604,5,2,1:0:0:0:
357,313,34773,1,2,3:0:0:0:
244,234,34941,1,2,0:0:0:0:
337,198,35110,1,10,0:0:0:0:
189,299,35278,1,2,1:0:0:0:
164,197,35447,1,2,3:0:0:0:
279,307,35615,2,0,L|367:314,1,78.2600026271363,10|0,0:0|3:0,0:0:0:0:
434,159,35952,6,0,P|398:170|356:166,1,78.2600026271363,0|2,1:0|0:0,0:0:0:0:
221,69,36289,2,0,P|260:65|297:76,1,78.2600026271363,2|10,3:0|0:0,0:0:0:0:
199,205,36627,1,0,1:0:0:0:
134,120,36795,1,2,0:0:0:0:
79,243,36964,2,0,P|87:334|84:349,1,78.2600026271363,0|2,1:0|0:0,0:0:0:0:
221,188,37301,5,2,1:0:0:0:
295,244,37469,2,0,B|375:233|334:187|436:185,1,156.520005254273,0|10,3:0|0:0,0:0:0:0:
283,83,37975,2,0,P|296:167|291:184,1,78.2600026271363,0|2,1:0|3:0,0:0:0:0:
195,301,38312,2,0,P|196:263|210:226,1,78.2600026271363,10|2,0:0|3:0,0:0:0:0:
372,324,38649,5,0,1:0:0:0:
262,362,38818,1,2,0:0:0:0:
396,289,38986,1,2,3:0:0:0:
286,251,39155,1,10,0:0:0:0:
436,208,39323,6,0,P|466:222|525:237,1,78.2600026271363,2|2,1:0|0:0,0:0:0:0:
330,131,39660,2,0,P|300:145|241:160,1,78.2600026271363,8|2,0:0|0:0,0:0:0:0:
420,31,39997,5,0,1:0:0:0:
333,47,40166,2,0,P|242:19|149:30,1,156.520005254273,2|10,3:0|0:0,0:0:0:0:
67,134,40671,2,0,P|120:102|167:97,1,78.2600026271363,0|2,1:0|3:0,0:0:0:0:
277,202,41009,2,0,P|224:170|177:165,1,78.2600026271363,10|0,0:0|3:0,0:0:0:0:
124,308,41346,5,2,1:0:0:0:
96,217,41514,1,2,0:0:0:0:
47,328,41683,1,2,3:0:0:0:
133,225,41851,2,0,P|225:254|240:252,1,78.2600026271363,10|0,0:0|1:0,0:0:0:0:
364,175,42188,1,2,0:0:0:0:
268,140,42357,1,2,1:0:0:0:
331,253,42525,1,2,0:0:0:0:
394,98,42694,5,0,1:0:0:0:
235,222,42862,1,2,3:0:0:0:
446,197,43031,1,0,0:0:0:0:
268,140,43200,1,8,0:0:0:0:
368,323,43368,1,2,1:0:0:0:
394,98,43537,1,2,3:0:0:0:
203,297,43705,1,10,0:0:0:0:
203,297,44042,6,0,P|183:221|98:180,1,175.440001070801,2|2,0:0|0:0,0:0:0:0:
49,244,45391,5,2,0:0:0:0:
20,126,45728,1,2,0:0:0:0:
