osu file format v14

[General]
AudioFilename: audio.mp3
AudioLeadIn: 0
PreviewTime: 375
Countdown: 0
SampleSet: Soft
StackLeniency: 0.7
Mode: 0
LetterboxInBreaks: 0
WidescreenStoryboard: 0

[Editor]
DistanceSpacing: 1.5
BeatDivisor: 4
GridSize: 8
TimelineZoom: 2.1

[Metadata]
Title:Despacito ft. R3 Music Box
TitleUnicode:Despacito ft. R3 Music Box
Artist:Will Stetson
ArtistUnicode:Will Stetson
Creator:Sotarks
Version:Expert
Source:
Tags:cut edit reggaeton universal music latino short ver version akitoshi corinn -laura- shunao shogunmoon snownino_ nevo monstrata mir piggey hakura hightec armin a_r_m_i_n lami intoon luis fonsi daddy yankee ThatTromboneGuy ringtone size kin
BeatmapID:1675832
BeatmapSetID:798007

[Difficulty]
HPDrainRate:5
CircleSize:4.2
OverallDifficulty:8.8
ApproachRate:9
SliderMultiplier:1.72
SliderTickRate:1

[Events]
//Background and Video events
0,0,"swimsuit.jpg",0,0
//Break Periods
//Storyboard Layer 0 (Background)
//Storyboard Layer 1 (Fail)
//Storyboard Layer 2 (Pass)
//Storyboard Layer 3 (Foreground)
//Storyboard Sound Samples

[TimingPoints]
540,659.340659340659,4,2,2,42,1,0
540,-125,4,2,2,42,0,0
2245,674.157303370787,4,2,2,52,1,0
2245,-58.1395348837209,4,2,2,52,0,0
10334,-75.7575757575758,4,2,2,52,0,0
10671,-54.9450549450549,4,2,2,52,0,0
11009,-75.7575757575758,4,2,2,52,0,0
11346,-54.9450549450549,4,2,2,52,0,0
13031,-75.7575757575758,4,2,2,52,0,0
13537,-58.1395348837209,4,2,2,52,0,0
23818,-54.9450549450549,4,2,2,62,0,0
44042,-98.0392156862745,4,2,2,42,0,0

[Colours]
Combo1 : 255,51,56
Combo2 : 145,250,255
Combo3 : 244,250,37
Combo4 : 255,198,140

[HitObjects]
75,128,540,6,0,P|138:100|250:140,1,172,2|2,0:0|0:0,0:0:0:0:
235,126,2245,5,2,1:0:0:0:
203,199,2413,2,0,L|224:356,1,147.92000225708,0|8,3:0|0:0,0:0:0:0:
292,222,2919,6,0,P|378:200|420:209,1,73.9600011285401,2|0,1:0|3:0,0:0:0:0:
176,282,3256,2,0,P|139:275|106:259,1,73.9600011285401,10|0,0:0|0:0,0:0:0:0:
323,302,3593,5,2,1:0:0:0:
202,199,3761,1,2,0:0:0:0:
420,252,3930,1,2,3:0:0:0:
299,149,4098,1,10,0:0:0:0:
176,282,4267,6,0,L|167:364,1,73.9600011285401,2|0,1:0|0:0,0:0:0:0:
86,118,4604,2,0,L|77:44,1,73.9600011285401,2|2,1:0|0:0,0:0:0:0:
202,199,4941,5,0,1:0:0:0:
259,134,5110,2,0,B|355:126|309:184|439:167,1,147.92000225708,2|8,3:0|0:0,0:0:0:0:
246,45,5615,5,2,1:0:0:0:
332,62,5784,1,0,3:0:0:0:
173,117,5952,1,10,0:0:0:0:
259,134,6121,1,0,3:0:0:0:
104,29,6289,5,2,1:0:0:0:
168,196,6458,1,2,0:0:0:0:
246,45,6627,1,2,3:0:0:0:
83,178,6795,1,10,0:0:0:0:
301,144,6964,6,0,L|416:131,1,73.9600011285401,2|0,1:0|0:0,0:0:0:0:
169,282,7301,2,0,L|54:269,1,73.9600011285401,10|0,0:0|0:0,0:0:0:0:
296,370,7638,5,2,1:0:0:0:
272,289,7806,2,0,L|304:126,1,147.92000225708,2|8,3:0|0:0,0:0:0:0:
136,67,8312,6,0,P|196:134|202:165,1,73.9600011285401,2|0,1:0|3:0,0:0:0:0:
310,21,8649,2,0,P|250:88|244:119,1,73.9600011285401,10|0,0:0|3:0,0:0:0:0:
396,167,8986,5,2,1:0:0:0:
440,15,9155,1,2,0:0:0:0:
477,216,9323,1,2,3:0:0:0:
378,73,9492,1,10,0:0:0:0:
269,232,9660,6,0,P|177:210|159:215,1,73.9600011285401,2|0,1:0|0:0,0:0:0:0:
426,330,9997,2,0,P|462:323|494:305,1,73.9600011285401,2|2,1:0|0:0,0:0:0:0:
176,353,10334,6,0,L|146:287,1,56.7599998267822,0|2,1:0|3:0,0:0:0:0:
172,85,10671,2,0,P|206:148|198:220,1,78.2600026271363,2|8,0:0|0:0,0:0:0:0:
335,337,11009,6,0,L|365:271,1,56.7599998267822,0|0,1:0|3:0,0:0:0:0:
339,69,11346,2,0,P|305:132|313:204,1,78.2600026271363,10|0,0:0|3:0,0:0:0:0:
205,335,11683,5,2,1:0:0:0:
205,335,12357,1,10,3:0:0:0:
205,335,13031,6,0,L|186:195,1,113.519999653564,2|0,1:0|0:0,0:0:0:0:
342,342,13537,1,8,0:0:0:0:
270,189,13705,2,0,P|290:94|301:79,1,73.9600011285401,2|0,1:0|3:0,0:0:0:0:
103,251,14042,2,0,P|112:286|111:323,1,73.9600011285401,10|0,0:0|3:0,0:0:0:0:
149,58,14379,5,2,1:0:0:0:
189,222,14548,1,2,0:0:0:0:
230,25,14716,1,2,3:0:0:0:
270,189,14885,1,10,0:0:0:0:
391,40,15053,6,0,L|487:21,1,73.9600011285401,2|0,1:0|0:0,0:0:0:0:
217,108,15391,2,0,L|144:93,1,73.9600011285401,2|2,1:0|0:0,0:0:0:0:
361,215,15728,5,0,1:0:0:0:
300,130,15896,2,0,P|273:223|279:302,1,147.92000225708,2|8,3:0|0:0,0:0:0:0:
94,225,16402,5,2,1:0:0:0:
134,307,16570,1,2,3:0:0:0:
157,152,16739,1,0,0:0:0:0:
197,234,16907,1,2,3:0:0:0:
77,102,17076,5,2,1:0:0:0:
237,61,17245,1,2,0:0:0:0:
59,124,17413,1,2,3:0:0:0:
233,165,17582,1,10,0:0:0:0:
74,22,17750,6,0,P|-3:5|-15:9,1,73.9600011285401,2|0,1:0|0:0,0:0:0:0:
246,180,18087,2,0,P|282:178|315:161,1,73.9600011285401,10|2,0:0|0:0,0:0:0:0:
41,246,18424,5,0,1:0:0:0:
89,176,18593,2,0,P|179:232|235:314,1,147.92000225708,2|8,3:0|0:0,0:0:0:0:
325,106,19098,5,2,1:0:0:0:
289,266,19267,1,0,3:0:0:0:
289,266,19351,1,0,0:0:0:0:
289,266,19436,1,10,0:0:0:0:
248,91,19604,1,0,3:0:0:0:
370,275,19773,5,2,1:0:0:0:
445,64,19941,1,2,0:0:0:0:
303,182,20110,1,2,3:0:0:0:
197,17,20278,1,10,0:0:0:0:
399,137,20447,6,0,P|420:222|420:241,1,73.9600011285401,2|0,1:0|0:0,0:0:0:0:
202,101,20784,2,0,P|181:186|181:205,1,73.9600011285401,2|0,1:0|0:0,0:0:0:0:
15,45,21121,6,0,P|36:130|36:149,1,73.9600011285401,2|2,1:0|3:0,0:0:0:0:
178,280,21458,1,2,0:0:0:0:
117,108,21627,1,10,0:0:0:0:
104,323,21795,1,2,1:0:0:0:
202,101,21964,1,2,3:0:0:0:
253,321,22132,1,10,0:0:0:0:
117,108,22301,1,2,3:0:0:0:
178,280,22469,1,0,1:0:0:0:
178,280,22806,5,2,0:0:0:0:
247,223,22975,1,2,0:0:0:0:
340,274,23143,1,2,0:0:0:0:
409,217,23312,1,2,0:0:0:0:
504,273,23480,1,0,3:0:0:0:
504,273,23565,1,0,3:0:0:0:
504,273,23649,1,0,3:0:0:0:
504,273,23733,1,0,3:0:0:0:
504,273,23818,5,2,1:0:0:0:
430,137,23986,1,2,3:0:0:0:
359,303,24155,1,2,0:0:0:0:
271,151,24323,1,10,0:0:0:0:
180,341,24492,6,0,P|121:326|96:325,1,78.2600026271363,2|0,1:0|3:0,0:0:0:0:
310,230,24829,2,0,P|369:215|394:214,1,78.2600026271363,10|2,0:0|3:0,0:0:0:0:
184,103,25166,6,0,P|96:66|22:92,1,156.520005254273,0|2,1:0|3:0,0:0:0:0:
154,198,25671,1,10,0:0:0:0:
277,51,25840,2,0,P|336:30|389:29,1,78.2600026271363,0|2,1:0|0:0,0:0:0:0:
439,154,26177,2,0,P|380:133|327:132,1,78.2600026271363,0|2,1:0|0:0,0:0:0:0:
185,187,26514,5,2,1:0:0:0:
263,132,26683,2,0,B|305:233|238:201|302:331,1,156.520005254273,0|10,3:0|0:0,0:0:0:0:
355,155,27188,2,0,P|389:80|405:65,1,78.2600026271363,0|2,1:0|3:0,0:0:0:0:
367,258,27525,2,0,P|387:291|397:328,1,78.2600026271363,10|2,0:0|3:0,0:0:0:0:
262,133,27862,5,0,1:0:0:0:
194,268,28031,1,2,0:0:0:0:
100,135,28200,1,2,3:0:0:0:
191,179,28368,2,0,L|294:154,1,78.2600026271363,10|0,0:0|1:0,0:0:0:0:
108,277,28705,1,2,0:0:0:0:
196,295,28874,2,0,L|272:313,1,78.2600026271363,10|2,0:0|0:0,0:0:0:0:
435,221,29211,5,0,1:0:0:0:
362,154,29379,2,0,P|349:248|356:341,1,156.520005254273,2|10,3:0|0:0,0:0:0:0:
271,171,29885,2,0,P|197:139|189:140,1,78.2600026271363,0|2,1:0|3:0,0:0:0:0:
75,270,30222,2,0,P|112:261|143:237,1,78.2600026271363,10|0,0:0|3:0,0:0:0:0:
102,64,30559,5,2,1:0:0:0:
74,182,30728,1,2,0:0:0:0:
223,92,30896,1,2,3:0:0:0:
137,117,31065,2,0,L|36:102,1,78.2600026271363,10|0,0:0|1:0,0:0:0:0:
264,217,31402,5,2,0:0:0:0:
223,92,31570,1,2,1:0:0:0:
191,255,31739,1,2,0:0:0:0:
373,175,31907,1,0,1:0:0:0:
290,249,32076,2,0,L|306:67,1,156.520005254273,2|8,3:0|0:0,0:0:0:0:
183,231,32582,5,2,1:0:0:0:
117,86,32750,1,2,3:0:0:0:
91,257,32919,1,10,0:0:0:0:
157,112,33087,1,2,3:0:0:0:
176,268,33256,5,2,1:0:0:0:
110,123,33424,1,2,0:0:0:0:
84,294,33593,1,2,3:0:0:0:
150,149,33761,1,10,0:0:0:0:
192,346,33930,6,0,L|283:323,1,78.2600026271363,2|0,1:0|0:0,0:0:0:0:
92,207,34267,2,0,L|16:187,1,78.2600026271363,10|0,0:0|0:0,0:0:0:0:
245,97,34604,5,2,1:0:0:0:
152,61,34773,1,2,3:0:0:0:
265,140,34941,1,2,0:0:0:0:
172,176,35110,1,10,0:0:0:0:
320,75,35278,1,2,1:0:0:0:
360,211,35447,1,2,3:0:0:0:
230,67,35615,2,0,L|142:60,1,78.2600026271363,10|0,0:0|3:0,0:0:0:0:
75,215,35952,6,0,P|111:204|153:208,1,78.2600026271363,0|2,1:0|0:0,0:0:0:0:
288,305,36289,2,0,P|249:309|212:298,1,78.2600026271363,2|10,3:0|0:0,0:0:0:0:
310,169,36627,1,0,1:0:0:0:
375,254,36795,1,2,0:0:0:0:
430,131,36964,2,0,P|422:40|425:25,1,78.2600026271363,0|2,1:0|0:0,0:0:0:0:
288,186,37301,5,2,1:0:0:0:
217,129,37469,2,0,B|115:131|169:191|22:191,1,156.520005254273,0|10,3:0|0:0,0:0:0:0:
222,289,37975,2,0,P|209:205|214:188,1,78.2600026271363,0|2,1:0|3:0,0:0:0:0:
314,73,38312,2,0,P|313:111|299:148,1,78.2600026271363,10|2,0:0|3:0,0:0:0:0:
137,50,38649,5,0,1:0:0:0:
247,12,38818,1,2,0:0:0:0:
113,85,38986,1,2,3:0:0:0:
223,123,39155,1,10,0:0:0:0:
73,166,39323,6,0,P|43:152|-16:137,1,78.2600026271363,2|2,1:0|0:0,0:0:0:0:
179,243,39660,2,0,P|209:229|268:214,1,78.2600026271363,8|2,0:0|0:0,0:0:0:0:
89,343,39997,5,0,1:0:0:0:
176,327,40166,2,0,P|267:355|360:344,1,156.520005254273,2|10,3:0|0:0,0:0:0:0:
442,240,40671,2,0,P|389:272|342:277,1,78.2600026271363,0|2,1:0|3:0,0:0:0:0:
232,172,41009,2,0,P|285:204|332:209,1,78.2600026271363,10|0,0:0|3:0,0:0:0:0:
385,66,41346,5,2,1:0:0:0:
413,157,41514,1,2,0:0:0:0:
462,46,41683,1,2,3:0:0:0:
376,149,41851,2,0,P|284:120|269:122,1,78.2600026271363,10|0,0:0|1:0,0:0:0:0:
145,199,42188,1,2,0:0:0:0:
241,234,42357,1,2,1:0:0:0:
178,121,42525,1,2,0:0:0:0:
107,272,42694,5,0,1:0:0:0:
143,48,42862,1,2,3:0:0:0:
288,301,43031,1,0,0:0:0:0:
221,16,43200,1,8,0:0:0:0:
97,303,43368,1,2,1:0:0:0:
143,48,43537,1,2,3:0:0:0:
279,334,43705,1,10,0:0:0:0:
279,334,44042,6,0,P|304:267|247:181,1,175.440001070801,2|2,0:0|0:0,0:0:0:0:
308,128,45391,5,2,0:0:0:0:
197,237,45728,1,2,0:0:0:0:
