osu file format v14

[General]
AudioFilename: audio.mp3
AudioLeadIn: 0
PreviewTime: 375
Countdown: 0
SampleSet: Soft
StackLeniency: 0.7
Mode: 0
LetterboxInBreaks: 0
WidescreenStoryboard: 0

[Editor]
DistanceSpacing: 1
BeatDivisor: 4
GridSize: 8
TimelineZoom: 1.2

[Metadata]
Title:Despacito ft. R3 Music Box
TitleUnicode:Despacito ft. R3 Music Box
Artist:Will Stetson
ArtistUnicode:Will Stetson
Creator:Sotarks
Version:Akitoshi's Normal
Source:
Tags:cut edit reggaeton universal music latino short ver version akitoshi corinn -laura- shunao shogunmoon snownino_ nevo monstrata mir piggey hakura hightec armin a_r_m_i_n lami intoon luis fonsi daddy yankee ThatTromboneGuy ringtone size kin
BeatmapID:1675831
BeatmapSetID:798007

[Difficulty]
HPDrainRate:4
CircleSize:3.2
OverallDifficulty:4
ApproachRate:5
SliderMultiplier:2.1
SliderTickRate:1

[Events]
//Background and Video events
0,0,"swimsuit.jpg",0,0
//Break Periods
//Storyboard Layer 0 (Background)
//Storyboard Layer 1 (Fail)
//Storyboard Layer 2 (Pass)
//Storyboard Layer 3 (Foreground)
//Storyboard Sound Samples

[TimingPoints]
540,659.340659340659,4,2,2,42,1,0
540,-125,4,2,2,42,0,0
2245,674.157303370787,4,2,2,52,1,0
2245,-100,4,2,2,52,0,0
10334,-100,4,2,2,52,0,0
10671,-100,4,2,2,52,0,0
11009,-100,4,2,2,52,0,0
11346,-100,4,2,2,52,0,0
13031,-100,4,2,2,52,0,0
13537,-100,4,2,2,52,0,0
23818,-100,4,2,2,62,0,0
44042,-100,4,2,2,42,0,0

[Colours]
Combo1 : 255,51,56
Combo2 : 145,250,255
Combo3 : 244,250,37
Combo4 : 255,198,140

[HitObjects]
497,54,540,6,0,P|401:24|269:57,1,210,2|2,0:0|0:0,0:0:0:0:
56,168,2245,6,0,L|171:163,1,105,2|2,1:0|0:0,0:0:0:0:
210,141,2750,1,8,0:0:0:0:
210,141,2919,2,0,L|325:146,1,105,2|10,1:0|0:0,0:0:0:0:
408,192,3593,2,0,P|422:247|404:307,1,105,2|2,1:0|3:0,0:0:0:0:
376,332,4098,1,10,0:0:0:0:
376,332,4267,2,0,P|321:318|261:336,1,105,2|2,1:0|1:0,0:0:0:0:
172,352,4941,6,0,L|63:349,1,105,0|0,1:0|0:0,0:0:0:0:
19,348,5447,1,8,0:0:0:0:
19,348,5615,2,0,P|9:291|21:242,1,105,2|10,1:0|0:0,0:0:0:0:
86,165,6289,2,0,L|158:160,1,52.5,2|2,1:0|0:0,0:0:0:0:
187,140,6627,2,0,L|259:145,1,52.5,2|10,3:0|0:0,0:0:0:0:
290,153,6964,2,0,P|341:168|410:149,1,105,2|10,1:0|0:0,0:0:0:0:
490,194,7638,6,0,P|505:245|486:314,1,105,2|0,1:0|0:0,0:0:0:0:
471,343,8143,1,8,0:0:0:0:
471,343,8312,2,0,L|351:347,1,105,2|10,1:0|0:0,0:0:0:0:
271,299,8986,2,0,P|256:248|275:179,1,105,2|2,1:0|3:0,0:0:0:0:
290,153,9492,1,10,0:0:0:0:
290,153,9660,2,0,L|170:157,1,105,2|2,1:0|1:0,0:0:0:0:
80,161,10334,5,0,1:0:0:0:
21,248,10671,1,2,0:0:0:0:
63,344,11009,1,0,1:0:0:0:
167,348,11346,1,10,0:0:0:0:
243,276,11683,2,0,B|374:262|337:332|456:312,1,210,2|10,1:0|3:0,0:0:0:0:
509,114,13031,6,0,P|457:98|397:103,1,105,2|0,1:0|0:0,0:0:0:0:
365,130,13537,1,8,0:0:0:0:
365,130,13705,2,0,L|251:126,1,105,2|10,1:0|0:0,0:0:0:0:
192,45,14379,2,0,L|78:49,1,105,2|2,1:0|3:0,0:0:0:0:
39,58,14885,1,10,0:0:0:0:
39,58,15053,2,0,P|23:110|28:170,1,105,2|2,1:0|1:0,0:0:0:0:
63,258,15728,6,0,P|115:242|175:247,1,105,0|0,1:0|0:0,0:0:0:0:
218,266,16233,1,8,0:0:0:0:
218,266,16402,2,0,P|270:282|330:277,1,105,2|0,1:0|0:0,0:0:0:0:
418,243,17076,2,0,L|422:175,1,52.5,2|2,1:0|0:0,0:0:0:0:
439,141,17413,2,0,L|435:73,1,52.5,2|10,3:0|0:0,0:0:0:0:
417,39,17750,2,0,P|364:31|311:45,1,105,2|10,1:0|0:0,0:0:0:0:
219,87,18424,6,0,P|166:95|113:81,1,105,0|0,1:0|0:0,0:0:0:0:
74,64,18930,1,8,0:0:0:0:
74,64,19098,2,0,L|69:177,1,105,2|10,1:0|0:0,0:0:0:0:
100,269,19773,2,0,P|153:261|206:275,1,105,2|2,1:0|3:0,0:0:0:0:
251,305,20278,1,10,0:0:0:0:
251,305,20447,2,0,P|301:292|353:300,1,105,2|2,1:0|1:0,0:0:0:0:
454,329,21121,5,2,1:0:0:0:
495,232,21458,2,0,L|487:103,2,105,2|2|10,0:0|1:0|0:0,0:0:0:0:
454,329,22469,1,0,1:0:0:0:
357,370,22806,1,2,0:0:0:0:
254,347,23143,2,0,B|152:326|206:369|88:353,1,157.5,2|0,0:0|3:0,0:0:0:0:
48,339,23818,6,0,L|40:223,1,105,2|2,1:0|0:0,0:0:0:0:
16,194,24323,1,10,0:0:0:0:
16,194,24492,2,0,L|24:78,1,105,2|10,1:0|0:0,0:0:0:0:
106,25,25166,2,0,P|176:24|214:45,1,105,0|2,1:0|3:0,0:0:0:0:
253,74,25671,1,10,0:0:0:0:
253,74,25840,2,0,P|301:54|353:60,1,105,0|0,1:0|1:0,0:0:0:0:
449,102,26514,5,2,1:0:0:0:
505,190,26851,2,0,L|503:243,1,52.5,2|10,0:0|0:0,0:0:0:0:
494,294,27188,2,0,P|446:306|383:294,1,105,0|10,1:0|0:0,0:0:0:0:
308,233,27862,2,0,P|260:221|197:233,1,105,0|2,1:0|3:0,0:0:0:0:
161,254,28368,1,10,0:0:0:0:
161,254,28537,2,0,L|152:137,1,105,0|10,1:0|0:0,0:0:0:0:
91,64,29211,5,0,1:0:0:0:
26,146,29548,2,0,L|23:220,1,52.5,2|10,0:0|0:0,0:0:0:0:
4,247,29885,2,0,L|16:365,1,105,0|10,1:0|0:0,0:0:0:0:
118,368,30559,2,0,P|176:350|235:366,1,105,2|2,1:0|3:0,0:0:0:0:
273,376,31065,1,10,0:0:0:0:
273,376,31233,2,0,L|285:258,1,105,0|2,1:0|1:0,0:0:0:0:
297,167,31907,5,0,1:0:0:0:
392,123,32245,1,0,0:0:0:0:
484,173,32582,2,0,P|498:230|484:295,1,105,2|10,1:0|0:0,0:0:0:0:
420,352,33256,1,2,1:0:0:0:
316,369,33593,1,2,3:0:0:0:
225,316,33930,2,0,P|163:306|99:328,1,105,2|10,1:0|0:0,0:0:0:0:
20,338,34604,6,0,L|16:231,1,105,2|2,1:0|0:0,0:0:0:0:
16,184,35110,1,10,0:0:0:0:
16,184,35278,2,0,P|68:194|128:175,1,105,2|10,1:0|0:0,0:0:0:0:
203,121,35952,2,0,P|255:111|315:130,1,105,0|2,1:0|3:0,0:0:0:0:
354,154,36458,1,10,0:0:0:0:
354,154,36627,2,0,L|350:261,1,105,0|0,1:0|1:0,0:0:0:0:
288,344,37301,5,2,1:0:0:0:
200,286,37638,2,0,L|133:288,1,52.5,2|10,0:0|0:0,0:0:0:0:
94,289,37975,2,0,P|81:233|92:184,1,105,0|10,1:0|0:0,0:0:0:0:
143,96,38649,2,0,P|199:109|248:98,1,105,0|2,1:0|3:0,0:0:0:0:
296,79,39155,1,10,0:0:0:0:
296,79,39323,2,0,P|352:66|401:77,1,105,2|8,1:0|0:0,0:0:0:0:
484,135,39997,5,0,1:0:0:0:
499,238,40334,2,0,L|497:294,1,52.5,2|10,0:0|0:0,0:0:0:0:
490,342,40671,2,0,P|442:353|384:334,1,105,0|10,1:0|0:0,0:0:0:0:
296,288,41346,2,0,P|248:277|190:296,1,105,2|2,1:0|3:0,0:0:0:0:
153,320,41851,1,10,0:0:0:0:
153,320,42020,2,0,L|44:316,1,105,0|2,1:0|1:0,0:0:0:0:
4,220,42694,5,0,1:0:0:0:
24,117,43031,1,0,0:0:0:0:
118,70,43368,1,2,1:0:0:0:
213,113,43705,1,10,0:0:0:0:
259,206,44042,6,0,B|272:348|272:348|379:344|409:272|368:189|289:184,1,420,2|2,0:0|0:0,0:0:0:0:
213,113,45728,1,2,0:0:0:0:
