osu file format v14

[General]
AudioFilename: audio.mp3
AudioLeadIn: 0
PreviewTime: 408
Countdown: 0
SampleSet: None
StackLeniency: 0.7
Mode: 3
LetterboxInBreaks: 0
SpecialStyle: 0
WidescreenStoryboard: 1

[Editor]
DistanceSpacing: 0.8
BeatDivisor: 4
GridSize: 32
TimelineZoom: 1

[Metadata]
Title:Despacito ft. R3 Music Box
TitleUnicode:Despacito ft. R3 Music Box
Artist:Will Stetson
ArtistUnicode:Will Stetson
Creator:Hilmi Ghazian
Version:Normal
Source:
Tags:cut edit reggaeton universal music latino short ver.
BeatmapID:1814685
BeatmapSetID:868151

[Difficulty]
HPDrainRate:7
CircleSize:4
OverallDifficulty:7
ApproachRate:5
SliderMultiplier:1.4
SliderTickRate:1

[Events]
//Background and Video events
0,0,"swimsuit.jpg",0,0
//Break Periods
//Storyboard Layer 0 (Background)
//Storyboard Layer 1 (Fail)
//Storyboard Layer 2 (Pass)
//Storyboard Layer 3 (Foreground)
//Storyboard Sound Samples

[TimingPoints]
2262,674.157303370787,4,2,0,0,1,0
23835,-100,4,2,0,0,0,1
44059,-100,4,2,0,0,0,0

[HitObjects]
64,192,2262,5,0,0:0:0:0:
320,192,2262,1,0,0:0:0:0:
192,192,2430,1,0,0:0:0:0:
320,192,2599,1,0,0:0:0:0:
448,192,2767,1,0,0:0:0:0:
192,192,2936,1,0,0:0:0:0:
64,192,2936,1,0,0:0:0:0:
448,192,3104,1,0,0:0:0:0:
320,192,3273,1,0,0:0:0:0:
192,192,3441,1,0,0:0:0:0:
448,192,3610,1,0,0:0:0:0:
64,192,3610,1,0,0:0:0:0:
192,192,3947,1,0,0:0:0:0:
320,192,4115,1,0,0:0:0:0:
64,192,4284,1,0,0:0:0:0:
448,192,4284,1,0,0:0:0:0:
64,192,4621,1,0,0:0:0:0:
448,192,4621,1,0,0:0:0:0:
64,192,4958,1,0,0:0:0:0:
448,192,4958,1,0,0:0:0:0:
320,192,5127,1,0,0:0:0:0:
192,192,5295,1,0,0:0:0:0:
64,192,5464,1,0,0:0:0:0:
448,192,5632,1,0,0:0:0:0:
320,192,5632,1,0,0:0:0:0:
192,192,5801,1,0,0:0:0:0:
64,192,5969,1,0,0:0:0:0:
320,192,6138,1,0,0:0:0:0:
448,192,6306,1,0,0:0:0:0:
192,192,6306,1,0,0:0:0:0:
448,192,6644,1,0,0:0:0:0:
320,192,6812,1,0,0:0:0:0:
192,192,6981,1,0,0:0:0:0:
64,192,6981,1,0,0:0:0:0:
320,192,7318,1,0,0:0:0:0:
448,192,7655,1,0,0:0:0:0:
192,192,7655,1,0,0:0:0:0:
64,192,7823,1,0,0:0:0:0:
320,192,7992,1,0,0:0:0:0:
192,192,8160,1,0,0:0:0:0:
64,192,8329,1,0,0:0:0:0:
448,192,8329,1,0,0:0:0:0:
192,192,8497,1,0,0:0:0:0:
320,192,8666,1,0,0:0:0:0:
448,192,8835,1,0,0:0:0:0:
192,192,9003,1,0,0:0:0:0:
64,192,9003,1,0,0:0:0:0:
448,192,9340,1,0,0:0:0:0:
320,192,9509,1,0,0:0:0:0:
64,192,9677,1,0,0:0:0:0:
192,192,9677,1,0,0:0:0:0:
448,192,10014,1,0,0:0:0:0:
320,192,10014,1,0,0:0:0:0:
192,192,10351,1,0,0:0:0:0:
64,192,10351,1,0,0:0:0:0:
320,192,10520,1,0,0:0:0:0:
448,192,10688,1,0,0:0:0:0:
64,192,10857,1,0,0:0:0:0:
320,192,11026,1,0,0:0:0:0:
192,192,11026,1,0,0:0:0:0:
448,192,11194,1,0,0:0:0:0:
320,192,11363,1,0,0:0:0:0:
64,192,11700,1,0,0:0:0:0:
192,192,11700,1,0,0:0:0:0:
64,192,12374,1,0,0:0:0:0:
320,192,12374,1,0,0:0:0:0:
448,192,12374,1,0,0:0:0:0:
320,192,13048,1,0,0:0:0:0:
448,192,13048,1,0,0:0:0:0:
192,192,13217,1,0,0:0:0:0:
64,192,13385,1,0,0:0:0:0:
448,192,13554,1,0,0:0:0:0:
320,192,13722,1,0,0:0:0:0:
192,192,13722,1,0,0:0:0:0:
64,192,13891,1,0,0:0:0:0:
192,192,14059,1,0,0:0:0:0:
320,192,14228,1,0,0:0:0:0:
448,192,14396,1,0,0:0:0:0:
192,192,14396,1,0,0:0:0:0:
64,192,14733,1,0,0:0:0:0:
192,192,14902,1,0,0:0:0:0:
320,192,15070,1,0,0:0:0:0:
448,192,15070,1,0,0:0:0:0:
64,192,15408,1,0,0:0:0:0:
192,192,15408,1,0,0:0:0:0:
448,192,15745,1,0,0:0:0:0:
320,192,15745,1,0,0:0:0:0:
64,192,15913,1,0,0:0:0:0:
192,192,16082,1,0,0:0:0:0:
320,192,16250,1,0,0:0:0:0:
448,192,16419,1,0,0:0:0:0:
192,192,16419,1,0,0:0:0:0:
64,192,16587,1,0,0:0:0:0:
448,192,16756,1,0,0:0:0:0:
320,192,16924,1,0,0:0:0:0:
64,192,17093,1,0,0:0:0:0:
192,192,17093,1,0,0:0:0:0:
320,192,17430,1,0,0:0:0:0:
192,192,17599,1,0,0:0:0:0:
448,192,17767,1,0,0:0:0:0:
64,192,17767,1,0,0:0:0:0:
320,192,18104,1,0,0:0:0:0:
192,192,18441,1,0,0:0:0:0:
448,192,18441,1,0,0:0:0:0:
64,192,18610,1,0,0:0:0:0:
192,192,18778,1,0,0:0:0:0:
320,192,18947,1,0,0:0:0:0:
64,192,19115,1,0,0:0:0:0:
448,192,19115,1,0,0:0:0:0:
192,192,19284,1,0,0:0:0:0:
320,192,19453,1,0,0:0:0:0:
448,192,19621,1,0,0:0:0:0:
64,192,19790,1,0,0:0:0:0:
192,192,19790,1,0,0:0:0:0:
448,192,20127,1,0,0:0:0:0:
320,192,20295,1,0,0:0:0:0:
64,192,20464,1,0,0:0:0:0:
448,192,20464,1,0,0:0:0:0:
192,192,20801,1,0,0:0:0:0:
320,192,20801,1,0,0:0:0:0:
64,192,21138,1,0,0:0:0:0:
448,192,21138,1,0,0:0:0:0:
320,192,21306,1,0,0:0:0:0:
192,192,21475,1,0,0:0:0:0:
64,192,21644,1,0,0:0:0:0:
320,192,21812,1,0,0:0:0:0:
448,192,21812,1,0,0:0:0:0:
192,192,21981,1,0,0:0:0:0:
64,192,22149,1,0,0:0:0:0:
448,192,22486,1,0,0:0:0:0:
64,192,22486,1,0,0:0:0:0:
448,192,23497,128,0,23835:0:0:0:0:
64,192,23835,1,0,0:0:0:0:
192,192,23835,1,0,0:0:0:0:
320,192,24003,1,0,0:0:0:0:
448,192,24172,1,0,0:0:0:0:
192,192,24340,1,0,0:0:0:0:
64,192,24509,1,0,0:0:0:0:
320,192,24509,1,0,0:0:0:0:
448,192,24677,1,0,0:0:0:0:
320,192,24846,1,0,0:0:0:0:
192,192,25014,1,0,0:0:0:0:
64,192,25183,1,0,0:0:0:0:
448,192,25183,1,0,0:0:0:0:
320,192,25351,1,0,0:0:0:0:
192,192,25520,1,0,0:0:0:0:
64,192,25688,1,0,0:0:0:0:
320,192,25857,1,0,0:0:0:0:
448,192,25857,1,0,0:0:0:0:
64,192,26194,1,0,0:0:0:0:
192,192,26194,1,0,0:0:0:0:
448,192,26531,1,0,0:0:0:0:
320,192,26531,1,0,0:0:0:0:
192,192,26700,1,0,0:0:0:0:
64,192,26868,1,0,0:0:0:0:
448,192,27037,1,0,0:0:0:0:
320,192,27205,1,0,0:0:0:0:
192,192,27205,1,0,0:0:0:0:
64,192,27374,1,0,0:0:0:0:
448,192,27542,1,0,0:0:0:0:
320,192,27711,1,0,0:0:0:0:
192,192,27879,1,0,0:0:0:0:
64,192,27879,1,0,0:0:0:0:
320,192,28048,1,0,0:0:0:0:
448,192,28217,1,0,0:0:0:0:
64,192,28385,1,0,0:0:0:0:
192,192,28554,1,0,0:0:0:0:
320,192,28554,1,0,0:0:0:0:
448,192,28891,1,0,0:0:0:0:
64,192,29228,1,0,0:0:0:0:
192,192,29228,1,0,0:0:0:0:
320,192,29396,1,0,0:0:0:0:
448,192,29565,1,0,0:0:0:0:
64,192,29733,1,0,0:0:0:0:
192,192,29902,1,0,0:0:0:0:
320,192,29902,1,0,0:0:0:0:
448,192,30070,1,0,0:0:0:0:
64,192,30239,1,0,0:0:0:0:
192,192,30408,1,0,0:0:0:0:
320,192,30576,1,0,0:0:0:0:
448,192,30576,1,0,0:0:0:0:
192,192,30745,1,0,0:0:0:0:
64,192,30913,1,0,0:0:0:0:
448,192,31082,1,0,0:0:0:0:
192,192,31250,1,0,0:0:0:0:
320,192,31250,1,0,0:0:0:0:
64,192,31587,1,0,0:0:0:0:
448,192,31587,1,0,0:0:0:0:
192,192,31924,1,0,0:0:0:0:
320,192,31924,1,0,0:0:0:0:
64,192,32093,1,0,0:0:0:0:
448,192,32262,1,0,0:0:0:0:
320,192,32430,1,0,0:0:0:0:
192,192,32599,1,0,0:0:0:0:
64,192,32599,1,0,0:0:0:0:
448,192,32767,1,0,0:0:0:0:
320,192,32936,1,0,0:0:0:0:
192,192,33104,1,0,0:0:0:0:
448,192,33273,1,0,0:0:0:0:
64,192,33273,1,0,0:0:0:0:
192,192,33441,1,0,0:0:0:0:
320,192,33610,1,0,0:0:0:0:
448,192,33778,1,0,0:0:0:0:
64,192,33947,1,0,0:0:0:0:
192,192,33947,1,0,0:0:0:0:
320,192,34284,1,0,0:0:0:0:
192,192,34621,1,0,0:0:0:0:
448,192,34621,1,0,0:0:0:0:
64,192,34790,1,0,0:0:0:0:
320,192,34958,1,0,0:0:0:0:
448,192,35127,1,0,0:0:0:0:
64,192,35295,1,0,0:0:0:0:
192,192,35295,1,0,0:0:0:0:
320,192,35464,1,0,0:0:0:0:
448,192,35632,1,0,0:0:0:0:
64,192,35801,1,0,0:0:0:0:
192,192,35969,1,0,0:0:0:0:
320,192,35969,1,0,0:0:0:0:
448,192,36138,1,0,0:0:0:0:
320,192,36306,1,0,0:0:0:0:
192,192,36475,1,0,0:0:0:0:
448,192,36644,1,0,0:0:0:0:
64,192,36644,1,0,0:0:0:0:
192,192,36981,1,0,0:0:0:0:
320,192,36981,1,0,0:0:0:0:
448,192,37318,1,0,0:0:0:0:
64,192,37318,1,0,0:0:0:0:
320,192,37486,1,0,0:0:0:0:
192,192,37655,1,0,0:0:0:0:
64,192,37823,1,0,0:0:0:0:
192,192,37992,1,0,0:0:0:0:
320,192,37992,1,0,0:0:0:0:
448,192,38160,1,0,0:0:0:0:
320,192,38329,1,0,0:0:0:0:
192,192,38497,1,0,0:0:0:0:
448,192,38666,1,0,0:0:0:0:
64,192,38666,1,0,0:0:0:0:
192,192,38835,1,0,0:0:0:0:
320,192,39003,1,0,0:0:0:0:
448,192,39172,1,0,0:0:0:0:
64,192,39340,1,0,0:0:0:0:
192,192,39340,1,0,0:0:0:0:
320,192,39677,1,0,0:0:0:0:
448,192,40014,1,0,0:0:0:0:
192,192,40014,1,0,0:0:0:0:
64,192,40183,1,0,0:0:0:0:
320,192,40351,1,0,0:0:0:0:
448,192,40520,1,0,0:0:0:0:
192,192,40688,1,0,0:0:0:0:
64,192,40688,1,0,0:0:0:0:
448,192,40857,1,0,0:0:0:0:
320,192,41026,1,0,0:0:0:0:
192,192,41194,1,0,0:0:0:0:
64,192,41363,1,0,0:0:0:0:
448,192,41363,1,0,0:0:0:0:
320,192,41531,1,0,0:0:0:0:
192,192,41700,1,0,0:0:0:0:
64,192,41868,1,0,0:0:0:0:
448,192,42037,1,0,0:0:0:0:
320,192,42037,1,0,0:0:0:0:
64,192,42374,1,0,0:0:0:0:
192,192,42374,1,0,0:0:0:0:
448,192,42711,1,0,0:0:0:0:
320,192,42711,1,0,0:0:0:0:
192,192,42879,1,0,0:0:0:0:
64,192,43048,1,0,0:0:0:0:
448,192,43217,1,0,0:0:0:0:
192,192,43385,1,0,0:0:0:0:
320,192,43385,1,0,0:0:0:0:
64,192,43554,1,0,0:0:0:0:
192,192,43722,1,0,0:0:0:0:
320,192,43891,1,0,0:0:0:0:
448,192,44059,1,0,0:0:0:0:
