osu file format v14

[General]
AudioFilename: audio.mp3
AudioLeadIn: 0
PreviewTime: 53717
Countdown: 0
SampleSet: Soft
StackLeniency: 0.2
Mode: 0
LetterboxInBreaks: 0
WidescreenStoryboard: 1

[Editor]
DistanceSpacing: 0.8
BeatDivisor: 3
GridSize: 16
TimelineZoom: 1.6

[Metadata]
Title:Chikatto Chika Chikattsu (Swing Arrangement)
TitleUnicode:Chikatto Chika Chikattsu (Swing Arrangement)
Artist:Will Stetson
ArtistUnicode:Will Stetson
Creator:Vertarix
Version:YokesPai is Looking for Derankers with no Brain
Source:
Tags:Will_Stetson IQ3 Vertarix i_love_aoiyuuki- banger jazz will_stetson_is_a_genius
BeatmapID:2065868
BeatmapSetID:986478

[Difficulty]
HPDrainRate:5
CircleSize:4
OverallDifficulty:8
ApproachRate:9
SliderMultiplier:1.40000000596046
SliderTickRate:1

[Events]
//Background and Video events
0,0,"i adopted DigitalHypno.png",0,0
//Break Periods
//Storyboard Layer 0 (Background)
//Storyboard Layer 1 (Fail)
//Storyboard Layer 2 (Pass)
//Storyboard Layer 3 (Foreground)
//Storyboard Sound Samples

[TimingPoints]
460,337.078651685393,4,2,0,30,1,0
7875,337.078651685393,4,2,0,30,1,0
10908,-80,4,2,0,30,0,0
11245,-100,4,2,0,30,0,0
11582,-80,4,2,0,30,0,0
11919,-125,4,2,0,15,0,0
12594,-125,4,2,0,30,0,0
14279,-133.333333333333,4,2,0,30,0,0
14616,-100,4,2,0,30,0,0
15515,-66.6666666666667,4,2,0,30,0,0
15964,-80,4,2,0,30,0,0
16863,-66.6666666666667,4,2,0,30,0,0
17313,-80,4,2,0,30,0,0
17874,-133.333333333333,4,2,0,30,0,0
18886,-80,4,2,0,30,0,0
20009,-100,4,2,0,30,0,0
21582,-80,4,2,0,30,0,0
21919,-66.6666666666667,4,2,0,30,0,0
22706,-100,4,2,0,30,0,0
23043,-133.333333333333,4,2,0,30,0,0
24279,-66.6666666666667,4,2,0,30,0,0
24953,-80,4,2,0,30,0,0
25403,-100,4,2,0,30,0,0
26751,-80,4,2,0,30,0,0
27257,-66.6666666666667,4,2,0,30,0,0
28099,-100,4,2,0,30,0,0
28436,-66.6666666666667,4,2,0,30,0,0
28773,-100,4,2,0,30,0,0
29110,-66.6666666666667,4,2,0,30,0,0
30796,-80,4,2,0,30,0,0
31133,-100,4,2,0,30,0,0
32369,-80,4,2,0,30,0,0
32706,-66.6666666666667,4,2,0,30,0,0
33492,-100,4,2,0,30,0,0
35403,-66.6666666666667,4,2,0,30,0,0
35740,-80,4,2,0,30,0,0
36189,-100,4,2,0,30,0,0
36751,-133.333333333333,4,2,0,30,0,0
37537,-100,4,2,0,30,0,0
38099,-66.6666666666667,4,2,0,30,0,0
38436,-80,4,2,0,30,0,0
38773,-66.6666666666667,4,2,0,30,0,0
39897,-80,4,2,0,30,0,0
40683,-100,4,2,0,30,0,0
41582,-80,4,2,0,30,0,0
42481,-133.333333333333,4,2,0,30,0,0
51021,-80,4,2,0,30,0,0
52369,-100,4,2,0,30,0,0
53043,-80,4,2,0,30,0,0
53717,-100,4,2,0,30,0,0
54054,-66.6666666666667,4,2,0,30,0,0
54391,-100,4,2,0,30,0,0
54728,-66.6666666666667,4,2,0,30,0,0
55066,-100,4,2,0,30,0,0
55403,-80,4,2,0,30,0,0
55740,-66.6666666666667,4,2,0,30,0,0
56301,-100,4,2,0,30,0,1
61133,-80,4,2,0,30,0,1
61695,-100,4,2,0,30,0,1
63830,-80,4,2,0,30,0,1
66526,-66.6666666666667,4,2,0,30,0,1
68549,-80,4,2,0,30,0,1
75290,-100,4,2,0,30,0,0
75627,-80,4,2,0,30,0,0
75852,-100,4,2,0,30,0,0
76301,-80,4,2,0,30,0,0
76639,-100,4,2,0,30,0,0
76976,-80,4,2,0,30,0,0
77200,-100,4,2,0,30,0,0
77650,-80,4,2,0,30,0,0
77874,-80,4,2,0,30,0,1
79335,-80,4,2,0,30,0,0
80571,-80,4,2,0,30,0,1
82032,-80,4,2,0,30,0,0
83268,-80,4,2,0,30,0,1
85964,-80,4,2,0,30,0,0
88436,-181.818181818182,4,2,0,30,0,0

[HitObjects]
157,363,460,5,2,0:0:0:0:
84,93,1134,1,2,0:0:0:0:
354,20,1807,1,2,0:0:0:0:
427,290,2482,1,2,0:0:0:0:
354,363,4504,5,2,0:0:0:0:
427,93,5178,1,2,0:0:0:0:
157,20,5853,1,2,0:0:0:0:
84,290,6526,1,2,0:0:0:0:
256,192,7875,5,2,0:0:0:0:
256,192,9223,1,2,0:0:0:0:
256,192,9897,1,2,0:0:0:0:
256,192,10571,6,0,P|268:239|266:286,1,93.3333337306973,4|0,0:3|0:0,0:0:0:0:
345,357,10908,2,0,P|344:327|351:299,1,58.3333335816858,2|0,0:0|0:0,0:0:0:0:
485,60,11245,6,0,P|473:107|475:154,1,93.3333337306973,4|0,0:3|0:0,0:0:0:0:
396,225,11582,2,0,P|396:195|389:167,1,58.3333335816858,2|0,0:0|0:0,0:0:0:0:
116,156,11919,6,2,P|196:202|289:207,1,186.666667461395,4|0,0:3|0:0,0:1:0:0:
352,152,12594,1,2,0:0:0:0:
352,152,13492,5,0,0:0:0:0:
374,259,13604,1,2,0:0:0:0:
219,182,13830,5,0,0:0:0:0:
246,48,13942,1,2,0:0:0:0:
91,125,14166,5,0,0:0:0:0:
102,178,14279,2,0,L|116:246,1,70.0000029683112,8|0,0:3|0:0,0:0:0:0:
60,357,14616,6,0,L|63:293,1,46.6666668653487,8|0,0:3|0:0,0:0:0:0:
25,237,14841,1,0,0:0:0:0:
19,207,14953,1,2,0:0:0:0:
52,50,15178,2,0,P|18:82|7:127,1,93.3333337306973,8|0,0:3|0:0,0:0:0:0:
91,125,15515,2,2,B|147:151|207:124|183:127|231:87|294:112,1,210.000008904934,2|0,0:0|0:0,0:1:0:0:
371,211,15964,6,0,P|367:153|390:100,1,116.666667163372,8|0,0:3|0:0,0:0:0:0:
462,64,16301,1,2,0:0:0:0:
254,223,16526,2,0,P|275:276|319:314,1,116.666667163372,8|0,0:3|0:0,0:0:0:0:
395,347,16863,2,0,B|410:301|451:276|459:299|506:250|480:172,1,210.000008904934,2|0,0:0|0:0,1:0:0:0:
438,107,17313,6,0,B|388:91|342:107|366:111|303:161|225:117,1,175.000000745057,8|2,0:3|0:0,0:0:0:0:
89,61,17874,2,0,L|91:79,1,17.5000007420778,8|0,0:3|0:0,0:0:0:0:
98,87,17987,2,0,P|94:125|96:157,1,70.0000029683112,8|0,0:3|0:0,0:0:0:0:
24,187,18324,2,0,P|27:221|25:256,1,70.0000029683112,2|0,0:0|0:0,0:0:0:0:
64,327,18661,1,8,0:3:0:0:
180,178,18886,6,0,P|147:260|147:352,1,175.000000745057,2|0,0:0|0:0,1:0:0:0:
220,384,19335,1,8,0:3:0:0:
292,0,19672,1,2,0:0:0:0:
292,0,20009,6,0,P|304:75|339:120,1,93.3333337306973,0|0,1:0|0:0,0:0:0:0:
382,125,20346,1,2,0:0:0:0:
512,95,20571,2,0,P|469:131|466:248,1,140.000000596046,0|0,1:0|0:0,0:0:0:0:
475,370,21021,2,0,P|492:327|494:280,1,93.3333337306973,2|0,0:0|0:0,0:0:0:0:
451,210,21358,1,0,1:0:0:0:
264,285,21582,6,0,P|321:275|374:298,1,116.666667163372,0|0,1:0|0:0,0:0:0:0:
175,348,21919,2,0,B|206:339|226:317|213:325|232:274|285:268,1,140.000005936622,0|0,1:0|0:0,0:0:0:0:
160,279,22257,5,0,1:0:0:0:
99,339,22369,1,2,1:2:0:0:
308,373,22594,5,0,1:0:0:0:
85,345,22706,2,0,P|61:306|60:259,1,93.3333337306973,2|0,1:2|0:0,0:0:0:0:
99,188,23043,2,0,P|104:172|105:154,1,35.0000014841556,2|0,0:0|0:0,0:0:0:0:
48,96,23268,1,2,0:0:0:0:
48,96,23380,2,0,P|79:78|113:75,1,70.0000029683112,0|0,1:0|0:0,0:0:0:0:
178,123,23717,1,2,0:0:0:0:
0,32,23942,1,2,0:0:0:0:
0,32,24054,1,0,1:0:0:0:
190,130,24279,6,0,B|239:135|277:99|247:96|300:68|357:88,1,140.000005936622,0|0,1:0|0:0,1:0:0:0:
420,244,24616,2,0,B|400:198|350:183|362:211|311:179|300:120,1,140.000005936622,0|0,1:0|0:0,1:0:0:0:
401,10,24953,2,0,B|377:41|387:82|401:62|399:111|363:142,1,116.666667163372,0|0,1:0|0:0,1:0:0:0:
314,158,25290,1,0,1:0:0:0:
453,149,25403,6,0,P|492:175|515:215,1,93.3333337306973,0|0,1:0|0:0,0:0:0:0:
491,290,25740,2,0,P|491:317|485:337,1,46.6666668653487,2|0,0:0|0:0,0:0:0:0:
412,366,25964,5,0,1:0:0:0:
420,244,26077,1,2,1:2:0:0:
300,147,26301,5,0,1:0:0:0:
310,299,26414,1,2,1:2:0:0:
50,223,26639,5,0,1:0:0:0:
173,231,26751,2,0,B|203:235|229:255|229:255|240:296|209:364,1,175.000000745057,2|0,1:2|0:0,1:0:0:0:
119,121,27257,6,2,B|77:190|77:282|77:282|108:308|160:305,1,245.000010389089,0|0,1:0|0:0,0:1:0:0:
209,364,27762,1,2,0:0:0:0:
512,384,28099,6,0,P|466:377|426:353,1,93.3333337306973,2|0,0:0|0:0,0:0:0:0:
341,370,28436,2,0,P|353:297|346:203,1,140.000005936622,2|0,0:0|0:0,1:0:0:0:
304,155,28773,2,0,P|349:148|389:124,1,93.3333337306973,2|0,0:0|0:0,0:0:0:0:
475,141,29110,2,0,P|463:68|470:-26,1,140.000005936622,2|0,0:0|0:0,1:0:0:0:
386,12,29448,1,2,0:0:0:0:
241,11,29672,5,0,0:0:0:0:
379,22,29785,1,2,0:0:0:0:
75,35,30009,5,0,0:0:0:0:
248,22,30122,1,2,0:0:0:0:
264,362,30796,6,0,P|333:327|383:337,1,116.666667163372,0|0,1:0|0:0,0:0:0:0:
449,362,31133,2,0,P|455:292|478:236,1,93.3333337306973,2|0,0:0|0:0,0:0:0:0:
512,206,31470,1,0,1:0:0:0:
384,253,31695,5,0,1:0:0:0:
505,198,31807,1,2,1:2:0:0:
246,53,32032,5,0,1:0:0:0:
397,121,32144,1,2,1:2:0:0:
281,327,32369,6,0,P|259:274|261:216,1,116.666667163372,0|0,1:0|0:0,0:0:0:0:
212,283,32706,2,0,B|229:337|250:362|250:362|228:345|198:346,1,140.000005936622,2|0,0:0|0:0,1:0:0:0:
130,381,33043,5,2,0:0:0:0:
146,239,33155,1,0,1:0:0:0:
0,119,33380,5,2,0:0:0:0:
16,297,33492,2,0,P|29:234|21:197,1,93.3333337306973,0|0,1:0|0:0,0:0:0:0:
92,162,33830,2,0,P|82:98|92:61,1,93.3333337306973,2|0,0:0|0:0,0:0:0:0:
14,39,34167,1,0,1:0:0:0:
210,112,34391,5,0,1:0:0:0:
99,169,34504,1,2,1:2:0:0:
354,190,34728,5,2,0:0:0:0:
214,119,34841,2,0,P|230:101|250:89,1,46.6666668653487,2|0,1:2|0:0,0:0:0:0:
435,72,35066,5,2,0:0:0:0:
220,126,35178,1,2,0:0:0:0:
488,254,35403,6,2,B|468:294|441:312|441:312|439:322|439:322|411:319|382:338,1,140.000005936622,2|0,0:0|0:0,0:1:0:0:
336,268,35740,2,0,P|288:298|262:244,1,116.666667163372,2|0,0:0|0:0,1:0:0:0:
200,206,36077,5,2,0:0:0:0:
221,353,36189,2,0,P|170:342|69:359,1,140.000000596046,0|2,1:0|0:0,0:0:0:0:
8,252,36751,2,0,P|3:287|8:321,1,70.0000029683112,0|0,1:0|0:0,0:0:0:0:
90,268,37088,2,0,P|82:222|58:182,1,70.0000029683112,0|0,1:0|0:0,0:0:0:0:
0,173,37425,5,2,0:0:0:0:
141,162,37537,2,0,P|131:95|142:48,1,93.3333337306973,0|0,1:0|0:0,0:0:0:0:
193,14,37874,1,2,0:0:0:0:
384,76,38099,2,0,P|317:94|251:73,1,140.000005936622,0|0,1:0|0:0,1:0:0:0:
221,151,38436,1,2,0:0:0:0:
221,151,38549,2,0,P|220:179|208:206,1,58.3333335816858,0|0,1:0|0:0,0:0:0:0:
76,215,38773,5,0,1:0:0:0:
242,281,38886,2,2,B|273:323|273:377|273:377|279:351|296:331,1,140.000005936622,0|0,1:0|0:0,0:1:0:0:
406,306,39223,2,2,P|457:213|335:277,1,350.000014841556,0|0,1:0|0:0,0:1:0:0:
473,362,39897,2,2,P|458:307|460:249,1,116.666667163372,2|0,0:0|0:0,0:1:0:0:
499,177,40234,5,2,1:2:0:0:
458,104,40346,1,0,1:0:0:0:
375,120,40459,1,0,1:0:0:0:
467,92,40571,5,2,1:2:0:0:
363,112,40683,2,0,L|317:121,1,46.6666668653487,0|0,1:0|0:0,0:0:0:0:
265,263,40908,5,2,1:2:0:0:
306,190,41020,1,0,1:0:0:0:
389,206,41133,1,0,1:0:0:0:
297,178,41245,5,2,1:2:0:0:
401,198,41358,1,0,1:0:0:0:
182,247,41582,6,2,B|0:127|159:0|192:183,1,291.666667908429,2|0,1:2|0:0,0:1:0:0:
7,0,42481,6,0,L|13:107,1,105.000004452467
19,189,42931,5,0,3:0:0:0:
100,281,43155,1,0,3:0:0:0:
26,265,43268,1,2,3:2:0:0:
231,316,43492,1,0,3:0:0:0:
157,332,43604,1,0,3:1:0:0:
362,383,43830,1,0,3:0:0:0:
288,367,43943,1,2,3:2:0:0:
398,317,44167,1,0,3:0:0:0:
471,301,44279,6,0,P|477:266|477:231,1,70.0000029683112,0|0,3:0|3:0,0:0:0:0:
403,213,44616,2,0,P|400:178|404:143,1,70.0000029683112,2|0,3:2|3:0,0:0:0:0:
478,120,44953,2,0,P|474:85|464:51,1,70.0000029683112,0|0,3:0|3:0,0:0:0:0:
390,29,45290,1,2,3:2:0:0:
122,29,45627,5,0,3:0:0:0:
44,133,45852,1,0,3:0:0:0:
53,59,45965,1,2,3:2:0:0:
112,251,46189,1,0,3:0:0:0:
103,177,46302,1,0,3:0:0:0:
44,370,46526,1,0,3:0:0:0:
53,296,46639,1,2,3:2:0:0:
256,368,46976,6,0,P|224:352|190:347,1,70.0000029683112,0|0,3:0|3:0,0:0:0:0:
132,293,47313,2,0,P|160:272|193:261,1,70.0000029683112,2|0,3:2|3:0,0:0:0:0:
265,287,47650,2,0,P|298:277|333:278,1,70.0000029683112,0|0,3:0|3:0,0:0:0:0:
395,324,47987,1,2,3:2:0:0:
395,60,48324,6,0,P|342:49|301:54,1,70.0000029683112,0|0,3:0|0:0,0:0:0:0:
259,85,48661,1,2,3:2:0:0:
143,34,48886,2,0,P|157:66|182:91,1,70.0000029683112,0|0,3:0|0:0,0:0:0:0:
226,156,49223,2,0,P|211:187|187:212,1,70.0000029683112,0|0,3:0|0:0,0:0:0:0:
114,228,49560,1,0,3:0:0:0:
77,164,49672,5,0,3:0:0:0:
30,37,49897,1,0,3:0:0:0:
24,111,50009,1,2,3:2:0:0:
41,229,50234,1,0,3:0:0:0:
35,303,50346,1,0,3:0:0:0:
151,328,50571,1,0,3:0:0:0:
83,359,50683,1,2,3:2:0:0:
212,372,50908,5,0,3:0:0:0:
239,270,51021,2,2,B|254:347|343:377|398:263|213:156,1,291.666667908429,0|0,1:0|0:0,0:1:0:0:
405,313,51919,5,0,1:0:0:0:
374,194,52032,1,2,1:2:0:0:
472,93,52257,5,0,1:0:0:0:
433,241,52369,2,0,P|421:170|427:116,1,93.3333337306973,2|0,1:2|0:0,0:0:0:0:
399,77,52706,1,2,0:0:0:0:
213,91,52931,5,0,1:0:0:0:
393,67,53043,2,0,B|391:81|382:92|382:92|367:95|355:88|355:88|344:92|340:103|340:103|326:107|311:102|311:102|301:111|301:123|301:123|289:125|285:138|285:138|288:146|280:157|280:157|208:199|146:155,1,291.666667908429,0|0,1:0|0:0,1:0:0:0:
16,116,53717,6,0,B|1:108|-16:100|-16:100|-15:71|5:35,1,93.3333337306973,0|0,1:0|0:0,1:0:0:0:
83,71,54054,2,2,P|49:152|33:214,1,140.000005936622,2|0,1:2|0:0,0:1:0:0:
141,133,54391,2,0,P|131:172|145:224,1,93.3333337306973,0|0,1:0|0:0,1:0:0:0:
277,189,54728,2,2,B|248:237|211:252|211:252|205:223|183:207,1,140.000005936622,2|0,1:2|0:0,0:1:0:0:
424,218,55066,2,0,P|372:209|347:248,1,93.3333337306973,0|0,1:0|0:0,1:0:0:0:
389,317,55403,2,2,P|344:283|343:226,1,116.666667163372,2|0,1:2|0:0,0:1:0:0:
510,160,55740,2,2,L|496:302,1,140.000005936622,0|0,1:0|0:0,1:1:0:0:
487,375,56077,1,2,0:0:0:0:
482,87,56301,6,0,P|410:62|336:59,1,140.000000596046,0|0,1:0|1:0,0:0:0:0:
277,93,56751,1,8,1:2:0:0:
139,50,56976,5,0,1:0:0:0:
282,102,57088,2,0,P|296:166|284:218,1,93.3333337306973,0|0,1:0|1:0,0:0:0:0:
253,260,57425,1,8,0:0:0:0:
277,93,57650,5,0,1:0:0:0:
134,145,57762,2,0,P|120:209|132:261,1,93.3333337306973,0|0,1:0|1:0,0:0:0:0:
163,303,58099,2,0,P|79:350|51:352,1,93.3333337306973,8|0,1:0|0:0,0:0:0:0:
15,312,58436,1,0,1:0:0:0:
67,103,58661,1,0,1:0:0:0:
67,103,58773,1,8,1:0:0:0:
230,344,58998,6,0,P|312:360|376:353,1,140.000000596046,0|0,1:0|1:0,0:0:0:0:
433,313,59448,1,8,1:0:0:0:
469,154,59672,5,0,1:0:0:0:
436,304,59785,2,0,P|420:230|395:195,1,93.3333337306973,0|0,1:0|1:0,0:0:0:0:
340,186,60122,1,8,1:0:0:0:
303,28,60346,5,0,1:0:0:0:
336,178,60459,2,0,P|352:104|377:69,1,93.3333337306973,0|0,1:0|1:0,0:0:0:0:
432,60,60796,1,8,1:0:0:0:
189,108,61021,5,0,1:0:0:0:
340,186,61133,2,0,P|287:205|240:194,1,58.3333335816858,2|0,1:0|0:0,0:0:0:0:
116,165,61358,2,2,P|193:205|231:260,1,116.666667163372,0|0,1:0|0:0,0:1:0:0:
277,293,61695,6,0,P|210:312|154:353,1,140.000000596046,0|0,1:0|1:0,0:0:0:0:
82,326,62144,1,8,1:0:0:0:
43,191,62369,5,0,1:0:0:0:
86,317,62481,2,0,P|132:274|176:247,1,93.3333337306973,0|0,1:0|1:0,0:0:0:0:
233,244,62818,1,8,0:0:0:0:
368,93,63043,5,0,1:0:0:0:
325,219,63155,2,0,P|302:197|280:184,1,46.6666668653487,0|0,1:0|0:0,0:0:0:0:
178,146,63380,1,0,1:0:0:0:
178,146,63492,2,0,P|200:150|222:158,1,46.6666668653487,8|0,1:0|0:0,0:0:0:0:
296,288,63717,5,0,1:0:0:0:
391,177,63830,2,0,P|402:204|402:233,1,58.3333335816858,2|0,1:2|0:0,0:0:0:0:
498,323,64054,2,0,B|475:279|482:231|495:242|490:187|467:129,1,175.000000745057,0|0,1:0|0:0,1:0:0:0:
411,92,64504,5,2,1:2:0:0:
310,141,64616,1,0,1:0:0:0:
422,81,64728,5,0,1:0:0:0:
295,142,64840,1,2,1:2:0:0:
72,117,65178,5,2,1:2:0:0:
198,178,65290,1,0,1:0:0:0:
58,103,65402,5,0,1:0:0:0:
217,179,65514,1,2,1:2:0:0:
41,299,65740,5,0,1:0:0:0:
41,299,65852,2,0,P|28:231|40:165,1,116.666667163372,0|0,1:0|1:0,0:0:0:0:
116,282,66189,2,0,P|168:306|226:314,1,116.666667163372,8|0,1:0|1:0,0:0:0:0:
296,357,66526,6,0,B|309:321|301:287|301:287|307:280|307:280|299:242|315:198,1,140.000005936622,0|0,1:0|0:0,1:0:0:0:
260,92,66863,2,0,B|284:121|318:131|318:131|321:140|321:140|358:152|388:187,1,140.000005936622,0|0,1:0|0:0,1:0:0:0:
507,193,67200,2,2,B|494:186|481:188|481:188|483:203|478:218|478:218|464:203|448:205|448:205|455:217|454:228|454:228|442:216|426:216|426:216|436:226|433:237|433:237|421:229|407:234|407:234|412:243|408:253|408:253|354:268|317:239|317:239|308:252|308:252|265:218|192:229,1,420.000017809867,0|0,1:0|0:0,0:1:0:0:
139,286,68099,1,2,0:0:0:0:
143,268,68211,1,2,0:0:0:0:
144,251,68323,1,2,0:0:0:0:
144,234,68436,1,2,0:0:0:0:
141,216,68549,6,0,P|100:135|76:114,1,116.666667163372,0|0,1:0|1:0,0:0:0:0:
8,103,68886,1,8,0:0:0:0:
188,21,69110,5,0,1:0:0:0:
195,137,69223,2,0,P|248:190|288:198,1,116.666667163372,0|0,1:0|1:0,0:0:0:0:
360,179,69560,1,8,0:0:0:0:
421,79,69785,5,0,1:0:0:0:
360,179,69898,2,0,P|288:200|249:189,1,116.666667163372,0|0,1:0|1:0,0:0:0:0:
195,137,70234,1,8,0:0:0:0:
366,264,70459,5,0,1:0:0:0:
297,102,70571,2,0,P|321:49|370:19,1,116.666667163372,0|0,1:0|0:0,0:0:0:0:
421,79,70908,1,8,0:0:0:0:
451,335,71245,5,0,1:0:0:0:
427,88,71470,1,8,0:0:0:0:
307,304,71807,5,0,1:0:0:0:
307,304,71919,1,0,1:0:0:0:
331,57,72144,1,8,0:0:0:0:
193,326,72481,5,0,1:0:0:0:
193,326,72593,1,0,1:0:0:0:
169,79,72818,1,0,1:0:0:0:
169,79,72931,1,0,1:0:0:0:
56,352,73155,2,2,B|122:225|22:162|-8:222|4:260,1,233.333334326743,8|0,0:0|0:0,0:1:0:0:
123,176,74167,5,0,1:0:0:0:
0,138,74279,1,0,1:0:0:0:
282,138,74504,5,0,1:0:0:0:
128,185,74616,1,0,1:0:0:0:
512,207,74953,5,8,0:0:0:0:
512,207,75290,6,0,P|497:270|470:311,1,93.3333337306973,0|0,1:0|0:0,0:0:0:0:
407,318,75627,2,0,P|400:282|388:252,1,58.3333335816858,2|0,0:0|0:0,0:0:0:0:
324,221,75852,6,0,P|339:158|366:117,1,93.3333337306973,0|0,1:0|0:0,0:0:0:0:
429,110,76189,1,0,1:0:0:0:
429,110,76301,2,0,P|418:74|404:45,1,58.3333335816858,2|0,0:0|0:0,0:0:0:0:
333,59,76526,1,0,1:0:0:0:
333,59,76639,6,0,P|265:49|209:60,1,93.3333337306973,0|0,1:0|0:0,0:0:0:0:
158,50,76976,2,0,P|166:97|160:133,1,58.3333335816858,2|0,0:0|0:0,0:0:0:0:
202,188,77200,6,0,P|155:186|110:196,1,93.3333337306973,0|0,1:0|0:0,0:0:0:0:
38,158,77537,1,0,1:0:0:0:
38,158,77650,2,0,P|30:205|36:241,1,58.3333335816858,2|0,0:0|0:0,0:0:0:0:
1,370,77874,6,0,P|58:293|138:282,1,175.000000745057,0|0,1:0|1:0,0:0:0:0:
190,340,78324,1,8,0:0:0:0:
383,320,78549,5,0,1:0:0:0:
193,350,78662,2,0,P|219:298|267:265,1,116.666667163372,0|0,1:0|1:0,0:0:0:0:
345,250,78998,2,0,B|379:228|404:190|404:190|404:216|417:236,1,116.666667163372,8|0,0:0|1:0,0:0:0:0:
493,304,79335,6,0,P|484:247|494:190,1,116.666667163372,0|0,1:0|1:0,0:0:0:0:
450,126,79672,1,2,0:0:0:0:
229,47,79897,2,0,B|275:81|326:63|300:64|352:40|406:68,1,175.000000745057,0|0,1:0|0:0,0:0:0:0:
467,27,80346,1,2,0:0:0:0:
353,174,80571,6,0,P|274:187|165:151,1,175.000000745057,0|0,1:0|1:0,0:0:0:0:
129,103,81021,1,8,0:0:0:0:
60,0,81245,5,0,1:0:0:0:
122,112,81358,2,0,P|119:193|100:227,1,116.666667163372,0|0,1:0|1:0,0:0:0:0:
32,251,81695,2,0,P|7:328|13:366,1,116.666667163372,8|0,0:0|1:0,0:0:0:0:
90,373,82032,6,0,P|125:308|178:270,1,116.666667163372,0|0,1:0|0:0,0:0:0:0:
234,273,82369,1,2,0:0:0:0:
471,314,82594,2,0,B|412:280|354:316|385:324|317:339|267:304,1,175.000000745057,0|0,1:0|0:0,0:0:0:0:
230,351,83043,1,2,0:0:0:0:
332,232,83268,6,0,P|345:150|308:59,1,175.000000745057,0|0,1:0|1:0,0:0:0:0:
359,0,83717,1,8,0:0:0:0:
234,61,83942,5,0,1:0:0:0:
368,8,84054,1,0,1:0:0:0:
77,10,84279,5,0,1:0:0:0:
225,69,84391,1,8,0:0:0:0:
135,167,84616,5,0,1:0:0:0:
70,4,84728,1,0,1:0:0:0:
72,340,84953,5,0,1:0:0:0:
143,160,85065,1,8,0:0:0:0:
277,269,85290,5,0,1:0:0:0:
79,347,85402,1,0,1:0:0:0:
486,363,85627,5,0,1:0:0:0:
268,277,85739,1,8,0:0:0:0:
512,0,85964,5,2,1:0:0:0:
0,14,88099,5,2,0:0:0:0:
23,8,88211,1,2,0:0:0:0:
9,0,88324,1,2,0:0:0:0:
15,23,88436,6,2,B|88:227|268:210|228:230|460:198|515:382,1,641.666688980657,2|0,0:0|0:0,0:1:0:0:
