osu file format v14

[General]
AudioFilename: audio.mp3
AudioLeadIn: 0
PreviewTime: 64983
Countdown: 0
SampleSet: Soft
StackLeniency: 0.4
Mode: 0
LetterboxInBreaks: 0
WidescreenStoryboard: 0

[Editor]
Bookmarks: 83070,99622,121691,143760
DistanceSpacing: 3.6
BeatDivisor: 4
GridSize: 4
TimelineZoom: 2.2

[Metadata]
Title:We Will Be (feat. Matt Wills)
TitleUnicode:We Will Be (feat. Matt Wills)
Artist:Wilkinson
ArtistUnicode:Wilkinson
Creator:Smewo
Version:We will
Source:
Tags:
BeatmapID:1248101
BeatmapSetID:589664

[Difficulty]
HPDrainRate:5
CircleSize:4
OverallDifficulty:8.1
ApproachRate:9.4
SliderMultiplier:1.4
SliderTickRate:1

[Events]
//Background and Video events
0,0,"background (2).jpg",0,0
//Break Periods
//Storyboard Layer 0 (Background)
//Storyboard Layer 1 (Fail)
//Storyboard Layer 2 (Pass)
//Storyboard Layer 3 (Foreground)
//Storyboard Sound Samples

[TimingPoints]
312,344.827586206897,4,2,1,60,1,0
32898,-142.857142857143,4,2,1,60,0,0
33415,-100,4,2,1,60,0,0
55484,-100,4,2,1,70,0,0
61001,-100,4,2,1,80,0,0
66518,-83.3333333333333,4,2,1,85,0,1
71432,-83.3333333333333,4,2,1,5,0,1
71518,-83.3333333333333,4,2,1,85,0,1
71605,-83.3333333333333,4,2,1,5,0,1
71691,-83.3333333333333,4,2,1,85,0,1
75570,-83.3333333333333,4,2,1,5,0,1
75656,-83.3333333333333,4,2,1,85,0,1
75743,-83.3333333333333,4,2,1,5,0,1
75829,-83.3333333333333,4,2,1,85,0,1
82467,-83.3333333333333,4,2,1,5,0,1
82553,-83.3333333333333,4,2,1,85,0,1
82639,-83.3333333333333,4,2,1,5,0,1
82725,-83.3333333333333,4,2,1,85,0,1
89263,-71.4285714285714,4,2,1,85,0,1
89953,-83.3333333333333,4,2,1,85,0,1
94105,-83.3333333333333,4,2,1,85,0,0
99622,-125,4,2,1,60,0,0
121691,-100,4,2,1,60,0,0
143760,-100,4,2,1,85,0,0
154794,-83.3333333333333,4,2,1,85,0,1
159708,-83.3333333333333,4,2,1,5,0,1
159794,-83.3333333333333,4,2,1,85,0,1
159880,-83.3333333333333,4,2,1,5,0,1
159967,-83.3333333333333,4,2,1,85,0,1
163846,-83.3333333333333,4,2,1,5,0,1
163932,-83.3333333333333,4,2,1,85,0,1
164018,-83.3333333333333,4,2,1,5,0,1
164105,-83.3333333333333,4,2,1,85,0,1
170743,-83.3333333333333,4,2,1,5,0,1
170829,-83.3333333333333,4,2,1,85,0,1
170915,-83.3333333333333,4,2,1,5,0,1
171001,-83.3333333333333,4,2,1,85,0,1
177553,-71.4285714285714,4,2,1,85,0,1
178243,-83.3333333333333,4,2,1,85,0,1
182380,-83.3333333333333,4,2,1,70,0,0

[HitObjects]
66,220,32725,5,2,0:0:0:0:
123,147,32898,2,0,P|179:139|218:159,1,97.9999970092774,2|0,0:0|0:0,0:0:0:0:
322,304,33415,2,0,P|380:283|436:209,1,140,2|0,0:0|0:0,0:0:0:0:
454,94,33932,1,2,0:0:0:0:
332,209,34105,2,0,P|299:150|274:63,1,140,2|0,0:0|0:0,0:0:0:0:
229,2,34622,5,2,0:0:0:0:
222,190,34794,2,0,P|144:221|71:218,1,140,2|0,0:0|0:0,0:0:0:0:
11,176,35312,1,2,0:0:0:0:
230,209,35484,2,0,P|152:240|79:237,1,140,2|0,0:0|0:0,0:0:0:0:
14,185,36001,1,2,0:0:0:0:
19,306,36174,1,2,0:0:0:0:
148,156,36346,2,0,P|161:108|175:4,1,140,2|0,2:0|2:0,2:0:0:0:
334,278,37207,5,2,0:0:0:0:
188,205,38243,5,2,0:0:0:0:
188,205,38415,2,0,B|179:157|179:157|234:175|286:147,1,140,2|0,0:0|0:0,0:0:0:0:
418,129,38932,1,2,0:0:0:0:
223,77,39276,6,0,L|296:69,1,70,2|0,0:0|0:0,0:0:0:0:
348,121,39622,2,0,L|421:129,1,70,2|0,0:0|0:0,0:0:0:0:
473,67,39967,1,2,0:0:0:0:
309,192,40312,5,2,0:0:0:0:
144,221,40483,1,0,0:0:0:0:
144,221,40657,2,0,P|140:160|151:134,1,70,2|0,0:0|0:0,0:0:0:0:
277,86,41001,1,2,0:0:0:0:
277,86,41174,2,0,P|285:141|219:184,1,140
209,26,41691,1,2,0:0:0:0:
256,192,42381,12,0,44450,0:0:0:0:
203,175,45139,6,0,P|202:134|338:145,1,210
419,300,45829,2,0,P|349:311|190:259,1,210
84,176,46518,2,0,P|103:241|282:203,1,280
139,135,49277,5,2,0:0:0:0:
139,135,49449,2,0,B|230:100|230:100|277:126,1,140,2|0,0:0|0:0,0:0:0:0:
223,196,49967,1,2,0:0:0:0:
192,306,50657,6,0,P|254:279|374:156,1,210
266,70,51346,2,0,P|204:97|84:220,1,210
277,242,52036,2,0,P|272:183|127:155,1,210
92,342,52725,2,0,B|147:282|210:261|210:261|276:302|367:285,1,280
166,124,54794,5,2,0:0:0:0:
166,124,54967,2,0,B|230:136|283:114|283:114|334:113,1,140,2|0,0:0|0:0,0:0:0:0:
478,183,55484,5,8,0:3:0:0:
277,356,55829,1,0,1:0:0:0:
303,113,56001,1,8,0:3:0:0:
178,285,56346,5,0,1:0:0:0:
393,166,56519,1,8,0:3:0:0:
393,166,56863,1,8,0:3:0:0:
157,167,57208,1,0,1:0:0:0:
383,265,57381,1,8,0:3:0:0:
236,90,57725,5,0,1:0:0:0:
293,328,57898,1,8,0:3:0:0:
293,328,58243,1,8,0:3:0:0:
340,104,58587,1,0,1:0:0:0:
195,301,58760,1,8,0:3:0:0:
397,190,59105,5,0,1:0:0:0:
153,208,59277,1,8,0:3:0:0:
153,208,59622,1,8,0:3:0:0:
370,291,59967,1,0,1:0:0:0:
221,96,60139,1,8,0:3:0:0:
309,359,60484,5,0,1:0:0:0:
298,113,60656,1,8,0:3:0:0:
161,192,61001,5,8,0:3:0:0:
358,228,61174,1,0,1:0:0:0:
358,228,61346,1,0,1:0:0:0:
307,38,61519,1,8,0:3:0:0:
358,228,61691,5,0,1:0:0:0:
358,228,61863,1,0,1:0:0:0:
161,192,62036,1,8,0:3:0:0:
285,153,62208,1,0,1:0:0:0:
216,368,62381,1,8,0:3:0:0:
45,221,62553,1,0,1:0:0:0:
45,221,62725,1,0,1:0:0:0:
269,232,62898,1,8,0:3:0:0:
71,337,63070,5,0,1:0:0:0:
71,337,63243,1,0,1:0:0:0:
291,307,63415,1,8,0:3:0:0:
195,212,63587,1,0,1:0:0:0:
267,384,63760,1,8,0:3:0:0:
294,136,63932,1,0,1:0:0:0:
294,136,64105,1,0,1:0:0:0:
179,327,64277,5,8,0:3:0:0:
173,78,64450,1,0,1:0:0:0:
173,78,64622,1,0,1:0:0:0:
359,246,64794,1,8,0:3:0:0:
170,164,64967,1,0,1:0:0:0:
241,324,65139,5,8,0:3:0:0:
351,161,65312,1,8,0:3:0:0:
163,253,65484,1,8,0:3:0:0:
372,325,65657,1,8,0:3:0:0:
290,41,65829,5,8,0:3:0:0:
351,304,66001,1,8,0:3:0:0:
162,173,66174,1,8,0:3:0:0:
418,58,66346,1,8,0:3:0:0:
260,337,66518,6,0,P|256:295|262:252,1,83.9999974365235,0|0,1:0|0:0,0:0:0:0:
418,58,66863,2,0,P|421:99|415:141,1,83.9999974365235,8|0,0:3|0:0,0:0:0:0:
351,304,67208,1,2,0:0:0:0:
287,74,67381,1,2,1:2:0:0:
164,303,67553,2,0,P|122:302|80:297,1,83.9999974365235,8|0,0:3|0:0,0:0:0:0:
94,98,67898,5,0,1:0:0:0:
186,315,68070,1,0,0:0:0:0:
213,67,68243,1,8,0:3:0:0:
126,195,68415,1,0,0:0:0:0:
142,26,68588,1,2,0:0:0:0:
186,315,68759,1,2,1:2:0:0:
324,75,68932,2,0,B|391:47|467:99,1,125.999996154785,8|0,0:3|0:0,0:0:0:0:
464,175,69277,6,0,P|428:187|383:194,1,83.9999974365235,0|0,1:0|0:0,0:0:0:0:
215,363,69622,2,0,P|202:322|199:281,1,83.9999974365235,8|0,0:3|0:0,0:0:0:0:
188,192,69880,1,2,0:0:0:0:
188,192,69966,1,2,0:0:0:0:
303,314,70139,1,2,1:2:0:0:
270,168,70312,1,8,0:3:0:0:
120,332,70484,1,0,0:0:0:0:
188,108,70656,6,0,L|188:192,1,83.9999974365235,0|0,1:0|0:0,0:0:0:0:
411,333,71001,2,0,L|410:249,1,83.9999974365235,8|0,0:3|0:0,0:0:0:0:
278,46,71346,2,0,L|278:88,1,41.9999987182618,2|0,0:0|0:0,0:0:0:0:
410,232,71519,2,0,L|410:190,1,41.9999987182618,2|0,1:2|0:0,0:0:0:0:
290,23,71691,2,0,L|290:107,1,83.9999974365235,10|0,0:3|0:0,0:0:0:0:
217,349,72036,6,0,P|203:309|198:267,1,83.9999974365235,0|0,1:0|0:0,0:0:0:0:
177,75,72381,1,8,0:3:0:0:
391,49,72553,1,0,0:0:0:0:
227,175,72725,1,2,0:0:0:0:
473,253,72898,1,2,1:2:0:0:
383,37,73070,2,8,B|340:35|340:35|298:47,1,83.9999974365235,8|0,0:3|0:0,0:0:0:0:
201,311,73415,6,0,P|242:305|281:291,1,83.9999974365235,0|0,1:0|0:0,0:0:0:0:
93,85,73760,2,0,P|87:127|91:172,1,83.9999974365235,8|0,0:3|0:0,0:0:0:0:
112,264,74019,1,2,0:0:0:0:
112,264,74105,1,2,0:0:0:0:
277,184,74277,1,2,1:2:0:0:
201,311,74450,1,8,0:3:0:0:
172,86,74622,1,0,0:0:0:0:
292,265,74794,6,0,L|375:262,1,83.9999974365235,0|0,1:0|0:0,0:0:0:0:
167,100,75139,2,0,L|83:97,1,83.9999974365235,8|0,0:3|0:0,0:0:0:0:
291,245,75484,2,0,L|290:203,1,41.9999987182618,2|0,0:0|0:0,0:0:0:0:
363,67,75656,2,0,L|364:109,1,41.9999987182618,2|0,1:2|0:0,0:0:0:0:
425,328,75829,2,0,P|385:342|344:347,1,83.9999974365235,8|0,0:3|0:0,0:0:0:0:
196,207,76174,6,0,P|194:248|203:290,1,83.9999974365235,0|0,1:0|0:0,0:0:0:0:
283,34,76518,2,0,P|274:75|257:113,1,83.9999974365235,8|0,0:3|0:0,0:0:0:0:
93,263,76863,1,8,0:3:0:0:
165,105,77036,1,8,0:3:0:0:
190,348,77208,1,8,0:3:0:0:
61,181,77381,1,8,0:3:0:0:
357,60,77553,6,0,L|366:175,1,83.9999974365235,0|0,1:0|0:0,0:0:0:0:
288,380,77898,2,0,L|297:265,1,83.9999974365235,8|0,0:3|0:0,0:0:0:0:
314,212,78157,1,2,0:0:0:0:
314,212,78243,1,2,0:0:0:0:
180,250,78415,1,2,1:2:0:0:
288,371,78588,1,8,0:3:0:0:
315,198,78760,1,0,0:0:0:0:
83,342,78932,6,0,P|81:300|89:258,1,83.9999974365235,0|0,1:0|0:0,0:0:0:0:
288,371,79277,2,0,P|289:329|281:287,1,83.9999974365235,8|0,0:3|0:0,0:0:0:0:
176,105,79622,1,2,0:0:0:0:
185,307,79794,1,2,1:2:0:0:
284,179,79967,1,8,0:3:0:0:
83,342,80139,1,0,0:0:0:0:
83,72,80312,6,0,P|88:113|101:153,1,83.9999974365235,0|0,1:0|0:0,0:0:0:0:
379,323,80656,2,0,P|384:281|381:239,1,83.9999974365235,8|0,0:3|0:0,0:0:0:0:
410,51,81001,1,2,0:0:0:0:
470,283,81174,1,2,1:2:0:0:
399,40,81346,2,0,P|331:32|273:33,1,125.999996154785,8|0,0:3|0:0,0:0:0:0:
178,140,81691,6,0,L|187:224,1,83.9999974365235,0|0,1:0|0:0,0:0:0:0:
393,266,82036,2,0,L|402:183,1,83.9999974365235,8|0,0:3|0:0,0:0:0:0:
307,55,82380,2,0,L|299:129,1,41.9999987182618,2|0,0:0|0:0,0:0:0:0:
293,272,82553,2,0,L|285:197,1,41.9999987182618,2|0,1:2|0:0,0:0:0:0:
180,50,82725,2,0,B|133:50|81:91,1,83.9999974365235,10|0,0:3|0:0,2:0:0:0:
62,302,83070,6,0,P|103:312|145:313,1,83.9999974365235,0|0,1:0|0:0,0:0:0:0:
273,45,83415,2,8,P|288:83|295:125,1,83.9999974365235,8|0,0:3|0:0,0:0:0:0:
315,230,83674,1,2,0:0:0:0:
315,230,83760,1,2,0:0:0:0:
89,228,83932,1,2,1:2:0:0:
293,224,84105,1,8,0:3:0:0:
114,116,84277,1,0,0:0:0:0:
380,66,84449,6,0,B|422:68|422:68|476:91,1,83.9999974365235,0|0,1:0|0:0,0:0:0:0:
314,314,84794,2,0,B|271:311|271:311|233:296,1,83.9999974365235,8|0,0:3|0:0,0:0:0:0:
155,129,85139,1,2,0:0:0:0:
399,147,85312,1,2,1:2:0:0:
210,224,85484,1,8,0:3:0:0:
351,64,85657,1,0,0:0:0:0:
344,316,85829,6,0,P|321:351|291:380,1,83.9999974365235,0|0,1:0|0:0,0:0:0:0:
142,137,86174,2,0,P|183:137|224:147,1,83.9999974365235,8|0,0:3|0:0,0:0:0:0:
293,202,86432,1,2,0:0:0:0:
293,202,86519,1,2,0:0:0:0:
85,70,86691,1,2,1:2:0:0:
304,211,86863,1,8,0:3:0:0:
72,224,87036,1,8,0:3:0:0:
72,224,87122,1,8,0:3:0:0:
72,224,87207,5,8,0:3:0:0:
270,113,87381,1,0,1:2:0:0:
270,113,87553,1,0,1:2:0:0:
157,353,87725,1,8,0:3:0:0:
148,106,87898,5,0,1:2:0:0:
148,106,88070,1,0,1:2:0:0:
263,281,88242,1,8,0:3:0:0:
85,175,88415,1,2,1:2:0:0:
327,164,88587,6,0,P|402:150|431:133,1,83.9999974365235,0|0,1:0|0:0,0:0:0:0:
98,39,88932,2,0,P|117:74|146:105,1,83.9999974365235,8|0,0:3|0:0,0:0:0:0:
277,330,89277,2,0,P|265:259|206:218,1,146.999995513916,2|0,0:0|0:0,0:0:0:0:
126,217,89622,1,8,0:3:0:0:
328,75,89794,1,0,0:0:0:0:
360,341,89967,6,0,P|318:340|277:330,1,83.9999974365235,0|0,1:0|0:0,0:0:0:0:
246,65,90312,2,0,P|287:65|328:75,1,83.9999974365235,8|0,0:3|0:0,0:0:0:0:
418,190,90656,1,0,0:0:0:0:
277,330,90828,1,0,1:0:0:0:
195,142,91001,2,0,P|236:142|277:152,1,83.9999974365235,8|0,0:3|0:0,0:0:0:0:
465,359,91346,6,0,L|455:257,1,83.9999974365235,0|0,1:0|0:0,3:0:0:0:
361,32,91691,2,0,L|351:134,1,83.9999974365235,8|0,0:3|0:0,0:0:0:0:
315,324,92036,1,0,0:0:0:0:
456,236,92208,1,0,1:0:0:0:
298,316,92380,1,8,0:3:0:0:
472,246,92553,1,0,0:0:0:0:
277,307,92725,6,0,P|235:305|194:294,1,83.9999974365235,0|0,1:0|0:0,0:0:0:0:
74,72,93070,2,0,P|93:109|104:149,1,83.9999974365235,8|0,0:3|0:0,0:0:0:0:
103,281,93415,1,0,0:0:0:0:
74,60,93588,1,0,1:0:0:0:
207,213,93760,1,8,0:3:0:0:
15,151,93932,1,0,0:0:0:0:
236,81,94105,1,2,0:0:0:0:
363,53,94449,6,0,L|359:143,1,83.9999974365235
356,281,94794,2,0,P|346:237|195:285,1,251.999992309571
194,129,95484,2,0,B|148:156|115:214|114:235|110:280|110:280|83:256|41:238,1,251.999992309571
253,364,96174,2,0,B|305:329|308:278|308:278|277:239|274:187|274:187|300:134|293:83|281:40,1,335.999989746094
136,241,99622,6,0,L|256:243,1,112,2|0,0:0|0:0,0:0:0:0:
334,168,100139,2,0,L|222:166,1,112,2|0,0:0|0:0,0:0:0:0:
114,87,100656,2,0,L|293:89,1,168,2|0,0:0|0:0,0:0:0:0:
396,266,101691,5,2,0:0:0:0:
146,298,102036,1,2,0:0:0:0:
81,195,102380,6,0,L|156:196,1,56,2|0,0:0|0:0,0:0:0:0:
229,198,102725,1,0,0:0:0:0:
99,164,102898,2,0,L|174:165,1,56,2|0,0:0|0:0,0:0:0:0:
247,167,103243,1,0,0:0:0:0:
317,93,103415,2,0,L|322:27,2,56,2|0|0,0:0|0:0|0:0,0:0:0:0:
347,196,103932,2,0,L|343:252,1,56,2|0,0:0|0:0,0:0:0:0:
335,355,104277,1,0,0:0:0:0:
159,251,104449,5,2,0:0:0:0:
434,271,104794,1,2,0:0:0:0:
351,69,105139,6,0,L|343:197,1,112,2|0,0:0|0:0,0:0:0:0:
259,275,105656,2,0,L|265:163,1,112,2|0,0:0|0:0,0:0:0:0:
193,31,106174,2,0,L|181:211,1,168,2|0,0:0|0:0,0:0:0:0:
206,343,107208,5,2,0:0:0:0:
420,179,107553,1,2,0:0:0:0:
318,253,107898,6,0,L|318:182,1,56,2|0,0:0|0:0,0:0:0:0:
317,103,108243,1,0,0:0:0:0:
233,157,108415,2,0,L|164:157,1,56,2|0,0:0|0:0,0:0:0:0:
83,155,108760,1,0,0:0:0:0:
111,64,108932,2,0,L|128:-4,2,56,2|0|0,0:0|0:0|0:0,0:0:0:0:
81,172,109449,2,0,L|83:238,1,56,2|0,0:0|0:0,0:0:0:0:
87,322,109794,1,0,0:0:0:0:
219,187,109967,5,2,0:0:0:0:
398,308,110312,2,0,L|398:218,1,84,2|0,0:0|0:0,0:0:0:0:
396,204,110656,2,0,P|358:178|289:165,1,112,2|0,0:0|0:0,0:0:0:0:
219,187,111174,2,0,L|284:88,1,112,2|0,0:0|0:0,0:0:0:0:
360,50,111691,2,0,P|265:56|178:50,1,168,2|0,0:0|0:0,0:0:0:0:
71,212,112725,5,2,0:0:0:0:
330,303,113070,1,2,0:0:0:0:
225,164,113415,6,0,L|228:235,1,56,2|0,0:0|0:0,0:0:0:0:
181,303,113760,1,0,0:0:0:0:
213,153,113932,2,0,L|210:97,1,56,2|0,0:0|0:0,0:0:0:0:
254,10,114277,1,0,0:0:0:0:
311,122,114449,2,0,L|313:177,2,56,2|0|0,0:0|0:0|0:0,0:0:0:0:
398,240,114967,2,0,L|400:295,1,56,2|0,0:0|0:0,0:0:0:0:
453,381,115312,5,0,0:0:0:0:
469,192,115484,2,0,P|438:167|373:160,1,84,2|0,0:0|0:0,0:0:0:0:
370,158,115829,2,0,P|297:173|263:170,1,84,2|0,0:0|0:0,0:0:0:0:
266,164,116174,2,0,P|214:137|157:153,1,112,2|0,0:0|0:0,0:0:0:0:
96,258,116691,2,0,L|75:139,1,112,2|0,0:0|0:0,0:0:0:0:
134,68,117208,2,0,P|212:61|310:77,1,168,2|0,0:0|0:0,0:0:0:0:
383,320,118243,5,2,0:0:0:0:
116,267,118587,1,2,0:0:0:0:
171,144,118932,6,0,L|243:142,1,56,2|0,0:0|0:0,0:0:0:0:
198,225,119277,1,0,0:0:0:0:
180,127,119449,2,0,L|252:125,1,56,2|0,0:0|0:0,0:0:0:0:
198,211,119794,1,0,0:0:0:0:
172,94,119967,2,0,L|166:22,2,56,2|0|0,0:0|0:0|0:0,0:0:0:0:
284,68,120484,2,0,L|356:66,1,56,2|0,0:0|0:0,0:0:0:0:
430,62,120829,1,0,0:0:0:0:
390,254,121001,5,2,0:0:0:0:
390,254,121174,2,0,P|335:238|280:203,1,112,2|0,0:0|0:0,0:0:0:0:
162,292,121691,2,0,P|148:231|145:124,1,140,2|0,0:0|0:0,0:0:0:0:
146,62,122208,1,2,0:0:0:0:
227,149,122380,2,0,P|278:129|252:56,1,140,2|0,0:0|0:0,0:0:0:0:
146,62,122898,1,2,0:0:0:0:
222,235,123070,6,0,L|230:95,1,140,2|0,0:0|0:0,0:0:0:0:
289,19,123587,1,2,0:0:0:0:
317,153,123760,2,0,P|386:149|450:122,1,140,2|0,0:0|0:0,0:0:0:0:
356,237,124277,1,2,0:0:0:0:
465,251,124449,1,2,0:0:0:0:
301,332,124622,2,0,P|279:300|244:180,1,140,2|0,0:0|0:0,0:0:0:0:
230,69,125484,5,2,0:0:0:0:
407,217,126518,6,0,P|360:217|286:220,1,105,2|0,0:0|0:0,0:0:0:0:
287,221,126863,2,0,P|251:207|209:127,1,105,2|0,0:0|0:0,0:0:0:0:
209,138,127208,2,0,P|307:138|379:127,1,140,2|0,0:0|0:0,0:0:0:0:
447,96,127725,1,2,0:0:0:0:
460,202,127898,2,0,L|446:349,1,140,2|0,0:0|0:0,0:0:0:0:
354,257,128415,1,2,0:0:0:0:
275,330,128587,6,0,P|216:334|198:258,1,140,2|0,0:0|0:0,0:0:0:0:
213,158,129105,1,2,0:0:0:0:
138,48,129277,2,0,P|109:172|89:208,1,140,2|0,0:0|0:0,0:0:0:0:
37,263,129794,1,2,0:0:0:0:
193,266,129967,2,0,L|352:256,1,140,2|0,0:0|0:0,0:0:0:0:
186,310,132036,5,2,0:0:0:0:
187,219,132208,2,0,L|190:76,1,140,2|0,0:0|0:0,0:0:0:0:
265,264,132725,2,0,P|328:255|390:189,1,140,2|0,0:0|0:0,0:0:0:0:
420,125,133243,1,2,0:0:0:0:
273,282,133415,2,0,P|336:273|398:207,1,140,2|0,0:0|0:0,0:0:0:0:
441,138,133932,1,2,0:0:0:0:
315,40,134105,6,0,L|293:184,1,140,2|0,0:0|0:0,0:0:0:0:
273,282,134622,1,2,0:0:0:0:
286,47,134794,2,0,L|264:191,1,140,2|0,0:0|0:0,0:0:0:0:
246,301,135312,1,2,0:0:0:0:
147,177,135484,1,2,0:0:0:0:
86,335,135656,2,0,P|62:281|59:188,1,140,2|0,0:0|0:0,0:0:0:0:
153,44,136518,5,2,0:0:0:0:
188,205,137553,5,2,0:0:0:0:
188,205,137725,2,0,P|259:180|296:97,1,140,2|0,0:0|0:0,0:0:0:0:
305,34,138243,1,2,0:0:0:0:
59,84,138587,6,0,L|150:76,1,70,2|0,0:0|0:0,0:0:0:0:
188,205,138932,2,0,L|116:197,1,70,2|0,0:0|0:0,0:0:0:0:
264,110,139277,1,2,0:0:0:0:
269,120,139622,5,2,0:0:0:0:
365,268,139793,1,0,0:0:0:0:
365,268,139967,2,0,P|361:207|372:181,1,70,2|0,0:0|0:0,0:0:0:0:
244,344,140311,1,2,0:0:0:0:
244,344,140484,2,0,L|232:204,1,140
221,89,141001,1,2,0:0:0:0:
88,292,143070,5,2,0:0:0:0:
88,292,143243,2,0,P|172:298|243:263,1,140,2|0,0:0|0:0,0:0:0:0:
407,142,143760,5,8,0:3:0:0:
311,324,144105,1,0,1:0:0:0:
288,62,144277,1,8,0:3:0:0:
326,345,144622,5,0,1:0:0:0:
303,83,144794,1,8,0:3:0:0:
303,83,145139,1,8,0:3:0:0:
164,291,145484,1,0,1:0:0:0:
397,160,145657,1,8,0:3:0:0:
156,309,146001,5,0,1:0:0:0:
389,178,146174,1,8,0:3:0:0:
389,178,146518,1,8,0:3:0:0:
143,221,146864,1,0,1:0:0:0:
394,308,147036,1,8,0:3:0:0:
135,201,147380,5,0,1:0:0:0:
386,288,147552,1,8,0:3:0:0:
386,288,147898,1,8,0:3:0:0:
277,46,148243,1,0,1:0:0:0:
282,311,148415,1,8,0:3:0:0:
258,63,148760,5,0,1:0:0:0:
263,328,148932,1,8,0:3:0:0:
151,139,149277,5,8,0:3:0:0:
56,311,149450,1,0,1:0:0:0:
56,311,149622,1,0,1:0:0:0:
155,119,149795,1,8,0:3:0:0:
245,310,149967,5,0,1:0:0:0:
245,310,150139,1,0,1:0:0:0:
168,221,150312,1,8,0:3:0:0:
288,162,150484,1,0,1:0:0:0:
154,315,150657,1,8,0:3:0:0:
96,70,150829,1,0,1:0:0:0:
96,70,151001,1,0,1:0:0:0:
155,301,151174,1,8,0:3:0:0:
226,71,151346,5,0,1:0:0:0:
226,71,151519,1,0,1:0:0:0:
326,231,151691,1,8,0:3:0:0:
188,188,151863,1,0,1:0:0:0:
327,71,152036,1,8,0:3:0:0:
264,332,152208,1,0,1:0:0:0:
264,332,152381,1,0,1:0:0:0:
405,174,152553,5,8,0:3:0:0:
209,83,152726,1,0,1:0:0:0:
209,83,152898,1,0,1:0:0:0:
377,173,153070,1,8,0:3:0:0:
179,172,153243,1,0,1:0:0:0:
264,332,153415,5,8,0:3:0:0:
355,173,153588,1,8,0:3:0:0:
176,264,153760,1,8,0:3:0:0:
360,346,153933,1,8,0:3:0:0:
425,81,154105,5,8,0:3:0:0:
358,324,154277,1,8,0:3:0:0:
191,149,154450,1,8,0:3:0:0:
411,95,154622,1,8,0:3:0:0:
264,332,154794,6,0,L|256:245,1,83.9999974365235,0|0,1:0|0:0,0:0:0:0:
110,28,155139,2,0,P|106:69|113:114,1,83.9999974365235,8|0,0:3|0:0,0:0:0:0:
172,248,155484,1,2,0:0:0:0:
267,73,155656,1,2,1:2:0:0:
359,313,155829,2,0,P|405:307|450:284,1,83.9999974365235,8|0,0:3|0:0,0:0:0:0:
267,73,156174,6,0,L|275:173,1,83.9999974365235,0|0,1:0|0:0,0:0:0:0:
125,274,156518,2,0,P|53:262|5:259,1,83.9999974365235,8|0,0:3|0:0,0:0:0:0:
345,181,156863,1,2,0:0:0:0:
136,269,157036,1,2,1:2:0:0:
279,79,157208,2,0,B|325:81|325:81|420:115,1,125.999996154785,8|0,0:3|0:0,0:0:0:0:
425,156,157553,6,0,L|341:182,1,83.9999974365235,0|0,1:0|0:0,0:0:0:0:
152,350,157897,2,0,P|139:309|136:268,1,83.9999974365235,8|0,0:3|0:0,0:0:0:0:
153,143,158155,1,2,0:0:0:0:
153,143,158243,1,2,0:0:0:0:
241,295,158414,1,2,1:2:0:0:
82,202,158587,1,8,0:3:0:0:
269,88,158759,1,0,0:0:0:0:
343,346,158932,6,0,L|334:254,1,83.9999974365235,0|0,1:0|0:0,0:0:0:0:
269,88,159276,2,0,L|263:201,1,83.9999974365235,8|0,0:3|0:0,0:0:0:0:
134,333,159621,2,0,L|63:340,1,41.9999987182618,2|0,0:0|0:0,0:0:0:0:
272,185,159794,2,0,L|322:174,1,41.9999987182618,2|0,1:2|0:0,0:0:0:0:
147,333,159967,2,0,L|136:237,1,83.9999974365235,10|0,0:3|0:0,0:0:0:0:
160,20,160312,6,0,P|165:62|180:104,1,83.9999974365235,0|0,1:0|0:0,0:0:0:0:
353,275,160656,2,0,P|381:243|401:207,1,83.9999974365235,8|0,0:3|0:0,0:0:0:0:
227,168,161000,1,2,0:0:0:0:
442,292,161174,1,2,1:2:0:0:
357,60,161345,2,8,B|305:55|262:80,1,83.9999974365235,8|0,0:3|0:0,0:0:0:0:
109,330,161691,6,8,B|161:335|204:310,1,83.9999974365235,0|0,1:0|0:0,0:0:0:0:
35,93,162035,2,0,P|48:133|71:172,1,83.9999974365235,8|0,0:3|0:0,0:0:0:0:
128,240,162294,1,2,0:0:0:0:
128,240,162380,1,2,0:0:0:0:
277,184,162552,1,2,1:2:0:0:
190,316,162725,1,8,0:3:0:0:
130,98,162897,1,0,0:0:0:0:
290,292,163070,6,0,P|338:279|373:253,1,83.9999974365235,0|0,1:0|0:0,0:0:0:0:
118,95,163414,2,0,L|34:92,1,83.9999974365235,8|0,0:3|0:0,0:0:0:0:
99,346,163759,2,0,L|104:298,1,41.9999987182618,2|0,0:0|0:0,0:0:0:0:
196,128,163932,2,0,L|200:169,1,41.9999987182618,2|0,1:2|0:0,0:0:0:0:
196,341,164105,2,0,L|186:253,1,83.9999974365235,8|0,0:3|0:0,0:0:0:0:
267,50,164449,6,0,L|275:133,1,83.9999974365235,0|0,1:0|0:0,0:0:0:0:
320,352,164794,2,0,P|337:314|347:261,1,83.9999974365235,8|0,0:3|0:0,0:0:0:0:
363,122,165138,1,8,0:3:0:0:
232,291,165312,1,8,0:3:0:0:
165,100,165483,1,8,0:3:0:0:
312,340,165656,1,8,0:3:0:0:
356,38,165828,6,0,L|365:153,1,83.9999974365235,0|0,1:0|0:0,0:0:0:0:
442,358,166173,2,0,L|451:243,1,83.9999974365235,8|0,0:3|0:0,0:0:0:0:
463,165,166432,1,2,0:0:0:0:
463,165,166518,1,2,0:0:0:0:
264,180,166690,1,2,1:2:0:0:
367,250,166863,1,8,0:3:0:0:
314,87,167035,1,0,0:0:0:0:
210,358,167208,6,0,P|208:313|197:263,1,83.9999974365235,0|0,1:0|0:0,0:0:0:0:
88,87,167553,2,0,P|121:117|164:144,1,83.9999974365235,8|0,0:3|2:0,0:0:0:0:
264,180,167897,1,2,0:0:0:0:
175,35,168069,1,2,1:2:0:0:
146,219,168242,1,8,0:3:0:0:
306,42,168414,1,0,0:0:0:0:
375,291,168587,6,0,L|387:186,1,83.9999974365235,0|0,1:0|0:0,0:0:0:0:
155,302,168932,2,0,L|143:197,1,83.9999974365235,8|0,0:3|0:0,0:0:0:0:
376,300,169276,1,2,0:0:0:0:
136,216,169449,1,2,1:2:0:0:
264,67,169621,2,0,P|326:66|389:74,1,125.999996154785,8|0,0:3|0:0,0:0:0:0:
423,174,169966,6,0,L|414:90,1,83.9999974365235,0|0,1:0|0:0,0:0:0:0:
237,322,170311,2,0,L|142:312,1,83.9999974365235,8|0,0:3|0:0,0:0:0:0:
99,139,170656,2,0,L|103:215,1,41.9999987182618,2|0,0:0|0:0,0:0:0:0:
298,263,170828,2,0,L|290:188,1,41.9999987182618,2|0,1:2|0:0,0:0:0:0:
65,264,171001,2,0,B|56:310|66:349,1,83.9999974365235,10|0,0:3|0:0,2:0:0:0:
290,358,171345,6,0,P|330:347|368:328,1,83.9999974365235,0|0,1:0|0:0,0:0:0:0:
275,53,171691,2,0,P|234:63|196:82,1,83.9999974365235,8|0,0:3|0:0,0:0:0:0:
119,159,171949,1,2,0:0:0:0:
119,159,172035,1,2,0:0:0:0:
265,154,172207,1,2,1:2:0:0:
192,255,172380,1,8,0:3:0:0:
109,60,172552,1,0,0:0:0:0:
388,45,172725,6,0,B|389:91|389:91|368:142,1,83.9999974365235,0|0,1:0|0:0,0:0:0:0:
217,349,173070,2,0,B|170:348|170:348|133:330,1,83.9999974365235,8|0,0:3|0:0,0:0:0:0:
96,177,173414,1,2,0:0:0:0:
360,133,173587,1,2,1:2:0:0:
192,255,173759,1,8,0:3:0:0:
287,73,173932,1,0,0:0:0:0:
368,343,174104,6,0,P|398:313|421:278,1,83.9999974365235,0|0,1:0|0:0,0:0:0:0:
184,172,174449,2,0,P|182:213|191:254,1,83.9999974365235,8|0,0:3|0:0,0:0:0:0:
310,236,174707,1,2,0:0:0:0:
310,236,174794,1,2,0:0:0:0:
107,127,174966,1,2,1:2:0:0:
290,134,175138,1,8,0:3:0:0:
125,329,175311,1,8,0:3:0:0:
125,329,175397,1,8,0:3:0:0:
125,329,175484,5,8,0:3:0:0:
188,176,175656,1,0,1:0:0:0:
188,176,175828,1,0,1:0:0:0:
216,312,176001,5,8,0:3:0:0:
265,80,176173,1,0,1:0:0:0:
265,80,176345,1,0,1:0:0:0:
258,235,176517,1,8,0:3:0:0:
95,98,176690,1,2,1:2:0:0:
339,166,176863,6,0,P|414:152|443:135,1,83.9999974365235,0|0,1:0|0:0,0:0:0:0:
191,325,177208,2,0,P|150:337|109:337,1,83.9999974365235,8|0,0:3|0:0,0:0:0:0:
295,360,177553,2,0,P|300:280|237:227,1,146.999995513916,4|0,0:0|0:0,0:0:0:0:
167,200,177898,1,8,0:3:0:0:
289,366,178069,1,0,0:0:0:0:
310,133,178243,6,0,P|272:121|227:122,1,83.9999974365235,0|0,1:0|0:0,0:0:0:0:
23,253,178587,2,0,P|68:253|109:263,1,83.9999974365235,8|0,0:3|0:0,0:0:0:0:
269,314,178931,1,0,0:0:0:0:
309,142,179105,1,0,1:0:0:0:
191,372,179276,2,0,P|180:309|186:253,1,83.9999974365235,8|0,0:3|0:0,0:0:0:0:
309,142,179621,6,0,L|301:225,1,83.9999974365235,0|0,1:0|0:0,3:0:0:0:
128,51,179966,2,0,L|138:153,1,83.9999974365235,8|0,0:3|0:0,0:0:0:0:
180,289,180311,1,0,0:0:0:0:
309,142,180483,1,0,1:0:0:0:
160,210,180655,1,8,0:3:0:0:
353,311,180828,1,0,0:0:0:0:
364,66,181001,6,0,P|323:55|280:54,1,83.9999974365235,0|0,1:0|0:0,0:0:0:0:
74,72,181345,2,0,P|93:109|104:149,1,83.9999974365235,8|0,0:3|0:0,0:0:0:0:
103,281,181690,1,0,0:0:0:0:
74,60,181863,1,0,1:0:0:0:
207,213,182035,1,8,0:3:0:0:
15,151,182207,1,0,0:0:0:0:
236,81,182380,5,8,0:3:0:0:
291,271,182553,1,0,1:0:0:0:
291,271,182725,1,0,1:0:0:0:
302,134,182898,1,8,0:3:0:0:
205,351,183070,1,0,1:0:0:0:
205,351,183243,1,0,1:0:0:0:
111,200,183415,5,8,0:3:0:0:
206,181,183587,1,0,1:0:0:0:
135,294,183760,1,8,0:3:0:0:
145,98,183932,1,0,1:0:0:0:
145,98,184105,1,0,1:0:0:0:
223,269,184277,1,8,0:3:0:0:
291,109,184449,1,0,1:0:0:0:
291,109,184622,1,0,1:0:0:0:
367,279,184794,5,8,0:3:0:0:
377,136,184967,1,0,1:0:0:0:
260,219,185139,1,8,0:3:0:0:
462,262,185312,1,0,1:0:0:0:
462,262,185484,1,0,1:0:0:0:
295,135,185656,1,8,0:3:0:0:
320,331,185829,1,0,1:0:0:0:
320,331,186001,1,0,1:0:0:0:
218,213,186174,5,8,0:3:0:0:
156,330,186346,1,0,1:0:0:0:
86,79,186518,5,8,0:3:0:0:
258,138,186691,1,8,0:3:0:0:
111,207,186863,1,8,0:3:0:0:
201,56,187036,1,8,0:3:0:0:
177,258,187208,1,8,0:3:0:0:
130,127,187380,1,8,0:3:0:0:
273,264,187553,1,8,0:3:0:0:
88,327,187725,1,8,0:3:0:0:
290,148,187898,5,4,0:0:0:0:
