osu file format v14

[General]
AudioFilename: audio.mp3
AudioLeadIn: 0
PreviewTime: 65499
Countdown: 0
SampleSet: Normal
StackLeniency: 0.6
Mode: 0
LetterboxInBreaks: 0
WidescreenStoryboard: 1

[Editor]
Bookmarks: 22138,33173,44207,55242,66276,77311,88345,99380,110414,121449,132483
DistanceSpacing: 1
BeatDivisor: 4
GridSize: 32
TimelineZoom: 1

[Metadata]
Title:Half Light feat. Tom Cane
TitleUnicode:Half Light feat. Tom Cane
Artist:Wilkinson
ArtistUnicode:Wilkinson
Creator:Slips
Version:Ecstatic
Source:
Tags:english uk dnb drum and n & bass ram records lazers not included cut ver Reform Kujinn HootOwlStar HOS RyoKazuka Kergio
BeatmapID:1983477
BeatmapSetID:949914

[Difficulty]
HPDrainRate:6
CircleSize:4
OverallDifficulty:9
ApproachRate:9.2
SliderMultiplier:1.92
SliderTickRate:1

[Events]
//Background and Video events
0,0,"wooooo.jpg",0,0
//Break Periods
2,44407,54672
//Storyboard Layer 0 (Background)
//Storyboard Layer 1 (Fail)
//Storyboard Layer 2 (Pass)
//Storyboard Layer 3 (Foreground)
//Storyboard Layer 4 (Overlay)
//Storyboard Sound Samples

[TimingPoints]
70,344.827586206897,4,1,1,60,1,0
21449,-100,4,1,1,40,0,0
22138,-200,4,1,1,40,0,0
44207,-100,4,1,1,40,0,0
55242,-133.333333333333,4,1,1,60,0,0
60759,-100,4,1,2,60,0,0
63518,-80,4,1,2,60,0,0
64897,-100,4,1,1,40,0,0
66276,-80,4,1,1,80,0,1
68690,-66.6666666666667,4,1,1,80,0,1
68949,-66.6666666666667,4,1,1,5,0,1
69035,-80,4,1,1,80,0,1
71449,-66.6666666666667,4,1,1,80,0,1
71707,-66.6666666666667,4,1,1,5,0,1
71794,-80,4,1,1,80,0,1
74207,-66.6666666666667,4,1,1,80,0,1
74466,-66.6666666666667,4,1,1,5,0,1
74552,-80,4,1,1,80,0,1
79725,-66.6666666666667,4,1,1,80,0,1
79983,-66.6666666666667,4,1,1,5,0,1
80070,-80,4,1,1,80,0,1
82483,-66.6666666666667,4,1,1,80,0,1
82742,-66.6666666666667,4,1,1,5,0,1
82828,-80,4,1,1,80,0,1
85242,-66.6666666666667,4,1,1,80,0,1
85501,-66.6666666666667,4,1,1,5,0,1
85587,-80,4,1,1,80,0,1
90759,-66.6666666666667,4,1,1,80,0,1
91018,-66.6666666666667,4,1,1,5,0,1
91104,-80,4,1,1,80,0,1
93518,-66.6666666666667,4,1,1,80,0,1
93776,-66.6666666666667,4,1,1,5,0,1
93863,-80,4,1,1,80,0,1
96276,-66.6666666666667,4,1,1,80,0,1
96535,-66.6666666666667,4,1,1,5,0,1
96621,-80,4,1,1,80,0,1
101794,-66.6666666666667,4,1,1,80,0,1
102052,-66.6666666666667,4,1,1,5,0,1
102138,-80,4,1,1,80,0,1
104552,-66.6666666666667,4,1,1,80,0,1
104811,-66.6666666666667,4,1,1,5,0,1
104897,-80,4,1,1,80,0,1
106276,-100,4,1,1,80,0,1
107656,-100,4,1,1,60,0,0
108863,-100,4,1,1,5,0,0
109035,-100,4,1,1,40,0,0
110414,-80,4,1,1,80,0,1
112828,-66.6666666666667,4,1,1,80,0,1
113087,-66.6666666666667,4,1,1,5,0,1
113173,-80,4,1,1,80,0,1
115587,-66.6666666666667,4,1,1,80,0,1
115845,-66.6666666666667,4,1,1,5,0,1
115932,-80,4,1,1,80,0,1
118345,-66.6666666666667,4,1,1,80,0,1
118604,-66.6666666666667,4,1,1,5,0,1
118690,-80,4,1,1,80,0,1
123863,-66.6666666666667,4,1,1,80,0,1
124121,-66.6666666666667,4,1,1,5,0,1
124207,-80,4,1,1,80,0,1
126621,-66.6666666666667,4,1,1,80,0,1
126880,-66.6666666666667,4,1,1,5,0,1
126966,-100,4,1,1,60,0,0

[Colours]
Combo1 : 255,255,62
Combo2 : 192,249,87

[HitObjects]
256,192,19380,12,0,21449,0:0:0:0:
54,202,22138,6,0,P|133:308|252:248,1,288,6|0,3:1|0:0,0:0:0:0:
310,46,23518,2,0,L|327:188,1,144
342,284,24207,1,2,0:0:0:0:
240,126,24380,1,2,0:0:0:0:
430,246,24725,6,0,L|418:341,1,96,2|2,0:0|0:0,0:0:0:0:
258,269,25414,2,0,L|240:126,1,144,2|0,0:0|0:0,0:0:0:0:
454,56,26276,2,0,L|430:246,1,192
417,341,27138,1,2,0:0:0:0:
364,143,27311,1,2,0:0:0:0:
265,193,27483,6,0,L|169:181,1,96,2|0,0:0|0:0,0:0:0:0:
37,126,28001,2,0,L|55:269,1,144,2|0,0:0|0:0,0:0:0:0:
66,364,28690,1,2,0:0:0:0:
169,181,28863,2,0,L|157:85,1,96,2|0,0:0|0:0,0:0:0:0:
265,193,29380,2,0,P|333:208|395:175,1,144,2|0,0:0|0:0,0:0:0:0:
440,90,30070,1,2,0:0:0:0:
387,288,30242,5,2,0:0:0:0:
253,73,30587,2,0,L|157:85,1,96,2|2,0:0|0:0,0:0:0:0:
49,221,31104,2,0,L|145:233,1,96,2|2,0:0|0:0,0:0:0:0:
0,32,31794,1,0,0:0:0:0:
450,343,33173,6,0,P|323:304|339:173,1,288,2|0,0:0|0:0,0:0:0:0:
501,33,34552,2,0,L|357:15,1,144
262,1,35242,1,2,0:0:0:0:
420,103,35414,1,2,0:0:0:0:
172,163,35759,5,2,0:0:0:0:
358,15,36104,1,2,0:0:0:0:
388,297,36449,2,0,P|319:314|256:282,1,144,2|0,0:0|0:0,0:0:0:0:
82,77,37311,2,0,L|106:267,1,192
118,361,38173,1,2,0:0:0:0:
172,163,38345,1,2,0:0:0:0:
271,213,38518,6,0,L|367:201,1,96,2|0,0:0|0:0,0:0:0:0:
433,73,39035,2,0,L|289:55,1,144,2|0,0:0|0:0,0:0:0:0:
194,41,39725,1,2,0:0:0:0:
366,201,39897,2,0,L|354:297,1,96,2|0,0:0|0:0,0:0:0:0:
218,231,40414,2,0,L|194:41,1,192,2|0,0:0|0:0,0:0:0:0:
28,59,41276,6,0,L|40:155,1,96,2|2,0:0|0:0,0:0:0:0:
50,249,41794,1,2,0:0:0:0:
116,97,41966,1,2,0:0:0:0:
277,281,42138,1,2,0:0:0:0:
39,154,42483,1,2,0:0:0:0:
393,41,42828,2,0,P|455:145|334:161,1,288,0|2,0:0|0:0,0:0:0:0:
333,160,44207,5,4,3:1:0:0:
125,116,55242,5,4,3:1:0:0:
166,293,55587,1,8,0:2:0:0:
302,75,56104,1,0,3:0:0:0:
125,116,56276,1,8,0:2:0:0:
411,226,56621,5,0,3:0:0:0:
234,185,56966,1,8,0:2:0:0:
452,49,57483,1,0,3:0:0:0:
411,226,57656,1,8,0:2:0:0:
234,185,58001,5,0,3:0:0:0:
275,362,58345,1,8,0:2:0:0:
125,116,58863,1,0,3:0:0:0:
84,293,59035,1,8,0:2:0:0:
302,157,59380,5,0,3:0:0:0:
125,116,59725,1,8,0:2:0:0:
411,226,60242,1,0,3:0:0:0:
234,267,60414,1,8,0:2:0:0:
125,116,60759,6,0,L|132:52,3,48,2|0|0|0,0:0|0:0|0:0|0:0,0:0:0:0:
234,267,61104,2,0,L|228:314,3,48,2|0|0|0,0:0|0:0|0:0|0:0,0:0:0:0:
256,137,61449,6,0,L|319:144,3,48,2|0|0|0,0:0|0:0|0:0|0:0,0:0:0:0:
104,247,61794,2,0,L|56:241,3,48,2|0|0|0,0:0|0:0|0:0|0:0,0:0:0:0:
130,68,62138,5,2,0:0:0:0:
151,86,62225,1,0,0:0:0:0:
176,100,62311,1,0,0:0:0:0:
204,107,62397,1,0,0:0:0:0:
233,108,62483,1,2,0:0:0:0:
261,102,62570,1,0,0:0:0:0:
287,90,62656,1,0,0:0:0:0:
310,72,62742,1,0,0:0:0:0:
327,50,62828,5,2,0:0:0:0:
375,48,62914,1,0,0:0:0:0:
418,69,63001,1,0,0:0:0:0:
446,107,63087,1,0,0:0:0:0:
454,154,63173,1,2,0:0:0:0:
439,199,63259,1,0,0:0:0:0:
404,232,63345,1,0,0:0:0:0:
359,245,63432,1,0,0:0:0:0:
312,235,63518,6,0,P|287:217|268:194,1,60,2|0,0:0|0:0,0:0:0:0:
314,107,63690,2,0,P|317:77|327:49,1,60,2|0,0:0|0:0,0:0:0:0:
170,266,63863,6,0,P|166:236|156:208,1,60,2|0,0:0|0:0,0:0:0:0:
82,152,64035,2,0,P|54:139|25:134,1,60,2|0,0:0|0:0,0:0:0:0:
242,354,64207,6,0,P|245:324|255:296,1,60,2|0,0:0|0:0,0:0:0:0:
268,194,64380,2,0,P|259:165|244:139,1,60,2|0,0:0|0:0,0:0:0:0:
452,256,64552,6,0,P|449:227|439:199,1,60,2|0,0:0|0:0,0:0:0:0:
405,105,64725,2,0,P|413:76|428:50,1,60,2|0,0:0|0:0,0:0:0:0:
255,296,64897,5,0,3:0:0:0:
178,79,65070,1,0,3:0:0:0:
40,253,65242,5,0,3:0:0:0:
104,33,65414,1,0,3:0:0:0:
255,296,65587,5,0,3:0:0:0:
309,103,65759,1,0,3:0:0:0:
136,345,65932,5,0,3:0:0:0:
82,152,66104,1,0,3:0:0:0:
255,296,66276,6,0,L|381:311,1,120,4|0,3:1|0:0,0:0:0:0:
428,88,66621,2,0,L|301:103,1,120,8|0,0:0|0:0,0:0:0:0:
174,188,66966,1,0,0:0:0:0:
374,310,67138,2,0,P|383:247|372:181,1,120,0|8,3:0|0:0,0:0:0:0:
172,69,67483,6,0,P|165:128|174:188,1,120,0|0,0:0|3:0,0:0:0:0:
255,296,67828,1,0,0:0:0:0:
70,129,68001,1,8,0:0:0:0:
274,9,68173,1,0,0:0:0:0:
173,187,68345,1,0,0:0:0:0:
69,11,68518,1,0,3:0:0:0:
255,296,68690,6,0,P|355:315|417:233,1,216.000008239746,8|0,0:0|0:0,0:0:0:0:
419,155,69035,5,0,3:0:0:0:
348,349,69207,1,0,0:0:0:0:
224,98,69380,2,0,P|283:89|342:96,1,120,8|0,0:0|0:0,0:0:0:0:
485,195,69725,1,0,0:0:0:0:
274,9,69897,2,0,P|333:17|392:10,1,120,0|8,3:0|0:0,0:0:0:0:
173,187,70242,6,0,P|113:179|54:188,1,120,0|0,0:0|3:0,0:0:0:0:
216,301,70587,1,0,0:0:0:0:
326,96,70759,1,8,0:0:0:0:
173,187,70932,1,0,0:0:0:0:
336,313,71104,1,0,0:0:0:0:
224,98,71276,1,0,3:0:0:0:
58,349,71449,6,0,P|79:243|83:135,1,216.000008239746,8|0,0:0|0:0,0:0:0:0:
68,58,71794,5,0,3:0:0:0:
0,235,71966,1,0,0:0:0:0:
224,98,72138,2,0,P|215:157|222:216,1,120,8|0,0:0|0:0,0:0:0:0:
68,58,72483,1,0,0:0:0:0:
325,157,72656,2,0,P|332:97|323:38,1,120,0|8,3:0|0:0,0:0:0:0:
223,325,73001,6,0,P|277:302|336:313,1,120,0|0,0:0|3:0,0:0:0:0:
489,361,73345,1,0,0:0:0:0:
325,157,73518,1,8,0:0:0:0:
336,313,73690,1,0,0:0:0:0:
452,128,73863,1,0,0:0:0:0:
413,337,74035,1,0,3:0:0:0:
241,77,74207,6,0,P|140:57|78:139,1,216.000008239746,8|0,0:0|0:0,0:0:0:0:
77,218,74552,5,0,3:0:0:0:
0,39,74725,1,0,0:0:0:0:
145,179,74897,2,0,P|153:238|146:297,1,120,8|0,0:0|0:0,0:0:0:0:
30,384,75242,1,0,0:0:0:0:
246,204,75414,2,0,P|238:263|247:322,1,120,0|8,3:0|0:0,0:0:0:0:
360,91,75759,6,0,L|241:77,1,120,0|0,0:0|3:0,0:0:0:0:
377,234,76104,1,0,0:0:0:0:
464,36,76276,1,8,0:0:0:0:
296,126,76449,1,0,0:0:0:0:
441,269,76621,1,0,0:0:0:0:
298,54,76794,1,0,3:0:0:0:
247,322,76966,5,8,0:0:0:0:
360,91,77138,1,0,3:0:0:0:
77,21,77311,6,0,P|69:80|78:139,1,120,4|0,3:1|0:0,0:0:0:0:
294,244,77656,2,0,P|303:185|296:126,1,120,8|0,0:0|0:0,0:0:0:0:
155,249,78001,1,0,0:0:0:0:
389,75,78173,2,0,P|381:134|390:193,1,120,0|8,3:0|0:0,0:0:0:0:
156,367,78518,6,0,P|163:308|155:249,1,120,0|0,0:0|3:0,0:0:0:0:
36,79,78863,1,0,0:0:0:0:
226,187,79035,1,8,0:0:0:0:
84,311,79207,1,0,0:0:0:0:
237,94,79380,1,0,0:0:0:0:
318,271,79552,1,0,3:0:0:0:
137,35,79725,6,0,P|242:56|350:60,1,216.000008239746,8|0,0:0|0:0,0:0:0:0:
428,45,80070,5,0,3:0:0:0:
226,187,80242,1,0,0:0:0:0:
436,272,80414,2,0,P|376:263|317:270,1,120,8|0,0:0|0:0,0:0:0:0:
205,383,80759,1,0,0:0:0:0:
344,185,80932,2,0,P|284:193|225:186,1,120,0|8,3:0|0:0,0:0:0:0:
43,40,81276,6,0,P|102:32|162:40,1,120,0|0,0:0|3:0,0:0:0:0:
347,95,81621,1,0,0:0:0:0:
152,128,81794,1,8,0:0:0:0:
357,0,81966,1,0,0:0:0:0:
251,216,82138,1,0,0:0:0:0:
162,40,82311,1,0,3:0:0:0:
348,283,82483,6,0,P|448:302|510:220,1,216.000008239746,8|0,0:0|0:0,0:0:0:0:
512,142,82828,5,0,3:0:0:0:
430,338,83001,1,0,0:0:0:0:
290,87,83173,2,0,P|283:146|292:205,1,120,8|0,0:0|0:0,0:0:0:0:
430,338,83518,1,0,0:0:0:0:
512,142,83690,2,0,P|453:134|394:143,1,120,0|8,3:0|0:0,0:0:0:0:
171,88,84035,6,0,P|230:96|290:87,1,120,0|0,0:0|3:0,0:0:0:0:
66,170,84380,1,0,0:0:0:0:
227,0,84552,1,8,0:0:0:0:
174,206,84725,1,0,0:0:0:0:
21,52,84897,1,0,0:0:0:0:
99,257,85070,1,0,3:0:0:0:
315,39,85242,6,0,P|294:145|290:253,1,216.000008239746,8|0,0:0|0:0,0:0:0:0:
305,330,85587,5,0,3:0:0:0:
380,153,85759,1,0,0:0:0:0:
217,259,85932,2,0,P|158:265|99:257,1,120,8|0,0:0|0:0,0:0:0:0:
35,129,86276,1,0,0:0:0:0:
159,300,86449,1,0,3:0:0:0:
203,39,86621,2,0,P|259:22|316:40,1,120,8|0,0:0|0:0,0:0:0:0:
457,176,86966,5,0,3:0:0:0:
512,0,87138,1,0,0:0:0:0:
398,231,87311,1,8,0:0:0:0:
203,39,87483,2,0,P|169:146|260:213,1,240,0|0,3:0|3:0,0:0:0:0:
476,255,88001,5,8,0:0:0:0:
262,114,88173,1,0,3:0:0:0:
175,327,88345,6,0,P|168:266|176:207,1,120,4|0,3:1|0:0,0:0:0:0:
363,52,88690,2,0,P|316:89|262:114,1,120,8|0,0:0|0:0,0:0:0:0:
82,122,89035,1,0,0:0:0:0:
300,237,89207,1,0,3:0:0:0:
155,26,89380,2,0,L|15:8,1,120,8|0,0:0|0:0,0:0:0:0:
187,249,89725,6,0,P|245:260|300:237,1,120,0|0,3:0|0:0,0:0:0:0:
418,158,90070,1,8,0:0:0:0:
511,299,90242,1,0,0:0:0:0:
327,146,90414,1,0,0:0:0:0:
512,65,90587,1,0,3:0:0:0:
299,237,90759,6,0,P|234:159|275:65,1,216.000008239746,8|0,0:0|0:0,0:0:0:0:
341,23,91104,5,0,3:0:0:0:
140,81,91276,1,0,0:0:0:0:
327,146,91449,2,0,P|385:153|445:146,1,120,8|0,0:0|0:0,0:0:0:0:
180,251,91794,1,0,0:0:0:0:
275,64,91966,1,0,3:0:0:0:
388,291,92138,2,0,P|334:315|275:306,1,120,8|0,0:0|0:0,0:0:0:0:
61,250,92483,6,0,P|120:243|180:251,1,120,0|0,3:0|0:0,0:0:0:0:
329,351,92828,1,8,0:0:0:0:
117,322,93001,1,0,0:0:0:0:
306,141,93173,1,0,0:0:0:0:
223,337,93345,1,0,3:0:0:0:
82,31,93518,6,0,L|110:266,1,216.000008239746,8|0,0:0|0:0,0:0:0:0:
117,322,93863,5,0,3:0:0:0:
15,147,94035,1,0,0:0:0:0:
252,215,94207,2,0,P|308:231|365:213,1,120,8|0,0:0|0:0,0:0:0:0:
493,86,94552,1,0,0:0:0:0:
441,278,94725,1,0,3:0:0:0:
252,96,94897,2,0,P|244:155|252:215,1,120,8|0,0:0|0:0,0:0:0:0:
122,10,95242,6,0,P|129:69|122:128,1,120,0|0,3:0|0:0,0:0:0:0:
53,280,95587,1,8,0:0:0:0:
0,101,95759,1,0,0:0:0:0:
218,248,95932,1,0,0:0:0:0:
27,191,96104,1,0,3:0:0:0:
321,54,96276,6,0,P|362:147|295:226,1,216.000008239746,8|0,0:0|0:0,0:0:0:0:
218,248,96621,5,0,3:0:0:0:
377,347,96794,1,0,0:0:0:0:
238,170,96966,2,0,P|230:110|237:51,1,120,8|0,0:0|0:0,0:0:0:0:
398,0,97311,1,0,0:0:0:0:
324,174,97483,1,0,3:0:0:0:
130,5,97656,2,0,P|137:64|130:123,1,120,8|0,0:0|0:0,0:0:0:0:
70,264,98001,5,0,3:0:0:0:
27,59,98173,1,0,0:0:0:0:
147,289,98345,1,8,0:0:0:0:
285,98,98518,2,0,P|397:102|429:211,1,240,0|0,0:0|3:0,0:0:0:0:
393,384,99035,5,8,0:0:0:0:
511,144,99207,1,0,3:0:0:0:
265,289,99380,6,0,P|206:296|147:289,1,120,4|0,3:1|0:0,0:0:0:0:
0,96,99725,2,0,P|35:143|58:199,1,120,8|0,0:0|0:0,0:0:0:0:
0,346,100070,1,0,0:0:0:0:
67,126,100242,1,0,3:0:0:0:
265,289,100414,2,0,P|321:305|378:287,1,120,8|0,0:0|0:0,0:0:0:0:
498,81,100759,6,0,L|512:200,1,120,0|0,3:0|0:0,0:0:0:0:
312,50,101104,1,8,0:0:0:0:
445,243,101276,1,0,0:0:0:0:
498,81,101449,1,0,0:0:0:0:
271,191,101621,1,0,3:0:0:0:
474,372,101794,6,0,P|466:264|475:156,1,216.000008239746,8|0,0:0|0:0,0:0:0:0:
498,81,102138,5,0,3:0:0:0:
353,266,102311,1,0,0:0:0:0:
252,55,102483,2,0,P|311:47|370:55,1,120,8|0,0:0|0:0,0:0:0:0:
202,218,102828,1,0,0:0:0:0:
136,38,103001,1,0,3:0:0:0:
367,146,103173,2,0,L|353:266,1,120,8|0,0:0|0:0,0:0:0:0:
150,157,103518,6,0,L|136:38,1,120,0|0,3:0|0:0,0:0:0:0:
88,275,103863,1,8,0:0:0:0:
229,143,104035,1,0,0:0:0:0:
26,88,104207,1,0,0:0:0:0:
197,255,104380,1,0,3:0:0:0:
349,3,104552,6,0,P|411:82|513:60,1,216.000008239746,8|0,0:0|0:0,0:0:0:0:
435,121,104897,6,0,L|426:188,3,60,0|0|0|0,3:0|0:0|0:0|0:0,0:0:0:0:
317,319,105242,2,0,L|310:260,3,60,8|0|0|0,0:0|0:0|0:0|0:0,0:0:0:0:
299,117,105587,6,0,L|239:109,3,60,0|0|0|0,0:0|0:0|3:0|0:0,0:0:0:0:
437,321,105932,2,0,L|496:313,3,60,8|0|0|0,0:0|0:0|0:0|0:0,0:0:0:0:
310,260,106276,5,0,3:0:0:0:
282,250,106363,1,0,0:0:0:0:
254,246,106449,1,0,0:0:0:0:
225,248,106535,1,0,0:0:0:0:
197,255,106621,1,8,0:0:0:0:
171,267,106707,1,0,0:0:0:0:
148,284,106794,1,0,0:0:0:0:
129,306,106880,1,0,0:0:0:0:
114,330,106966,5,0,0:0:0:0:
129,284,107052,1,0,0:0:0:0:
136,237,107138,1,0,3:0:0:0:
134,189,107225,1,0,0:0:0:0:
122,142,107311,1,8,0:0:0:0:
102,99,107397,1,0,0:0:0:0:
74,60,107483,1,0,0:0:0:0:
40,27,107570,1,0,0:0:0:0:
0,1,107656,5,0,3:0:0:0:
256,192,107742,12,0,108863,0:0:0:0:
406,276,109035,5,0,3:0:0:0:
321,62,109207,1,0,3:0:0:0:
186,326,109380,5,0,3:0:0:0:
253,114,109552,1,0,3:0:0:0:
107,245,109725,5,0,3:0:0:0:
53,52,109897,1,0,3:0:0:0:
279,340,110070,5,0,3:0:0:0:
333,147,110242,1,0,3:0:0:0:
392,384,110414,6,0,L|512:370,1,120,4|0,3:1|0:0,0:0:0:0:
333,147,110759,2,0,L|213:161,1,120,8|0,0:0|0:0,0:0:0:0:
107,245,111104,1,0,0:0:0:0:
272,45,111276,2,0,P|335:35|401:46,1,120,0|8,3:0|0:0,0:0:0:0:
225,245,111621,6,0,P|166:253|107:245,1,120,0|0,0:0|3:0,0:0:0:0:
0,117,111966,1,0,0:0:0:0:
167,288,112138,1,8,0:0:0:0:
144,106,112311,1,0,0:0:0:0:
109,331,112483,1,0,0:0:0:0:
0,117,112656,1,0,3:0:0:0:
225,245,112828,6,0,P|331:239|437:217,1,216.000008239746,8|0,0:0|0:0,0:0:0:0:
509,184,113173,5,0,3:0:0:0:
408,384,113345,1,0,0:0:0:0:
326,140,113518,2,0,P|385:132|445:140,1,120,8|0,0:0|0:0,0:0:0:0:
512,300,113863,1,0,0:0:0:0:
391,31,114035,2,0,P|331:38|272:30,1,120,0|8,3:0|0:0,0:0:0:0:
142,249,114380,6,0,P|201:241|261:249,1,120,0|0,0:0|3:0,0:0:0:0:
66,336,114725,1,0,0:0:0:0:
162,142,114897,1,8,0:0:0:0:
179,358,115070,1,0,0:0:0:0:
0,129,115242,1,0,0:0:0:0:
66,336,115414,1,0,3:0:0:0:
255,70,115587,6,0,P|356:59|410:147,1,216.000008239746,8|0,0:0|0:0,0:0:0:0:
406,226,115932,5,0,3:0:0:0:
512,47,116104,1,0,0:0:0:0:
339,183,116276,2,0,P|282:201|225:185,1,120,8|0,0:0|0:0,0:0:0:0:
85,99,116621,1,0,0:0:0:0:
211,304,116794,2,0,L|225:184,1,120,0|8,3:0|0:0,0:0:0:0:
2,48,117138,6,0,L|16:167,1,120,0|0,0:0|3:0,0:0:0:0:
0,290,117483,1,0,0:0:0:0:
85,99,117656,1,8,0:0:0:0:
211,304,117828,1,0,0:0:0:0:
16,167,118001,1,0,0:0:0:0:
189,57,118173,1,0,3:0:0:0:
41,381,118345,6,0,L|13:146,1,216.000008239746,8|0,0:0|0:0,0:0:0:0:
6,90,118690,5,0,3:0:0:0:
110,264,118863,1,0,0:0:0:0:
189,57,119035,2,0,P|245:38|302:54,1,120,8|0,0:0|0:0,0:0:0:0:
453,160,119380,1,0,0:0:0:0:
247,253,119552,2,0,P|239:194|247:135,1,120,0|8,3:0|0:0,0:0:0:0:
481,266,119897,6,0,P|488:325|480:384,1,120,0|0,0:0|3:0,0:0:0:0:
247,253,120242,1,0,0:0:0:0:
453,160,120414,1,8,0:0:0:0:
377,324,120587,1,0,0:0:0:0:
247,134,120759,1,0,0:0:0:0:
481,266,120932,1,0,3:0:0:0:
467,40,121104,5,8,0:0:0:0:
377,324,121276,1,0,3:0:0:0:
204,75,121449,6,0,P|196:134|204:194,1,120,4|0,3:1|0:0,0:0:0:0:
45,0,121794,2,0,P|53:59|45:118,1,120,8|0,0:0|0:0,0:0:0:0:
0,246,122138,1,0,0:0:0:0:
204,75,122311,2,0,P|263:66|322:74,1,120,0|8,3:0|0:0,0:0:0:0:
452,278,122656,6,0,P|392:286|333:278,1,120,0|0,0:0|3:0,0:0:0:0:
260,147,123001,1,0,0:0:0:0:
481,195,123173,1,8,0:0:0:0:
333,278,123345,1,0,0:0:0:0:
471,69,123518,1,0,0:0:0:0:
452,278,123690,1,0,3:0:0:0:
204,75,123863,6,0,P|102:82|64:178,1,216.000008239746,8|0,0:0|0:0,0:0:0:0:
82,254,124207,5,0,3:0:0:0:
0,65,124380,1,0,0:0:0:0:
158,236,124552,2,0,P|166:295|158:354,1,120,8|0,0:0|0:0,0:0:0:0:
316,111,124897,1,0,0:0:0:0:
259,384,125070,2,0,P|250:324|258:265,1,120,0|8,3:0|0:0,0:0:0:0:
316,111,125414,6,0,L|435:125,1,120,0|0,0:0|3:0,0:0:0:0:
512,0,125759,1,0,0:0:0:0:
368,195,125932,1,8,0:0:0:0:
264,27,126104,1,0,0:0:0:0:
463,219,126276,1,0,0:0:0:0:
512,0,126449,1,0,3:0:0:0:
344,290,126621,6,0,P|329:188|231:157,1,216.000008239746,8|0,0:0|0:0,0:0:0:0:
155,178,126965,5,0,3:0:0:0:
256,192,127311,12,0,132483,3:0:0:0:
