osu file format v14

[General]
AudioFilename: audio.mp3
AudioLeadIn: 0
PreviewTime: 65499
Countdown: 0
SampleSet: Normal
StackLeniency: 0.6
Mode: 0
LetterboxInBreaks: 0
WidescreenStoryboard: 1

[Editor]
Bookmarks: 22138,33173,44207,55242,66276,77311,88345,99380,110414,121449,132483
DistanceSpacing: 1.2
BeatDivisor: 1
GridSize: 32
TimelineZoom: 1

[Metadata]
Title:Half Light feat. Tom Cane
TitleUnicode:Half Light feat. Tom Cane
Artist:Wilkinson
ArtistUnicode:Wilkinson
Creator:Slips
Version:Easy
Source:
Tags:english uk dnb drum and n & bass ram records lazers not included cut ver Reform Kujinn HootOwlStar HOS RyoKazuka Kergio
BeatmapID:1983547
BeatmapSetID:949914

[Difficulty]
HPDrainRate:2
CircleSize:2
OverallDifficulty:3
ApproachRate:4
SliderMultiplier:0.799999999999999
SliderTickRate:1

[Events]
//Background and Video events
0,0,"wooooo.jpg",0,0
//Break Periods
2,44407,53922
//Storyboard Layer 0 (Background)
//Storyboard Layer 1 (Fail)
//Storyboard Layer 2 (Pass)
//Storyboard Layer 3 (Foreground)
//Storyboard Layer 4 (Overlay)
//Storyboard Sound Samples

[TimingPoints]
70,344.827586206897,4,1,1,60,1,0
20759,-100,4,1,1,40,0,0
22138,-100,4,1,1,40,0,0
44207,-100,4,1,1,40,0,0
55242,-100,4,1,1,60,0,0
64897,-100,4,1,1,40,0,0
66276,-100,4,1,1,80,0,1
107656,-100,4,1,1,60,0,0
109035,-100,4,1,1,40,0,0
110414,-100,4,1,1,80,0,1
126966,-100,4,1,1,60,0,0

[Colours]
Combo1 : 255,255,62
Combo2 : 192,249,87

[HitObjects]
256,192,19380,12,0,20759,0:0:0:0:
445,79,22138,6,0,P|465:191|378:266,1,240,6|0,3:1|0:0,0:0:0:0:
284,252,23518,2,0,B|198:241|198:241|141:264|141:264|49:253,1,240,2|0,0:0|0:0,0:0:0:0:
3,169,24897,2,0,P|77:81|190:102,1,240,2|0,0:0|0:0,0:0:0:0:
244,181,26276,2,0,P|333:252|440:210,1,240,2|2,0:0|0:0,0:0:0:0:
492,128,27656,6,0,L|458:390,1,240,2|2,0:0|0:0,0:0:0:0:
371,331,29035,2,0,B|360:245|360:245|383:188|383:188|372:96,1,240,2|2,0:0|0:0,0:0:0:0:
299,34,30414,2,0,P|185:20|116:112,1,240,2|2,0:0|0:0,0:0:0:0:
123,208,31794,1,0,0:0:0:0:
123,208,33173,6,0,B|209:219|209:219|266:196|266:196|358:207,1,240,2|0,0:0|0:0,0:0:0:0:
422,276,34552,2,0,P|498:190|462:81,1,240,2|0,0:0|0:0,0:0:0:0:
379,32,35932,2,0,L|117:66,1,240,2|0,0:0|0:0,0:0:0:0:
80,137,37311,2,0,P|154:224|267:204,1,240,2|2,0:0|0:0,0:0:0:0:
346,150,38690,6,0,P|453:189|474:302,1,240,2|2,0:0|0:0,0:0:0:0:
397,361,40070,2,0,B|305:349|305:349|255:313|255:313|169:303,1,240,2|0,0:0|0:0,0:0:0:0:
80,339,41449,2,0,L|46:77,1,240,2|2,0:0|0:0,0:0:0:0:
120,37,42828,2,0,B|177:55|234:37|234:37|262:76|309:87|309:87|368:70|426:88,1,320,2|4,0:0|3:1,0:0:0:0:
398,336,55242,6,0,L|417:177,1,160,4|0,3:1|0:0,0:0:0:0:
360,100,56276,1,8,0:2:0:0:
280,154,56621,2,0,P|202:167|131:133,1,160,0|0,3:0|0:0,0:0:0:0:
74,55,57656,1,8,0:2:0:0:
34,143,58001,6,0,L|53:301,1,160,0|0,3:0|0:0,0:0:0:0:
125,365,59035,1,8,0:2:0:0:
203,309,59380,2,0,L|361:328,1,160,0|0,3:0|0:0,0:0:0:0:
456,343,60414,1,8,0:2:0:0:
423,252,60759,6,0,L|432:172,1,79.9999999999999,0|0,3:0|3:0,0:0:0:0:
509,114,61449,2,0,L|499:34,1,79.9999999999999,0|0,3:0|3:0,0:0:0:0:
408,2,62138,2,0,L|328:11,1,79.9999999999999,0|0,3:0|3:0,0:0:0:0:
251,69,62828,2,0,L|171:59,1,79.9999999999999,0|0,3:0|3:0,0:0:0:0:
256,192,63518,12,0,64897,3:0:0:0:
424,258,66276,6,0,L|265:277,1,160,4|0,3:1|0:0,0:0:0:0:
182,326,67311,1,8,0:0:0:0:
104,269,67656,2,0,L|94:189,1,79.9999999999999,0|8,3:0|0:0,0:0:0:0:
147,109,68345,1,0,0:0:0:0:
103,23,68690,1,8,0:0:0:0:
199,25,69035,6,0,B|260:32|260:32|291:18|291:18|354:26,1,160,0|0,3:0|0:0,0:0:0:0:
450,38,70070,1,8,0:0:0:0:
433,132,70414,2,0,L|443:212,1,79.9999999999999,0|8,3:0|0:0,0:0:0:0:
485,297,71104,1,0,0:0:0:0:
410,357,71449,1,8,0:0:0:0:
329,304,71794,6,0,P|251:291|180:325,1,160,0|0,3:0|0:0,0:0:0:0:
95,370,72828,1,8,0:0:0:0:
47,286,73173,2,0,L|57:206,1,79.9999999999999,0|8,3:0|0:0,0:0:0:0:
117,131,73863,1,0,0:0:0:0:
73,45,74207,1,8,0:0:0:0:
168,49,74552,6,0,L|327:68,1,160,0|0,3:0|0:0,0:0:0:0:
417,36,75587,1,8,0:0:0:0:
482,105,75932,2,0,L|472:185,1,79.9999999999999,0|8,3:0|0:0,0:0:0:0:
387,229,76621,1,0,0:0:0:0:
413,321,76966,1,8,0:0:0:0:
319,300,77311,6,0,B|254:307|254:307|228:328|228:328|167:336,1,160,4|0,3:1|0:0,0:0:0:0:
79,298,78345,1,8,0:0:0:0:
108,206,78690,2,0,L|188:196,1,79.9999999999999,0|8,3:0|0:0,0:0:0:0:
278,166,79380,1,0,0:0:0:0:
367,201,79725,1,8,0:0:0:0:
454,161,80070,6,0,P|467:83|433:12,1,160,0|0,3:0|0:0,0:0:0:0:
337,5,81104,1,8,0:0:0:0:
259,61,81449,2,0,L|179:51,1,79.9999999999999,0|8,3:0|0:0,0:0:0:0:
85,29,82138,1,0,0:0:0:0:
29,107,82483,1,8,0:0:0:0:
123,124,82828,6,0,P|156:195|143:272,1,160,0|0,3:0|0:0,0:0:0:0:
101,359,83863,1,8,0:0:0:0:
196,356,84207,2,0,L|276:346,1,79.9999999999999,0|8,3:0|0:0,0:0:0:0:
343,277,84897,1,0,0:0:0:0:
431,313,85242,1,8,0:0:0:0:
506,254,85587,6,0,B|499:189|499:189|478:163|478:163|470:102,1,160,0|0,3:0|0:0,0:0:0:0:
506,13,86621,1,8,0:0:0:0:
411,28,86966,2,0,L|331:38,1,79.9999999999999,0|8,3:0|0:0,0:0:0:0:
253,94,87656,1,0,0:0:0:0:
167,50,88001,1,8,0:0:0:0:
77,83,88345,6,0,P|43:154|56:231,1,160,4|0,3:1|0:0,0:0:0:0:
122,301,89380,1,8,0:0:0:0:
213,272,89725,2,0,L|223:192,1,79.9999999999999,0|8,3:0|0:0,0:0:0:0:
261,104,90414,1,0,0:0:0:0:
218,18,90759,1,8,0:0:0:0:
314,19,91104,6,0,L|473:38,1,160,0|0,3:0|0:0,0:0:0:0:
504,128,92138,1,8,0:0:0:0:
425,182,92483,2,0,L|435:262,1,79.9999999999999,0|8,3:0|0:0,0:0:0:0:
485,343,93173,1,0,0:0:0:0:
389,348,93518,1,8,0:0:0:0:
309,294,93863,6,0,P|231:280|160:314,1,160,0|0,3:0|0:0,0:0:0:0:
74,358,94897,1,8,0:0:0:0:
80,262,95242,2,0,L|90:182,1,79.9999999999999,0|8,3:0|0:0,0:0:0:0:
53,93,95932,1,0,0:0:0:0:
136,46,96276,1,8,0:0:0:0:
219,94,96621,6,0,B|280:86|280:86|306:65|306:65|371:58,1,160,0|0,3:0|0:0,0:0:0:0:
461,26,97656,1,8,0:0:0:0:
444,120,98001,2,0,L|454:200,1,79.9999999999999,0|8,3:0|0:0,0:0:0:0:
475,293,98690,1,0,0:0:0:0:
409,363,99035,1,8,0:0:0:0:
321,322,99380,6,0,L|340:163,1,160,4|0,3:1|0:0,0:0:0:0:
295,77,100414,1,8,0:0:0:0:
215,23,100759,2,0,L|135:33,1,79.9999999999999,0|8,3:0|0:0,0:0:0:0:
41,55,101449,1,0,0:0:0:0:
23,149,101794,1,8,0:0:0:0:
107,193,102138,6,0,B|113:254|113:254|99:284|99:284|108:349,1,160,0|0,3:0|0:0,0:0:0:0:
202,369,103173,1,8,0:0:0:0:
272,303,103518,2,0,L|352:313,1,79.9999999999999,0|8,3:0|0:0,0:0:0:0:
439,350,104207,1,0,0:0:0:0:
490,268,104552,1,8,0:0:0:0:
459,176,104897,6,0,P|381:162|310:196,1,160,0|0,3:0|0:0,0:0:0:0:
215,211,105932,1,8,0:0:0:0:
141,150,106276,2,0,L|61:140,1,79.9999999999999,0|8,3:0|0:0,0:0:0:0:
10,221,106966,1,0,0:0:0:0:
35,313,107311,1,8,0:0:0:0:
256,192,107656,12,0,109035,3:0:0:0:
88,126,110414,6,0,L|247:107,1,160,4|0,3:1|0:0,0:0:0:0:
330,58,111449,1,8,0:0:0:0:
408,115,111794,2,0,L|418:195,1,79.9999999999999,0|8,3:0|0:0,0:0:0:0:
365,275,112483,1,0,0:0:0:0:
409,361,112828,1,8,0:0:0:0:
313,359,113173,6,0,B|252:352|252:352|221:366|221:366|158:358,1,160,0|0,3:0|0:0,0:0:0:0:
62,346,114207,1,8,0:0:0:0:
79,252,114552,2,0,L|69:172,1,79.9999999999999,0|8,3:0|0:0,0:0:0:0:
27,87,115242,1,0,0:0:0:0:
102,27,115587,1,8,0:0:0:0:
183,80,115932,6,0,P|261:93|332:59,1,160,0|0,3:0|0:0,0:0:0:0:
417,14,116966,1,8,0:0:0:0:
465,98,117311,2,0,L|455:178,1,79.9999999999999,0|8,3:0|0:0,0:0:0:0:
395,253,118001,1,0,0:0:0:0:
439,339,118345,1,8,0:0:0:0:
344,335,118690,6,0,L|185:316,1,160,0|0,3:0|0:0,0:0:0:0:
95,348,119725,1,8,0:0:0:0:
30,279,120070,2,0,L|40:199,1,79.9999999999999,0|8,3:0|0:0,0:0:0:0:
125,155,120759,1,0,0:0:0:0:
99,63,121104,1,8,0:0:0:0:
193,84,121449,6,0,B|258:77|258:77|284:56|284:56|345:48,1,160,4|0,3:1|0:0,0:0:0:0:
433,86,122483,1,8,0:0:0:0:
404,178,122828,2,0,L|324:188,1,79.9999999999999,0|8,3:0|0:0,0:0:0:0:
234,218,123518,1,0,0:0:0:0:
145,183,123863,1,8,0:0:0:0:
49,188,124207,6,0,P|36:266|70:337,1,160,0|0,3:0|0:0,0:0:0:0:
160,368,125242,1,8,0:0:0:0:
237,311,125587,2,0,L|317:321,1,79.9999999999999,0|8,3:0|0:0,0:0:0:0:
409,345,126276,1,0,0:0:0:0:
478,278,126621,1,8,0:0:0:0:
256,192,126966,12,0,132483,3:0:0:0:
