osu file format v14

[General]
AudioFilename: audio.mp3
AudioLeadIn: 0
PreviewTime: 65499
Countdown: 0
SampleSet: Normal
StackLeniency: 0.6
Mode: 0
LetterboxInBreaks: 0
WidescreenStoryboard: 1

[Editor]
Bookmarks: 22138,33173,44207,55242,66276,77311,88345,99380,110414,121449,132483
DistanceSpacing: 1
BeatDivisor: 4
GridSize: 4
TimelineZoom: 1

[Metadata]
Title:Half Light feat. Tom Cane
TitleUnicode:Half Light feat. Tom Cane
Artist:Wilkinson
ArtistUnicode:Wilkinson
Creator:Slips
Version:Collab Normal
Source:
Tags:english uk dnb drum and n & bass ram records lazers not included cut ver Reform Kujinn HootOwlStar HOS RyoKazuka Kergio
BeatmapID:2020466
BeatmapSetID:949914

[Difficulty]
HPDrainRate:5
CircleSize:3.5
OverallDifficulty:5
ApproachRate:6
SliderMultiplier:1.2
SliderTickRate:1

[Events]
//Background and Video events
0,0,"wooooo.jpg",0,0
//Break Periods
//Storyboard Layer 0 (Background)
//Storyboard Layer 1 (Fail)
//Storyboard Layer 2 (Pass)
//Storyboard Layer 3 (Foreground)
//Storyboard Layer 4 (Overlay)
//Storyboard Sound Samples

[TimingPoints]
70,344.827586206897,4,1,1,60,1,0
20759,-100,4,1,1,40,0,0
21449,-133.333333333333,4,1,1,40,0,0
22138,-133.333333333333,4,1,1,40,0,0
44207,-117.647058823529,4,1,1,60,0,0
55242,-117.647058823529,4,1,1,60,0,0
64897,-117.647058823529,4,1,1,40,0,0
66276,-100,4,1,1,80,0,1
107656,-100,4,1,1,60,0,0
109035,-100,4,1,1,40,0,0
110414,-100,4,1,1,80,0,1
126966,-100,4,1,1,60,0,0

[Colours]
Combo1 : 255,255,62
Combo2 : 192,249,87

[HitObjects]
28,88,21449,6,0,L|21:37,2,45.0000017166138,0|0|0,0:0|0:0|0:0,0:0:0:0:
0,192,22138,2,0,B|52:196|88:172|88:172|140:208|140:208|188:168|252:180,1,270.000010299683,6|0,3:1|0:0,0:0:0:0:
212,280,23518,2,0,L|225:381,1,90.0000034332277,0|0,0:0|0:0,0:0:0:0:
332,380,24207,2,0,L|314:246,1,135.000005149841,2|2,0:0|0:0,0:0:0:0:
326,222,24897,2,0,B|390:263|446:243|511:187|494:82|417:55|367:45|305:104|305:104|251:158|191:156|135:131|107:75,1,630.000024032594,0|2,0:0|0:0,0:0:0:0:
16,136,27656,6,0,L|32:240,1,90.0000034332277,0|2,0:0|0:0,0:0:0:0:
0,328,28345,2,0,P|80:328|128:360,1,135.000005149841,0|2,0:0|0:0,0:0:0:0:
140,380,29035,2,0,L|156:276,1,90.0000034332277,0|2,0:0|0:0,0:0:0:0:
124,188,29724,2,0,P|204:188|252:156,1,135.000005149841,0|2,0:0|0:0,0:0:0:0:
251,132,30414,2,0,B|310:250|310:250|396:234|396:234|309:61|309:61|393:42|393:42|457:164,1,630.000024032594,0|0,0:0|0:0,0:0:0:0:
512,252,33173,6,0,B|460:288|464:384|464:384|424:332|352:336,1,270.000010299683,2|0,0:0|0:0,0:0:0:0:
260,384,34552,2,0,L|76:372,1,180.000006866455,0|2,0:0|0:0,0:0:0:0:
56,384,35414,2,0,P|72:324|76:288,1,90.0000034332277,2|2,0:0|0:0,0:0:0:0:
78,269,35932,2,0,B|0:158|0:158|80:50|80:50|209:94|209:94|207:229|207:229|244:258|294:273,1,630.000024032594,0|2,0:0|0:0,0:0:0:0:
272,376,38690,6,0,P|315:366|357:350,1,90.0000034332277,0|2,0:0|0:0,0:0:0:0:
464,380,39380,2,0,L|440:244,1,135.000005149841,0|2,0:0|0:0,0:0:0:0:
456,224,40070,1,0,0:0:0:0:
504,128,40414,2,0,B|412:96|412:160|320:128,1,180.000006866455,2|0,0:0|0:0,0:0:0:0:
270,39,41449,2,0,B|220:63|213:145|213:145|201:254|74:237|76:157|92:88|171:89|213:145|213:145|261:204|258:272|220:325,1,630.000024032594,0|2,0:0|0:0,0:0:0:0:
124,348,44207,6,0,B|228:336|228:336|300:372|300:372|420:356,1,306.000005836487,4|0,3:1|0:0,0:0:0:0:
488,268,45587,2,0,B|545:203|481:131|481:131|381:147|389:231,1,306.000005836487,0|0,0:0|0:0,0:0:0:0:
280,252,46966,2,0,P|288:360|156:300,1,306.000005836487,0|0,0:0|0:0,0:0:0:0:
184,200,48345,2,0,L|80:216,1,102.000001945496,0|0,0:0|0:0,0:0:0:0:
0,140,49035,1,2,0:0:0:0:
20,120,49207,2,0,L|4:19,1,102.000001945496,2|2,0:0|0:0,0:0:0:0:
30,31,49725,6,0,B|112:66|178:32|178:32|242:-4|325:25,1,306.000005836487
283,130,51104,2,0,B|354:163|423:101|423:101|389:184|446:248,1,306.000005836487,0|2,0:0|0:0,0:0:0:0:
465,354,52483,2,0,B|370:315|370:315|152:366,1,306.000005836487,2|0,0:0|0:0,0:0:0:0:
69,315,53863,1,0,0:0:0:0:
160,250,54207,2,0,B|182:177|182:177|140:50,1,204.000003890991,2|2,0:0|0:0,0:0:0:0:
244,8,55242,5,4,3:1:0:0:
276,116,55587,2,0,B|320:120|352:96|352:96|408:148|480:128,1,204.000003890991,8|8,0:2|0:2,0:0:0:0:
508,236,56621,1,0,3:0:0:0:
408,284,56966,2,0,P|420:328|428:392,2,102.000001945496,8|0|8,0:2|0:0|0:2,0:0:0:0:
416,172,58001,5,0,3:0:0:0:
316,220,58345,2,0,B|216:176|216:264|116:220,1,204.000003890991,8|8,0:2|0:2,0:0:0:0:
16,180,59380,2,0,P|28:136|36:72,1,102.000001945496,0|8,3:0|0:2,0:0:0:0:
124,8,60070,1,0,0:0:0:0:
148,20,60242,2,0,P|154:70|167:119,1,102.000001945496,0|0,3:0|0:0,0:0:0:0:
189,138,60759,6,0,P|232:115|303:123,1,102.000001945496,0|0,3:0|3:0,0:0:0:0:
368,41,61449,2,0,P|412:64|463:63,1,102.000001945496,0|0,3:0|3:0,0:0:0:0:
418,166,62138,2,0,P|375:193|351:237,1,102.000001945496,0|0,3:0|3:0,0:0:0:0:
239,222,62828,2,0,P|241:272|267:315,1,102.000001945496,0|0,3:0|3:0,0:0:0:0:
375,348,63518,5,0,3:0:0:0:
483,381,63863,1,0,3:0:0:0:
458,271,64207,1,0,3:0:0:0:
351,237,64552,1,0,3:0:0:0:
434,160,64897,2,0,L|426:106,3,51.0000009727478,0|0|0|0,3:0|3:0|3:0|3:0,0:0:0:0:
402,96,65587,2,0,L|410:42,3,51.0000009727478,0|0|0|0,3:0|3:0|3:0|3:0,0:0:0:0:
392,24,66276,5,4,3:1:0:0:
276,52,66621,2,0,P|181:69|132:8,1,180,8|0,0:0|3:0,0:0:0:0:
104,20,67311,2,0,B|120:84|120:84|92:136,1,120,8|0,0:0|3:0,0:0:0:0:
16,224,68001,2,0,L|196:240,1,180,8|0,0:0|3:0,0:0:0:0:
216,220,68690,2,0,P|196:284|196:336,1,120,8|0,0:0|3:0,0:0:0:0:
308,380,69380,6,0,P|376:320|448:352,1,180,8|0,0:0|3:0,0:0:0:0:
460,324,70070,2,0,L|440:204,1,120,8|0,0:0|3:0,0:0:0:0:
508,104,70759,2,0,B|440:96|440:96|408:116|408:116|332:108,1,180,8|0,0:0|3:0,0:0:0:0:
312,128,71449,1,8,0:0:0:0:
256,20,71794,6,0,L|181:28,1,60,0|0,3:0|0:0,0:0:0:0:
170,41,72138,2,0,P|147:71|9:71,1,180,8|0,0:0|3:0,0:0:0:0:
3,50,72828,1,8,0:0:0:0:
15,169,73173,2,0,P|34:229|44:293,1,120,0|8,3:0|0:0,0:0:0:0:
31,313,73690,2,0,P|69:285|157:275,1,120,0|0,0:0|3:0,0:0:0:0:
166,285,74207,1,8,0:0:0:0:
273,337,74552,6,0,P|326:351|345:351,1,60,0|0,3:0|0:0,0:0:0:0:
358,338,74897,2,0,L|336:157,1,180,8|0,0:0|3:0,0:0:0:0:
354,135,75587,1,8,0:0:0:0:
419,34,75932,2,0,B|364:12|364:12|278:27,1,120,0|8,3:0|0:0,0:0:0:0:
284,45,76449,2,0,B|229:67|229:67|143:52,1,120,0|0,0:0|3:0,0:0:0:0:
140,50,76966,1,8,0:0:0:0:
111,44,77138,1,0,3:0:0:0:
82,38,77311,5,4,3:1:0:0:
8,132,77656,2,0,L|24:316,1,180,8|0,0:0|3:0,0:0:0:0:
0,332,78345,2,0,P|64:304|120:304,1,120,8|0,0:0|3:0,0:0:0:0:
204,380,79035,2,0,L|220:196,1,180,8|0,0:0|3:0,0:0:0:0:
196,180,79725,2,0,P|260:208|316:208,1,120,8|0,0:0|3:0,0:0:0:0:
324,88,80414,6,0,P|368:32|472:68,1,180,8|0,0:0|3:0,0:0:0:0:
492,48,81104,2,0,P|476:100|468:164,1,120,8|0,0:0|3:0,0:0:0:0:
352,196,81794,2,0,P|380:296|380:372,1,180,8|0,0:0|3:0,0:0:0:0:
352,384,82483,1,8,0:0:0:0:
234,357,82828,6,0,L|165:359,1,60,0|0,3:0|0:0,0:0:0:0:
146,371,83173,2,0,P|147:281|174:195,1,180,8|0,0:0|3:0,0:0:0:0:
197,176,83863,1,8,0:0:0:0:
119,84,84207,2,0,P|175:88|239:45,1,120,0|8,3:0|0:0,0:0:0:0:
246,32,84725,2,0,L|380:27,1,120,0|0,0:0|3:0,0:0:0:0:
392,43,85242,1,8,0:0:0:0:
379,162,85587,6,0,L|303:165,1,60,0|0,3:0|0:0,0:0:0:0:
294,148,85932,2,0,L|317:334,1,180,8|0,0:0|3:0,0:0:0:0:
296,349,86621,1,8,0:0:0:0:
185,301,86966,2,0,P|143:281|61:290,1,120,0|8,3:0|0:0,0:0:0:0:
48,305,87483,2,0,P|69:237|69:166,1,120,0|0,3:0|3:0,0:0:0:0:
63,160,88001,1,8,0:0:0:0:
55,132,88173,1,0,3:0:0:0:
47,104,88345,5,4,3:1:0:0:
144,36,88690,2,0,B|236:8|236:64|328:36,1,180,8|0,0:0|3:0,0:0:0:0:
340,16,89380,2,0,L|328:136,1,120,8|0,0:0|3:0,0:0:0:0:
444,108,90070,2,0,P|488:156|488:280,1,180,8|0,0:0|3:0,0:0:0:0:
512,292,90759,2,0,L|388:276,1,120,8|0,0:0|3:0,0:0:0:0:
288,216,91449,6,0,B|236:256|236:256|260:372,1,180,8|0,0:0|3:0,0:0:0:0:
232,384,92138,2,0,P|184:360|116:352,1,120,8|0,0:0|3:0,0:0:0:0:
116,232,92828,2,0,P|62:257|2:264,1,120,8|0,0:0|0:0,0:0:0:0:
20,240,93345,2,0,L|4:120,1,120,0|0,3:0|0:0,0:0:0:0:
12,92,93863,5,0,3:0:0:0:
114,30,94207,2,0,B|185:41|185:41|217:69|217:69|282:79,1,180,8|0,0:0|3:0,0:0:0:0:
311,71,94897,1,8,0:0:0:0:
409,2,95242,2,0,P|428:44|421:120,1,120,0|8,3:0|0:0,0:0:0:0:
404,140,95759,2,0,P|385:182|392:258,1,120,0|0,0:0|3:0,0:0:0:0:
410,277,96276,1,8,0:0:0:0:
332,368,96621,6,0,L|265:357,1,60,0|0,3:0|0:0,0:0:0:0:
247,343,96966,2,0,B|209:297|209:297|76:314,1,180,8|0,0:0|3:0,0:0:0:0:
65,330,97656,1,8,0:0:0:0:
86,211,98001,2,0,B|104:184|104:184|130:146|114:99,1,120,0|8,3:0|0:0,0:0:0:0:
138,81,98518,2,0,B|173:115|218:108|218:108|250:104,1,120,0|0,0:0|3:0,0:0:0:0:
279,97,99035,1,8,0:0:0:0:
309,90,99207,1,0,3:0:0:0:
339,83,99380,5,4,3:1:0:0:
432,8,99725,2,0,L|456:192,1,180,8|0,0:0|3:0,0:0:0:0:
480,204,100414,2,0,B|416:192|416:192|380:236,1,120,8|0,0:0|3:0,0:0:0:0:
324,128,101104,2,0,B|284:176|284:176|148:152,1,180,8|0,0:0|3:0,0:0:0:0:
156,128,101794,2,0,L|36:144,1,120,8|0,0:0|3:0,0:0:0:0:
0,260,102483,6,0,B|44:272|80:244|80:244|92:292|140:312,1,180,8|0,0:0|3:0,0:0:0:0:
128,340,103173,2,0,P|184:312|248:324,1,120,8|0,0:0|3:0,0:0:0:0:
300,216,103863,1,8,0:0:0:0:
364,316,104207,2,0,L|352:380,2,60,0|0|8,0:0|3:0|0:0,0:0:0:0:
462,247,104897,6,0,L|445:182,1,60,0|0,3:0|0:0,0:0:0:0:
461,162,105242,2,0,P|431:185|279:167,1,180,8|0,0:0|3:0,0:0:0:0:
279,154,105932,1,8,0:0:0:0:
187,77,106276,2,0,L|54:90,1,120,0|8,3:0|0:0,0:0:0:0:
39,79,106794,2,0,P|75:131|84:206,1,120,0|0,0:0|3:0,0:0:0:0:
73,213,107311,1,8,0:0:0:0:
24,323,107656,5,0,3:0:0:0:
143,312,108001,1,0,0:0:0:0:
262,301,108345,1,0,0:0:0:0:
381,290,108690,1,0,0:0:0:0:
312,191,109035,2,0,L|321:127,3,60,0|0|0|0,3:0|3:0|3:0|3:0,0:0:0:0:
302,108,109725,2,0,L|291:40,3,60,0|0|0|0,3:0|3:0|3:0|3:0,0:0:0:0:
312,28,110414,5,4,3:1:0:0:
428,52,110759,2,0,B|420:112|420:112|448:164|448:164|436:236,1,180,8|0,0:0|3:0,0:0:0:0:
432,252,111449,2,0,L|504:268,2,60,8|0|0,0:0|0:0|3:0,0:0:0:0:
356,344,112138,2,0,B|308:308|308:308|184:328,1,180,8|0,0:0|3:0,0:0:0:0:
160,320,112828,2,0,L|172:388,2,60,8|0|0,0:0|0:0|3:0,0:0:0:0:
40,340,113518,6,0,B|44:284|44:284|72:244|72:244|56:208|56:160,1,180,8|0,0:0|3:0,0:0:0:0:
56,140,114207,2,0,P|28:152|-12:160,2,60,8|0|0,0:0|0:0|3:0,0:0:0:0:
16,28,114897,2,0,L|196:40,1,180,8|0,0:0|3:0,0:0:0:0:
216,16,115587,1,8,0:0:0:0:
313,86,115932,6,0,P|320:126|317:168,1,60,0|0,3:0|0:0,0:0:0:0:
304,171,116276,2,0,P|355:141|477:154,1,180,8|0,0:0|3:0,0:0:0:0:
493,172,116966,1,8,0:0:0:0:
500,291,117311,2,0,P|446:304|384:269,1,120,0|8,3:0|0:0,0:0:0:0:
361,282,117828,2,0,P|338:332|273:361,1,120,0|0,0:0|3:0,0:0:0:0:
254,354,118345,1,8,0:0:0:0:
154,286,118690,6,0,P|118:291|87:300,1,60,0|0,3:0|0:0,0:0:0:0:
71,315,119035,2,0,L|101:120,1,180,8|0,0:0|3:0,0:0:0:0:
79,114,119725,1,8,0:0:0:0:
170,36,120070,2,0,B|240:34|240:34|290:82,1,120,0|8,3:0|0:0,0:0:0:0:
298,89,120587,2,0,B|334:123|334:123|404:121,1,120,0|0,0:0|3:0,0:0:0:0:
434,121,121104,1,8,0:0:0:0:
464,121,121276,1,0,3:0:0:0:
494,121,121449,5,4,3:1:0:0:
512,240,121794,2,0,B|452:236|452:236|416:264|416:264|336:260,1,180,8|0,0:0|3:0,0:0:0:0:
324,284,122483,2,0,L|340:348,2,60,8|0|0,0:0|0:0|3:0,0:0:0:0:
240,372,123173,2,0,B|192:356|180:308|180:308|152:348|96:348,1,180,8|0,0:0|3:0,0:0:0:0:
80,332,123863,2,0,L|16:336,2,60,8|0|0,0:0|0:0|3:0,0:0:0:0:
124,220,124552,6,0,P|60:180|68:72,1,180,8|0,0:0|3:0,0:0:0:0:
72,56,125242,2,0,P|32:24|16:16,2,60,8|0|0,0:0|0:0|3:0,0:0:0:0:
180,108,125932,2,0,B|228:100|228:100|260:68|260:68|300:88|300:88|352:80,1,180,8|0,0:0|3:0,0:0:0:0:
356,56,126621,1,8,0:0:0:0:
452,128,126966,5,4,3:1:0:0:
256,192,127311,12,0,132483,3:0:0:0:
