osu file format v14

[General]
AudioFilename: audio.mp3
AudioLeadIn: 0
PreviewTime: 48684
Countdown: 0
SampleSet: Soft
StackLeniency: 0.3
Mode: 0
LetterboxInBreaks: 0
EpilepsyWarning: 1
WidescreenStoryboard: 1

[Editor]
Bookmarks: 10397,29597,48797,58397,77597,96797,115997,135197,142397
DistanceSpacing: 0.5
BeatDivisor: 4
GridSize: 8
TimelineZoom: 3.199999

[Metadata]
Title:Kilometry (Cut Ver.)
TitleUnicode:Километры (Cut Ver.)
Artist:Wildways
ArtistUnicode:Wildways
Creator:Maiev
Version:Betrayal
Source:
Tags:azinlen shirokumocha spy_ro yuuma2 kumocha daycore milr_ milr kilometer kilometers kilometres Jojajim russian rock r-rock anna Egor Erushin
BeatmapID:3045021
BeatmapSetID:1484853

[Difficulty]
HPDrainRate:6
CircleSize:4.2
OverallDifficulty:9
ApproachRate:9.5
SliderMultiplier:1.6
SliderTickRate:1

[Events]
//Background and Video events
0,0,"bg.jpg",0,0
//Break Periods
2,87397,93797
//Storyboard Layer 0 (Background)
//Storyboard Layer 1 (Fail)
//Storyboard Layer 2 (Pass)
//Storyboard Layer 3 (Foreground)
Sprite,Foreground,Centre,"sb\linev.png",247,349 R,0,132797,,0.4726243 C,0,132797,,204,238,255 F,2,132797,133597,1,0 S,2,132797,133597,1.2,1 P,0,132797,133597,A
Sprite,Foreground,Centre,"sb\linev.png",280,424 R,0,132947,,0.4817325 C,0,132947,,204,238,255 F,2,132947,133747,1,0 S,2,132947,133747,1.2,1 P,0,132947,133747,A
Sprite,Foreground,Centre,"sb\linev.png",352,394 R,0,133097,,0.4768023 C,0,133097,,204,238,255 F,2,133097,133897,1,0 S,2,133097,133897,1.2,1 P,0,133097,133897,A
Sprite,Foreground,Centre,"sb\linev.png",320,320 R,0,133247,,0.4558161 C,0,133247,,204,238,255 F,2,133247,134047,1,0 S,2,133247,134047,1.2,1 P,0,133247,134047,A
Sprite,Foreground,Centre,"sb\linev.png",526,252 R,0,133397,,0.4206033 C,0,133397,,204,238,255 F,2,133397,134197,1,0 S,2,133397,134197,1.2,1 P,0,133397,134197,A
Sprite,Foreground,Centre,"sb\linev.png",486,342 R,0,133547,,0.4558885 C,0,133547,,204,238,255 F,2,133547,134347,1,0 S,2,133547,134347,1.2,1 P,0,133547,134347,A
Sprite,Foreground,Centre,"sb\linev.png",400,306 R,0,133697,,0.4906027 C,0,133697,,204,238,255 F,2,133697,134497,1,0 S,2,133697,134497,1.2,1 P,0,133697,134497,A
Sprite,Foreground,Centre,"sb\linev.png",438,217 R,0,133847,,0.4442178 C,0,133847,,204,238,255 F,2,133847,134647,1,0 S,2,133847,134647,1.2,1 P,0,133847,134647,A
Sprite,Foreground,Centre,"sb\linev.png",330,129 C,0,133997,,204,238,255 R,0,133997,134147,0.497755 F,2,133997,134947,1,0 S,2,133997,134947,1.2,1 P,0,133997,134947,A
Sprite,Foreground,Centre,"sb\linev.png",342,208 R,0,134147,,0.4273705 C,0,134147,,204,238,255 F,2,134147,134947,1,0 S,2,134147,134947,1.2,1 P,0,134147,134947,A
Sprite,Foreground,Centre,"sb\linev.png",433,108 R,0,134297,,0.4291906 C,0,134297,,204,238,255 F,2,134297,135097,1,0 S,2,134297,135097,1.2,1 P,0,134297,135097,A
Sprite,Foreground,Centre,"sb\linev.png",249,257 R,0,134447,,0.4467315 C,0,134447,,204,238,255 F,2,134447,135247,1,0 S,2,134447,135247,1.2,1 P,0,134447,135247,A
Sprite,Foreground,Centre,"sb\linev.png",320,320 R,0,134597,,0.4632659 C,0,134597,,204,238,255 F,2,134597,135397,1,0 S,2,134597,135397,1.2,1 P,0,134597,135397,A
Sprite,Foreground,Centre,"sb\linev.png",277,389 R,0,134747,,0.4469512 C,0,134747,,204,238,255 F,2,134747,135547,1,0 S,2,134747,135547,1.2,1 P,0,134747,135547,A
Sprite,Foreground,Centre,"sb\linev.png",276,388 C,0,134897,,204,238,255 R,0,134897,135046,0.4982151 F,2,134897,135846,1,0 S,2,134897,135846,1.2,1 P,0,134897,135846,A
Sprite,Foreground,Centre,"sb\linev.png",540,270 R,0,123197,,0.4726243 C,0,123197,,202,237,255 F,2,123197,123997,1,0 S,2,123197,123997,1.2,1 P,0,123197,123997,A
Sprite,Foreground,Centre,"sb\linev.png",507,195 R,0,123347,,0.4817325 C,0,123347,,202,237,255 F,2,123347,124147,1,0 S,2,123347,124147,1.2,1 P,0,123347,124147,A
Sprite,Foreground,Centre,"sb\linev.png",435,225 R,0,123497,,0.4768023 C,0,123497,,202,237,255 F,2,123497,124297,1,0 S,2,123497,124297,1.2,1 P,0,123497,124297,A
Sprite,Foreground,Centre,"sb\linev.png",467,299 R,0,123647,,0.4558161 C,0,123647,,202,237,255 F,2,123647,124447,1,0 S,2,123647,124447,1.2,1 P,0,123647,124447,A
Sprite,Foreground,Centre,"sb\linev.png",261,189 R,0,123797,,0.4206033 C,0,123797,,202,237,255 F,2,123797,124597,1,0 S,2,123797,124597,1.2,1 P,0,123797,124597,A
Sprite,Foreground,Centre,"sb\linev.png",297,100 R,0,123947,,0.4558885 C,0,123947,,202,237,255 F,2,123947,124747,1,0 S,2,123947,124747,1.2,1 P,0,123947,124747,A
Sprite,Foreground,Centre,"sb\linev.png",381,133 R,0,124097,,0.4906027 C,0,124097,,202,237,255 F,2,124097,124897,1,0 S,2,124097,124897,1.2,1 P,0,124097,124897,A
Sprite,Foreground,Centre,"sb\linev.png",346,227 R,0,124247,,0.4442178 C,0,124247,,202,237,255 F,2,124247,125047,1,0 S,2,124247,125047,1.2,1 P,0,124247,125047,A
Sprite,Foreground,Centre,"sb\linev.png",464,404 C,0,124397,,202,237,255 R,0,124397,124547,0.497755 F,2,124397,125347,1,0 S,2,124397,125347,1.2,1 P,0,124397,125347,A
Sprite,Foreground,Centre,"sb\linev.png",542,386 R,0,124547,,0.4273705 C,0,124547,,202,237,255 F,2,124547,125347,1,0 S,2,124547,125347,1.2,1 P,0,124547,125347,A
Sprite,Foreground,Centre,"sb\linev.png",308,316 C,0,124697,,202,237,255 R,0,124697,124847,0.4291906 F,2,124697,125647,1,0 S,2,124697,125647,1.2,1 P,0,124697,125647,A
Sprite,Foreground,Centre,"sb\linev.png",229,299 R,0,124847,,0.4467315 C,0,124847,,202,237,255 F,2,124847,125647,1,0 S,2,124847,125647,1.2,1 P,0,124847,125647,A
Sprite,Foreground,Centre,"sb\linev.png",536,88 R,0,124997,,0.4632659 C,0,124997,,202,237,255 F,2,124997,125797,1,0 S,2,124997,125797,1.2,1 P,0,124997,125797,A
Sprite,Foreground,Centre,"sb\linev.png",467,299 R,0,125147,,0.4469512 C,0,125147,,202,237,255 F,2,125147,125947,1,0 S,2,125147,125947,1.2,1 P,0,125147,125947,A
Sprite,Foreground,Centre,"sb\linev.png",543,83 R,0,125297,,0.4982151 C,0,125297,,202,237,255 F,2,125297,126097,1,0 S,2,125297,126097,1.2,1 P,0,125297,126097,A
Sprite,Foreground,Centre,"sb\linev.png",461,307 R,0,125447,,0.4030367 C,0,125447,,202,237,255 F,2,125447,126247,1,0 S,2,125447,126247,1.2,1 P,0,125447,126247,A
Sprite,Foreground,CentreLeft,"sb\Beatmap.png",0,0 F,0,88397,88797,0,1 M,1,88397,91997,380,100,390,100 S,0,88397,91997,0.3 F,0,91597,91997,1,0
Sprite,Foreground,CentreLeft,"sb\Storyboard.png",0,0 F,0,90197,90597,0,1 M,1,90197,93797,0,320,10,320 S,0,90197,93797,0.3 F,0,93397,93797,1,0
Sprite,Foreground,CentreLeft,"sb\jojajim.png",0,0 F,0,90797,91197,0,1 M,1,90797,93797,0,360,10,360 S,0,90797,93797,0.6 F,0,93397,93797,1,0
Sprite,Foreground,CentreLeft,"sb\Maiev.png",0,0 F,0,88997,89397,0,1 M,1,88997,91997,380,142,390,142 S,0,88997,91997,0.6 F,0,91597,91997,1,0
//Storyboard Layer 4 (Overlay)
//Storyboard Sound Samples

[TimingPoints]
797,300,4,2,1,30,1,0
10397,-90.9090909090909,4,2,1,60,0,0
15197,-100,4,2,1,60,0,0
28397,-142.857142857143,4,2,1,60,0,0
29597,-125,4,2,1,45,0,0
37997,-111.111111111111,4,2,1,45,0,0
48797,-400,4,2,1,45,0,0
58322,-400,4,2,1,5,0,0
58397,-86.9565217391304,4,2,1,75,0,1
66797,-181.818181818182,4,2,1,75,0,1
67997,-125,4,2,1,50,0,0
76397,-166.666666666667,4,2,1,50,0,0
77597,-125,4,2,1,50,0,0
87197,-125,4,2,1,35,0,0
94397,-125,4,2,1,50,0,0
94547,-200,4,2,1,50,0,0
96797,-83.3333333333333,4,2,1,75,0,1
115997,-100,4,2,1,60,0,0
134897,-142.857142857143,4,2,1,60,0,0
135197,-125,4,2,1,50,0,0

[Colours]
Combo1 : 255,231,155
Combo2 : 255,179,179
Combo3 : 174,210,255
Combo4 : 255,184,149

[HitObjects]
453,53,10397,5,12,0:2:0:0:
377,154,10547,2,0,L|294:122,1,88.000002685547,0|0,3:2|0:2,0:2:0:0:
448,321,10847,2,0,P|481:293|490:251,1,88.000002685547,8|0,0:2|3:2,0:2:0:0:
478,152,11147,1,0,3:2:0:0:
340,289,11297,2,0,L|355:375,1,88.000002685547,8|0,0:2|3:2,0:2:0:0:
85,210,11597,5,0,3:2:0:0:
198,99,11747,1,8,0:2:0:0:
237,246,11897,1,0,3:2:0:0:
230,239,12047,1,0,3:2:0:0:
80,92,12197,5,8,0:2:0:0:
294,122,12347,1,0,3:2:0:0:
71,98,12497,1,8,0:2:0:0:
286,115,12647,1,0,3:2:0:0:
172,323,12797,6,0,B|69:291|107:333|0:299,1,176.000005371094,12|0,0:2|0:2,0:2:0:0:
237,246,13247,1,8,0:2:0:0:
329,277,13397,1,0,3:2:0:0:
414,305,13547,1,0,3:2:0:0:
258,329,13697,1,8,0:2:0:0:
386,158,13847,2,0,L|368:71,1,88.000002685547,0|0,3:2|3:2,0:2:0:0:
85,210,14147,5,8,0:2:0:0:
150,18,14297,1,0,3:2:0:0:
81,202,14447,1,0,3:2:0:0:
257,28,14597,5,8,0:2:0:0:
71,98,14747,1,0,3:2:0:0:
271,36,14897,1,8,0:2:0:0:
58,91,15047,1,0,3:2:0:0:
237,246,15197,6,0,B|351:224|351:224|325:259,2,160,4|0|8,3:2|3:2|0:2,0:2:0:0:
237,246,16097,5,0,3:2:0:0:
328,384,16247,1,8,0:2:0:0:
328,384,16547,5,0,3:2:0:0:
425,221,16697,1,0,3:2:0:0:
337,379,16847,1,0,3:2:0:0:
200,157,16997,1,8,0:2:0:0:
188,151,17147,5,0,3:2:0:0:
240,47,17297,1,0,3:2:0:0:
354,65,17447,1,0,3:2:0:0:
237,246,17597,6,0,B|123:224|123:224|148:259,1,160,4|0,3:2|3:2,0:2:0:0:
471,364,18197,2,0,L|484:285,1,80,8|0,0:2|0:2,0:2:0:0:
428,127,18497,1,0,3:2:0:0:
424,136,18647,1,0,3:2:0:0:
240,47,18797,6,0,P|278:35|317:25,1,80,12|0,0:2|3:2,0:2:0:0:
421,34,19097,1,0,3:2:0:0:
264,172,19247,2,0,P|226:160|187:150,1,80,12|0,0:2|3:2,0:2:0:0:
70,159,19547,1,0,3:2:0:0:
323,242,19697,2,0,P|347:210|352:171,1,80,12|0,0:2|3:2,0:2:0:0:
219,353,19997,6,0,B|307:333|280:357|377:334,1,160,12|0,0:2|0:2,0:2:0:0:
512,255,20447,2,0,P|506:294|482:325,1,80,8|0,0:2|3:2,0:2:0:0:
323,242,20747,1,0,3:2:0:0:
428,127,20897,2,0,L|505:146,1,80,8|0,0:2|3:2,0:2:0:0:
187,149,21197,5,0,3:2:0:0:
91,11,21347,1,8,0:2:0:0:
48,201,21497,1,0,3:2:0:0:
51,208,21647,1,0,3:2:0:0:
212,46,21797,5,8,0:2:0:0:
13,103,21947,1,0,3:2:0:0:
223,52,22097,1,8,0:2:0:0:
4,99,22247,1,0,3:2:0:0:
170,236,22397,5,12,0:2:0:0:
83,321,22547,2,0,L|5:301,1,80,0|0,3:2|0:2,0:2:0:0:
229,384,22847,1,8,0:2:0:0:
300,276,22997,1,0,3:2:0:0:
292,278,23147,1,0,3:2:0:0:
441,359,23297,1,8,0:2:0:0:
506,263,23447,1,0,3:2:0:0:
430,183,23597,1,0,3:2:0:0:
422,192,23747,5,8,0:2:0:0:
496,40,23897,1,0,3:2:0:0:
430,183,24047,1,0,3:2:0:0:
305,0,24197,2,0,L|230:28,1,80,8|0,0:2|3:2,0:2:0:0:
48,0,24497,1,8,0:2:0:0:
138,128,24647,1,8,0:2:0:0:
5,301,24797,6,0,B|105:309|54:322|162:329,2,160,4|0|8,3:2|3:2|0:2,0:2:0:0:
5,301,25697,5,0,3:2:0:0:
149,221,25847,1,8,0:2:0:0:
149,221,26147,5,0,3:2:0:0:
248,384,26297,1,0,3:2:0:0:
142,213,26447,1,0,3:2:0:0:
372,244,26597,1,8,0:2:0:0:
375,255,26747,5,0,3:2:0:0:
491,181,26897,1,0,3:2:0:0:
445,50,27047,1,0,3:2:0:0:
241,125,27197,6,0,P|258:203|270:282,2,160,4|0|8,3:2|3:2|0:2,0:2:0:0:
241,125,28097,5,0,3:2:0:0:
142,59,28247,1,0,3:2:0:0:
43,125,28397,2,0,B|55:182|61:238|61:238|68:214|82:189,1,167.999994873047,12|0,0:2|3:2,0:2:0:0:
82,189,29147,5,0,3:2:0:0:
158,231,29297,1,10,0:2:0:0:
163,315,29447,1,0,3:2:0:0:
96,371,29597,1,2,3:2:0:0:
375,255,30197,5,0,3:2:0:0:
104,90,30797,5,0,3:2:0:0:
82,189,30947,1,2,0:2:0:0:
82,189,31097,2,0,L|144:203,1,64,2|2,0:2|0:2,0:2:0:0:
240,282,31397,2,0,P|234:313|231:345,1,64,2|2,3:2|0:2,0:2:0:0:
301,384,31697,1,2,0:2:0:0:
497,185,31997,6,0,B|400:174|443:163|373:154,2,128,2|2|0,3:2|0:2|3:2,0:2:0:0:
152,205,33197,5,2,3:2:0:0:
219,155,33347,1,2,0:2:0:0:
219,155,33497,2,0,P|218:124|213:92,1,64,2|2,0:2|0:2,0:2:0:0:
298,213,33797,2,0,P|294:248|293:284,1,64,2|2,3:2|0:2,0:2:0:0:
381,337,34097,1,2,0:2:0:0:
66,370,34397,6,0,B|117:320|188:352|188:352|259:385|306:352,1,256,2|2,3:2|3:2,0:2:0:0:
495,24,35597,5,0,3:2:0:0:
425,74,35747,1,2,0:2:0:0:
425,74,35897,1,2,0:2:0:0:
336,36,36047,1,2,0:2:0:0:
336,36,36197,2,0,L|345:99,1,64,2|2,3:2|0:2,0:2:0:0:
455,207,36497,2,0,P|426:196|394:191,1,64,2|0,0:2|0:2,0:2:0:0:
173,310,36797,6,0,B|163:258|163:258|160:254|160:254|151:216,2,96,2|2|2,3:2|0:2|0:2,0:2:0:0:
235,353,37397,1,2,3:2:0:0:
339,277,37547,1,2,0:2:0:0:
339,277,37697,2,0,L|329:340,1,64,2|0,0:2|0:2,0:2:0:0:
84,174,37997,6,0,P|102:143|134:129,1,71.9999978027344,2|2,3:2|0:2,0:2:0:0:
162,48,38297,1,8,0:2:0:0:
249,49,38447,1,0,1:2:0:0:
274,132,38597,1,2,3:2:0:0:
202,181,38747,1,2,3:2:0:0:
314,2,38897,1,8,0:2:0:0:
200,190,39047,1,8,0:2:0:0:
425,74,39197,6,0,B|431:125|437:174|437:174|424:157|409:142,1,143.999995605469,6|0,3:2|0:2,0:2:0:0:
329,340,39797,2,0,B|409:315|386:339|472:313,1,143.999995605469,10|0,0:2|0:2,0:2:0:0:
84,174,40397,6,0,B|40:209|40:209|74:289,1,143.999995605469,0|0,3:2|0:2,0:2:0:0:
228,256,40847,1,2,0:2:0:0:
228,256,40997,2,0,L|199:189,1,71.9999978027344,10|2,0:2|0:2,0:2:0:0:
162,48,41297,2,0,P|194:63|229:69,1,71.9999978027344,2|0,0:2|0:2,0:2:0:0:
482,179,41597,6,0,P|441:123|372:127,2,143.999995605469,2|0|8,3:2|0:2|0:2,0:2:0:0:
329,340,42497,1,0,3:2:0:0:
188,110,42797,6,0,L|120:134,1,71.9999978027344,0|0,3:2|0:2,0:2:0:0:
258,194,43097,2,0,L|325:218,1,71.9999978027344,0|2,3:2|0:2,0:2:0:0:
172,323,43397,2,0,B|154:336|143:355|143:355|150:306|156:255,1,143.999995605469,10|2,0:2|0:2,0:2:0:0:
482,179,43997,6,0,P|486:214|473:247,1,71.9999978027344,2|0,3:2|0:2,0:2:0:0:
325,218,44297,2,0,P|320:182|333:149,1,71.9999978027344,0|0,0:2|0:2,0:2:0:0:
438,336,44597,1,10,0:2:0:0:
438,336,44747,2,0,B|344:332|389:353|294:346,1,143.999995605469,0|2,0:2|0:2,0:2:0:0:
157,255,45197,5,0,3:2:0:0:
44,309,45497,1,0,3:2:0:0:
56,191,45797,2,0,L|47:119,1,71.9999978027344,10|0,0:2|0:2,0:2:0:0:
147,36,46097,2,0,L|138:107,1,71.9999978027344,2|0,3:2|0:2,0:2:0:0:
255,219,46397,6,0,B|324:208|324:208|329:204|329:204|395:192,1,143.999995605469,2|2,3:2|0:2,0:2:0:0:
470,244,46847,2,0,P|500:226|512:192,1,71.9999978027344,2|8,0:2|0:2,0:2:0:0:
442,67,47147,2,0,L|454:137,1,71.9999978027344,2|0,0:2|0:2,0:2:0:0:
423,321,47447,1,2,0:2:0:0:
423,321,47597,2,0,P|389:308|354:301,1,71.9999978027344,0|0,3:2|0:2,0:2:0:0:
106,354,47897,5,0,1:2:0:0:
195,259,48047,1,0,1:2:0:0:
104,167,48197,1,2,3:2:0:0:
76,97,48347,1,0,1:2:0:0:
206,9,48497,1,0,3:2:0:0:
200,24,48647,1,2,3:2:0:0:
304,164,48797,6,0,B|416:134|381:168|501:136,1,200,6|2,3:2|0:2,0:2:0:0:
501,135,50597,1,2,0:2:0:0:
501,135,50897,1,2,0:2:0:0:
153,167,51197,6,0,B|161:232|169:309|169:309|179:280|194:257,1,200,6|2,3:2|0:2,0:2:0:0:
193,257,53597,5,2,3:2:0:0:
256,192,55997,12,0,58322,0:2:0:0:
498,107,58397,6,0,B|380:119|438:152|323:158,1,184.000003509522,14|0,3:2|3:2,0:2:0:0:
244,96,58847,1,10,0:2:0:0:
471,213,58997,2,0,L|457:303,1,92.0000017547608,0|0,3:2|3:2,0:2:0:0:
210,280,59297,6,0,B|332:248|332:248|308:267|293:291,1,184.000003509522,10|0,0:2|3:2,0:2:0:0:
235,375,59747,1,8,0:2:0:0:
119,240,59897,2,0,P|142:201|185:189,1,92.0000017547608,2|0,3:2|3:2,0:2:0:0:
88,384,60197,2,0,L|0:357,1,92.0000017547608,10|0,0:2|3:2,0:2:0:0:
324,158,60497,1,10,0:2:0:0:
153,52,60647,1,0,3:2:0:0:
512,0,60797,5,14,0:2:0:0:
494,106,60947,2,0,B|482:191|482:191|484:197|484:197|470:288,1,184.000003509522,0|10,3:2|0:2,0:2:0:0:
235,375,61397,1,0,3:2:0:0:
119,240,61547,1,0,3:2:0:0:
324,158,61697,5,10,0:2:0:0:
336,71,61847,1,0,3:2:0:0:
267,22,61997,1,0,3:2:0:0:
396,216,62147,5,10,0:2:0:0:
168,119,62297,1,2,3:2:0:0:
165,110,62447,1,0,3:2:0:0:
324,158,62597,2,0,L|307:248,1,92.0000017547608,8|0,0:2|3:2,0:2:0:0:
494,106,62897,2,0,L|477:15,1,92.0000017547608,10|0,0:2|3:2,0:2:0:0:
192,314,63197,6,0,B|154:291|101:294|127:328|86:315|126:303|101:338|101:294|101:338|57:352|19:326,2,184.000003509522,6|2|8,3:2|3:2|0:2,0:0:0:0:
192,314,64097,5,2,3:2:0:0:
324,158,64247,1,8,0:2:0:0:
324,158,64547,5,0,3:2:0:0:
258,112,64697,1,0,3:2:0:0:
180,139,64847,1,0,3:2:0:0:
372,285,64997,1,8,0:2:0:0:
374,296,65147,5,0,3:2:0:0:
512,248,65297,1,0,3:2:0:0:
498,107,65447,1,0,3:2:0:0:
166,47,65597,6,0,L|179:138,1,92.0000017547608,6|0,3:2|0:2,0:2:0:0:
103,348,65897,2,0,P|59:332|14:322,1,92.0000017547608,2|0,3:2|0:2,0:2:0:0:
283,310,66197,2,0,P|327:299|371:284,1,92.0000017547608,10|0,0:2|0:2,0:2:0:0:
166,47,66497,1,2,3:2:0:0:
67,164,66647,1,0,3:2:0:0:
177,252,66797,6,0,B|319:227|238:193|375:165,1,220.000006713867,8|2,0:2|3:2,0:2:0:0:
451,193,67697,1,10,0:2:0:0:
451,193,67847,1,8,0:2:0:0:
241,14,67997,6,0,B|241:77|239:146|239:146|255:116|274:97,1,192,6|0,0:2|0:2,0:2:0:0:
163,78,68597,2,0,L|97:64,1,64,8|0,0:2|0:2,0:2:0:0:
31,164,68897,2,0,L|97:150,1,64,0|0,0:2|0:2,0:2:0:0:
188,310,69197,6,0,B|155:283|155:283|71:300,1,128,0|2,3:2|0:2,0:2:0:0:
0,315,69647,1,2,0:2:0:0:
237,367,69797,2,0,P|258:344|264:313,1,64,10|2,0:2|0:2,0:2:0:0:
336,251,70097,2,0,P|341:282|363:304,1,64,2|0,0:2|0:2,0:2:0:0:
470,101,70397,6,0,B|411:111|411:111|403:114|403:114|343:122,1,128,2|2,3:2|0:2,0:2:0:0:
266,76,70847,1,2,0:2:0:0:
171,195,70997,1,10,0:2:0:0:
171,195,71147,1,2,0:2:0:0:
85,148,71297,2,0,P|87:116|98:86,1,64,2|0,0:2|0:2,0:2:0:0:
253,233,71597,6,0,P|247:296|235:359,1,128,2|2,3:2|0:2,0:2:0:0:
337,306,72047,1,2,0:2:0:0:
337,306,72197,2,0,L|398:324,1,64,10|2,0:2|0:2,0:2:0:0:
493,364,72497,2,0,L|473:302,1,64,2|0,0:2|0:2,0:2:0:0:
344,122,72797,6,0,B|431:135|390:142|467:152,1,128,2|2,3:2|0:2,0:2:0:0:
231,27,73397,2,0,B|195:64|195:64|217:136,1,128,8|0,0:2|0:2,0:2:0:0:
288,189,73847,1,0,0:2:0:0:
171,293,73997,6,0,L|108:279,1,64,0|2,3:2|0:2,0:2:0:0:
35,304,74297,1,2,0:2:0:0:
35,304,74447,1,2,0:2:0:0:
0,182,74597,2,0,P|18:156|48:145,1,64,10|0,0:2|0:2,0:2:0:0:
144,87,74897,2,0,P|114:76|95:50,1,64,2|0,0:2|0:2,0:2:0:0:
300,62,75197,6,0,B|293:117|293:117|296:124|296:124|287:189,1,128,2|2,3:2|0:2,0:2:0:0:
342,248,75647,1,2,0:2:0:0:
420,219,75797,2,0,L|429:155,1,64,8|0,0:2|0:2,0:2:0:0:
488,262,76097,2,0,L|478:325,1,64,2|0,0:2|3:2,0:2:0:0:
421,384,76397,6,0,B|336:355|366:383|280:353,1,143.999995605469,2|0,3:2|0:2,0:2:0:0:
159,362,76997,1,8,0:2:0:0:
112,252,77147,1,8,0:2:0:0:
203,173,77297,1,8,0:2:0:0:
306,235,77447,1,8,0:2:0:0:
40,341,77597,6,0,B|29:267|29:267|22:259|22:259|8:158|8:158|21:189|59:223,1,256,2|8,0:2|0:2,0:2:0:0:
203,173,78497,6,0,L|141:155,1,64,2|0,3:2|0:2,0:2:0:0:
306,235,78797,1,0,3:2:0:0:
366,159,78947,1,0,3:2:0:0:
314,78,79097,2,0,P|282:80|257:99,1,64,2|0,0:2|3:2,0:2:0:0:
396,245,79397,2,0,L|457:227,1,64,10|0,0:2|0:2,0:2:0:0:
311,325,79697,2,0,L|249:307,1,64,2|0,3:2|0:2,0:2:0:0:
512,106,79997,6,0,P|492:232|479:359,1,256,2|8,3:2|0:2,0:2:0:0:
306,235,80897,6,0,P|298:203|284:175,1,64,2|0,3:2|0:2,0:2:0:0:
170,60,81197,1,0,3:2:0:0:
97,139,81347,2,0,P|66:129|34:124,1,64,0|2,3:2|0:2,0:2:0:0:
141,237,81647,1,0,3:2:0:0:
243,249,81797,2,0,P|273:239|305:234,1,64,8|0,0:2|0:2,0:2:0:0:
208,376,82097,2,0,P|190:349|184:318,1,64,2|0,3:2|0:2,0:2:0:0:
262,85,82397,6,0,B|384:100|323:120|446:132,1,192,0|0,3:2|3:2,0:2:0:0:
463,37,82997,2,0,L|400:49,1,64,8|0,0:2|0:2,0:2:0:0:
224,154,83297,2,0,L|286:166,1,64,0|0,3:2|0:2,0:2:0:0:
353,371,83597,5,0,3:2:0:0:
279,299,83747,2,0,P|310:245|371:237,1,128,0|0,3:2|3:2,0:2:0:0:
446,132,84197,2,0,L|384:148,1,64,8|0,0:2|0:2,0:2:0:0:
262,85,84497,2,0,L|325:98,1,64,2|2,3:2|0:2,0:2:0:0:
146,220,84797,5,2,3:2:0:0:
41,141,84947,1,2,3:2:0:0:
136,25,85097,2,0,P|153:51|157:82,1,64,2|0,0:2|3:2,0:2:0:0:
56,240,85397,2,0,P|30:221|0:214,1,64,10|2,0:2|0:2,0:2:0:0:
161,312,85697,2,0,P|191:304|217:286,1,64,2|0,3:2|0:2,0:2:0:0:
453,374,85997,5,2,3:2:0:0:
354,275,86147,1,8,0:2:0:0:
494,127,86297,1,2,1:2:0:0:
500,133,86447,1,2,3:2:0:0:
332,31,86597,5,8,0:2:0:0:
224,75,86747,1,0,1:2:0:0:
114,119,86897,1,2,1:2:0:0:
318,128,87047,1,0,3:2:0:0:
127,18,87197,1,6,3:2:0:0:
80,51,94397,5,14,0:2:0:0:
21,116,94547,2,0,B|27:151|27:151|31:155|31:155|38:194,1,80,0|2,3:2|3:2,0:2:0:0:
313,219,95147,1,0,3:2:0:0:
237,159,95297,1,6,3:2:0:0:
237,159,95447,2,0,B|202:165|202:165|198:169|198:169|159:176,1,80,0|2,3:2|3:2,0:2:0:0:
368,286,96047,1,0,3:2:0:0:
375,288,96122,1,0,0:2:0:0:
382,290,96197,2,0,B|417:296|417:296|421:300|421:300|460:307,1,80,10|0,0:2|0:2,0:2:0:0:
497,37,96797,6,0,B|372:52|444:67|312:81,1,191.999994140625,14|8,3:2|0:2,0:2:0:0:
55,17,97247,1,2,3:2:0:0:
171,81,97397,2,0,P|180:128|188:175,1,95.9999970703126,8|0,0:2|3:2,0:2:0:0:
25,348,97697,5,10,0:2:0:0:
277,251,97847,1,0,3:2:0:0:
6,244,97997,5,8,0:2:0:0:
250,352,98147,1,0,3:2:0:0:
49,145,98297,5,10,0:2:0:0:
140,384,98447,1,0,3:2:0:0:
262,160,98597,6,0,L|357:145,1,95.9999970703126,10|0,0:2|3:2,0:2:0:0:
100,258,98897,2,0,L|4:243,1,95.9999970703126,10|0,0:2|3:2,0:2:0:0:
369,384,99197,6,0,B|381:316|397:259|397:259|375:287|348:300,1,191.999994140625,14|8,0:2|0:2,0:2:0:0:
142,335,99647,2,0,P|106:304|99:258,1,95.9999970703126,2|8,3:2|0:2,0:2:0:0:
16,125,99947,1,0,3:2:0:0:
261,156,100097,1,10,0:2:0:0:
9,135,100247,1,0,3:2:0:0:
278,0,100397,5,8,0:2:0:0:
299,238,100547,1,0,3:2:0:0:
136,30,100697,5,10,0:2:0:0:
361,145,100847,1,0,3:2:0:0:
72,188,100997,5,8,0:2:0:0:
301,80,101147,1,0,3:2:0:0:
64,187,101297,1,8,0:2:0:0:
312,81,101447,1,0,3:2:0:0:
244,335,101597,6,0,P|197:323|150:314,1,95.9999970703126,14|0,0:2|3:2,0:2:0:0:
49,384,101897,1,8,0:2:0:0:
316,231,102047,2,0,P|362:219|409:210,1,95.9999970703126,2|8,3:2|0:2,0:2:0:0:
511,283,102347,1,0,3:2:0:0:
228,154,102497,1,10,0:2:0:0:
405,58,102647,1,0,3:2:0:0:
337,355,102797,2,0,P|290:343|243:334,1,95.9999970703126,8|0,0:2|3:2,0:2:0:0:
440,138,103097,6,0,P|480:161|491:207,1,95.9999970703126,10|0,0:2|3:2,0:2:0:0:
228,154,103397,2,0,P|231:106|239:58,1,95.9999970703126,10|0,0:2|3:2,0:2:0:0:
433,289,103697,2,0,P|441:336|444:384,1,95.9999970703126,10|0,0:2|3:2,0:2:0:0:
0,244,103997,5,14,0:2:0:0:
253,335,104147,1,0,3:2:0:0:
48,152,104297,5,8,0:2:0:0:
145,384,104447,1,2,3:2:0:0:
223,150,104597,5,8,0:2:0:0:
28,355,104747,1,0,3:2:0:0:
233,146,104897,2,0,P|279:156|325:171,1,95.9999970703126,10|0,0:2|3:2,0:2:0:0:
48,151,105197,6,0,P|42:104|33:57,1,95.9999970703126,8|0,0:2|3:2,0:2:0:0:
169,313,105497,2,0,P|174:265|183:218,1,95.9999970703126,8|0,0:2|3:2,0:2:0:0:
433,289,105797,2,0,P|404:326|358:335,1,95.9999970703126,8|0,0:2|3:2,0:2:0:0:
403,98,106097,2,0,P|449:108|495:123,1,95.9999970703126,8|0,0:2|3:2,0:2:0:0:
153,60,106397,6,0,B|280:48|215:31|338:16,1,191.999994140625,14|8,0:2|0:2,0:2:0:0:
427,196,106847,1,2,3:2:0:0:
297,238,106997,2,0,P|283:192|302:150,1,95.9999970703126,8|0,0:2|3:2,0:2:0:0:
156,380,107297,5,10,0:2:0:0:
63,165,107447,1,0,3:2:0:0:
259,350,107597,5,8,0:2:0:0:
14,260,107747,1,0,3:2:0:0:
297,238,107897,5,10,0:2:0:0:
50,361,108047,1,0,3:2:0:0:
138,84,108197,6,0,P|184:96|230:110,1,95.9999970703126,10|0,0:2|3:2,0:2:0:0:
472,173,108497,2,0,P|426:185|380:199,1,95.9999970703126,10|0,0:2|3:2,0:2:0:0:
338,16,108797,6,0,B|407:33|471:50|471:50|442:52|417:61,1,191.999994140625,14|8,0:2|0:2,0:2:0:0:
297,238,109247,2,0,P|333:207|380:200,1,95.9999970703126,2|8,3:2|0:2,0:2:0:0:
469,264,109547,1,0,3:2:0:0:
267,80,109697,5,10,0:2:0:0:
340,327,109847,1,0,3:2:0:0:
417,61,109997,5,8,0:2:0:0:
393,272,110147,1,0,3:2:0:0:
142,82,110297,5,10,0:2:0:0:
379,199,110447,1,0,3:2:0:0:
131,88,110597,1,8,0:2:0:0:
387,197,110747,1,0,3:2:0:0:
87,295,110897,2,0,L|100:200,1,95.9999970703126,10|0,0:2|3:2,0:2:0:0:
132,374,111197,5,14,0:2:0:0:
42,134,111347,1,0,3:2:0:0:
268,342,111497,5,8,0:2:0:0:
4,250,111647,1,2,3:2:0:0:
264,161,111797,5,8,0:2:0:0:
34,351,111947,1,0,3:2:0:0:
112,61,112097,5,10,0:2:0:0:
184,298,112247,1,0,3:2:0:0:
308,33,112397,6,0,P|272:1|225:0,1,95.9999970703126,8|0,0:2|3:2,0:2:0:0:
401,282,112697,2,0,L|493:256,1,95.9999970703126,8|0,0:2|3:2,0:2:0:0:
208,224,112997,2,0,L|115:198,1,95.9999970703126,8|0,0:2|3:2,0:2:0:0:
432,18,113297,2,0,P|417:63|408:110,1,95.9999970703126,8|0,0:2|3:2,0:2:0:0:
120,351,113597,5,14,0:2:0:0:
247,71,113747,1,8,0:2:0:0:
122,364,113897,5,8,0:2:0:0:
245,63,114047,1,10,0:2:0:0:
125,374,114197,5,8,0:2:0:0:
242,53,114347,1,8,0:2:0:0:
128,384,114497,5,8,0:2:0:0:
239,43,114647,1,8,0:2:0:0:
396,147,114797,5,8,0:2:0:0:
417,142,114872,1,8,0:2:0:0:
440,136,114947,1,8,0:2:0:0:
464,130,115022,1,8,0:2:0:0:
487,125,115097,2,0,L|473:171,3,47.9999985351563,0|0|0|0,3:2|3:2|3:2|3:2,0:2:0:0:
358,245,115397,1,8,0:2:0:0:
334,238,115472,1,8,0:0:0:0:
310,231,115547,2,0,L|324:277,1,47.9999985351563,8|8,0:2|0:2,0:2:0:0:
209,157,115697,1,8,0:2:0:0:
233,150,115772,1,8,0:0:0:0:
257,143,115847,2,0,L|243:189,1,47.9999985351563,8|8,0:2|0:2,0:2:0:0:
115,197,115997,6,0,B|96:83|96:83|109:99|127:113,1,160,6|0,0:2|0:2,0:2:0:0:
209,157,116447,1,0,3:2:0:0:
81,357,116597,2,0,L|3:336,1,80,8|0,0:2|3:2,0:2:0:0:
171,300,116897,2,0,L|248:279,1,80,2|0,0:2|3:2,0:2:0:0:
403,38,117197,5,2,3:2:0:0:
497,140,117347,2,0,B|399:140|433:126|337:125,1,160,0|2,3:2|3:2,0:2:0:0:
354,285,117797,2,0,P|362:245|368:206,1,80,8|0,0:2|3:2,0:2:0:0:
464,343,118097,2,0,P|455:303|449:264,1,80,2|0,0:2|3:2,0:2:0:0:
227,384,118397,5,6,3:2:0:0:
115,279,118547,2,0,P|125:199|133:120,1,160,0|2,3:2|3:2,0:2:0:0:
210,22,118997,2,0,P|214:61|227:99,1,80,8|0,0:2|3:2,0:2:0:0:
63,17,119297,2,0,P|58:56|45:94,1,80,2|0,0:2|3:2,0:2:0:0:
232,231,119597,5,2,3:2:0:0:
325,299,119747,2,0,P|301:371|226:383,1,160,0|2,3:2|3:2,0:2:0:0:
324,200,120197,2,0,L|401:221,1,80,8|0,0:2|3:2,0:2:0:0:
465,299,120497,1,2,0:2:0:0:
465,299,120647,1,0,3:2:0:0:
497,140,120797,5,6,3:2:0:0:
421,30,120947,2,0,P|345:41|321:113,1,160,0|0,3:2|3:2,0:2:0:0:
232,231,121397,1,8,0:2:0:0:
127,204,121547,1,0,3:2:0:0:
111,101,121697,1,0,0:2:0:0:
118,104,121847,1,0,3:2:0:0:
165,298,121997,5,0,3:2:0:0:
75,380,122147,2,0,P|73:341|64:302,2,80,0|0|0,3:2|0:2|3:2,0:2:0:0:
227,363,122597,1,8,0:2:0:0:
303,328,122747,2,0,P|305:289|314:250,2,80,0|0|0,3:2|0:2|3:2,0:2:0:0:
476,214,123197,5,6,3:2:0:0:
443,139,123347,1,2,3:2:0:0:
371,169,123497,1,2,0:2:0:0:
403,243,123647,1,2,3:2:0:0:
197,133,123797,5,10,0:2:0:0:
233,44,123947,1,2,3:2:0:0:
317,77,124097,1,2,0:2:0:0:
282,171,124247,1,2,3:2:0:0:
400,348,124397,6,0,L|478:331,1,80,10|2,0:2|3:2,0:2:0:0:
244,260,124697,2,0,L|165:243,1,80,10|2,0:2|3:2,0:2:0:0:
472,32,124997,5,10,0:2:0:0:
403,243,125147,1,2,3:2:0:0:
479,27,125297,1,10,0:2:0:0:
397,251,125447,1,2,3:2:0:0:
314,3,125597,6,0,B|211:17|270:36|157:46,1,160,6|0,0:2|0:2,0:2:0:0:
77,9,126047,1,0,3:2:0:0:
192,133,126197,2,0,P|229:119|268:115,1,80,8|0,0:2|3:2,0:2:0:0:
164,242,126497,2,0,P|125:238|88:224,1,80,2|0,0:2|3:2,0:2:0:0:
400,348,126797,6,0,P|407:268|418:189,1,160,2|0,3:2|0:2,0:2:0:0:
485,129,127247,1,2,3:2:0:0:
327,213,127397,2,0,P|323:252|317:292,1,80,8|0,0:2|3:2,0:2:0:0:
488,319,127697,2,0,P|491:279|497:239,1,80,2|0,0:2|3:2,0:2:0:0:
314,3,127997,5,6,3:2:0:0:
234,54,128147,2,0,P|264:124|340:133,1,160,0|2,3:2|3:2,0:2:0:0:
166,168,128597,2,0,L|90:141,1,80,8|0,0:2|3:2,0:2:0:0:
251,239,128897,2,0,L|326:212,1,80,2|0,0:2|3:2,0:2:0:0:
99,376,129197,5,2,3:2:0:0:
13,297,129347,2,0,B|7:229|3:187|3:187|11:208|35:223,1,160,0|2,3:2|3:2,0:2:0:0:
122,242,129797,1,8,0:2:0:0:
122,242,129947,1,0,3:2:0:0:
166,168,130097,2,0,L|174:88,1,80,2|0,0:2|3:2,0:2:0:0:
263,357,130397,5,6,3:2:0:0:
336,285,130547,2,0,B|437:293|398:312|491:317,1,160,0|0,3:2|3:2,0:2:0:0:
505,151,130997,1,8,0:2:0:0:
499,160,131147,1,0,3:2:0:0:
413,114,131297,1,0,0:2:0:0:
406,13,131447,1,0,3:2:0:0:
425,207,131597,5,0,3:2:0:0:
319,129,131747,2,0,B|218:137|257:156|163:161,1,160,0|0,3:2|3:2,0:2:0:0:
9,67,132197,1,8,0:2:0:0:
93,0,132347,2,0,P|166:14|176:88,1,160,0|0,3:2|3:2,0:2:0:0:
183,293,132797,5,6,3:2:0:0:
216,368,132947,1,2,3:2:0:0:
288,338,133097,1,2,0:2:0:0:
256,264,133247,1,2,3:2:0:0:
462,196,133397,5,10,0:2:0:0:
422,286,133547,1,2,3:2:0:0:
336,250,133697,1,2,0:2:0:0:
374,161,133847,1,2,3:2:0:0:
266,73,133997,6,0,L|278:151,1,80,8|0,0:2|3:2,0:2:0:0:
369,52,134297,1,8,0:2:0:0:
185,201,134447,1,8,0:2:0:0:
256,264,134597,1,0,3:2:0:0:
213,333,134747,1,0,3:2:0:0:
212,332,134897,2,0,L|158:319,1,55.9999982910157,10|0,0:2|3:2,0:2:0:0:
106,112,135197,6,0,B|79:138|47:155|47:155|84:267,1,192,6|0,3:2|3:2,0:2:0:0:
84,267,135947,1,0,3:2:0:0:
240,225,136097,6,0,B|346:247|293:263|420:287,1,192,8|0,0:2|3:2,0:2:0:0:
421,288,136847,1,0,3:2:0:0:
232,147,136997,2,0,P|175:171|161:231,1,128,8|0,0:2|3:2,0:2:0:0:
509,151,137597,6,0,B|497:84|489:19|489:19|483:48|467:73,1,192,4|0,3:2|3:2,0:2:0:0:
467,73,138347,1,0,3:2:0:0:
298,1,138497,6,0,B|192:23|245:39|117:63,1,192,8|0,0:2|3:2,0:2:0:0:
117,63,139247,1,0,3:2:0:0:
214,139,139397,2,0,L|274:117,1,64,8|0,0:2|0:2,0:2:0:0:
161,231,139697,2,0,L|100:209,1,64,0|0,3:2|0:2,0:2:0:0:
404,377,139997,6,0,B|432:347|453:336|453:336|424:211,1,192,6|2,3:2|3:2,0:2:0:0:
424,211,140747,1,0,3:2:0:0:
304,261,140897,6,0,P|218:229|213:138,1,192,10|0,0:2|3:2,0:2:0:0:
212,139,141647,1,0,3:2:0:0:
78,234,141797,2,0,P|72:265|66:296,1,64,8|0,0:2|0:2,0:2:0:0:
35,82,142097,1,0,3:2:0:0:
151,264,142247,1,0,3:2:0:0:
230,6,142397,1,4,1:2:0:0:
