osu file format v14

[General]
AudioFilename: audio.mp3
AudioLeadIn: 0
PreviewTime: 48684
Countdown: 0
SampleSet: Soft
StackLeniency: 0.3
Mode: 0
LetterboxInBreaks: 0
EpilepsyWarning: 1
WidescreenStoryboard: 1

[Editor]
Bookmarks: 10397,29597,48797,58397,67997,87197,94397,115997,135197,142397
DistanceSpacing: 1
BeatDivisor: 4
GridSize: 32
TimelineZoom: 3.199999

[Metadata]
Title:Kilometry (Cut Ver.)
TitleUnicode:Километры (Cut Ver.)
Artist:Wildways
ArtistUnicode:Wildways
Creator:Maiev
Version:Azinlen's Normal
Source:
Tags:azinlen shirokumocha spy_ro yuuma2 kumocha daycore milr_ milr kilometer kilometers kilometres Jojajim russian rock r-rock anna Egor Erushin
BeatmapID:3046326
BeatmapSetID:1484853

[Difficulty]
HPDrainRate:3
CircleSize:3
OverallDifficulty:4
ApproachRate:6
SliderMultiplier:1.1
SliderTickRate:1

[Events]
//Background and Video events
0,0,"bg.jpg",0,0
//Break Periods
2,87397,93347
//Storyboard Layer 0 (Background)
//Storyboard Layer 1 (Fail)
//Storyboard Layer 2 (Pass)
//Storyboard Layer 3 (Foreground)
Sprite,Foreground,Centre,"sb\linev.png",320,97 R,0,132797,,0.4726243 C,0,132797,,204,238,255 F,2,132797,133597,1,0 S,2,132797,133597,1.2,1 P,0,132797,133597,A
Sprite,Foreground,Centre,"sb\linev.png",320,97 C,0,132947,,204,238,255 R,0,132947,133247,0.4817325 F,2,132947,134047,1,0 S,2,132947,134047,1.2,1 P,0,132947,134047,A
Sprite,Foreground,Centre,"sb\linev.png",375,93 R,0,133097,,0.4768023 C,0,133097,,204,238,255 F,2,133097,133897,1,0 S,2,133097,133897,1.2,1 P,0,133097,133897,A
Sprite,Foreground,Centre,"sb\linev.png",429,88 R,0,133247,,0.4558161 C,0,133247,,204,238,255 F,2,133247,134047,1,0 S,2,133247,134047,1.2,1 P,0,133247,134047,A
Sprite,Foreground,Centre,"sb\linev.png",473,130 R,0,133397,,0.4206033 C,0,133397,,204,238,255 F,2,133397,134197,1,0 S,2,133397,134197,1.2,1 P,0,133397,134197,A
Sprite,Foreground,Centre,"sb\linev.png",473,130 C,0,133547,,204,238,255 R,0,133547,133847,0.4558885 F,2,133547,134647,1,0 S,2,133547,134647,1.2,1 P,0,133547,134647,A
Sprite,Foreground,Centre,"sb\linev.png",444,177 R,0,133697,,0.4906027 C,0,133697,,204,238,255 F,2,133697,134497,1,0 S,2,133697,134497,1.2,1 P,0,133697,134497,A
Sprite,Foreground,Centre,"sb\linev.png",450,230 R,0,133847,,0.4442178 C,0,133847,,204,238,255 F,2,133847,134647,1,0 S,2,133847,134647,1.2,1 P,0,133847,134647,A
Sprite,Foreground,Centre,"sb\linev.png",493,265 R,0,133997,,0.497755 C,0,133997,,204,238,255 F,2,133997,134797,1,0 S,2,133997,134797,1.2,1 P,0,133997,134797,A
Sprite,Foreground,Centre,"sb\linev.png",493,265 R,0,134147,,0.4273705 C,0,134147,,204,238,255 F,2,134147,134947,1,0 S,2,134147,134947,1.2,1 P,0,134147,134947,A
Sprite,Foreground,Centre,"sb\linev.png",562,350 R,0,134297,,0.4291906 C,0,134297,,204,238,255 F,2,134297,135097,1,0 S,2,134297,135097,1.2,1 P,0,134297,135097,A
Sprite,Foreground,Centre,"sb\linev.png",562,350 R,0,134447,,0.4467315 C,0,134447,,204,238,255 F,2,134447,135247,1,0 S,2,134447,135247,1.2,1 P,0,134447,135247,A
Sprite,Foreground,Centre,"sb\linev.png",471,412 R,0,134597,,0.4632659 C,0,134597,,204,238,255 F,2,134597,135397,1,0 S,2,134597,135397,1.2,1 P,0,134597,135397,A
Sprite,Foreground,Centre,"sb\linev.png",471,412 R,0,134747,,0.4469512 C,0,134747,,204,238,255 F,2,134747,135547,1,0 S,2,134747,135547,1.2,1 P,0,134747,135547,A
Sprite,Foreground,Centre,"sb\linev.png",402,327 R,0,134897,,0.4982151 C,0,134897,,204,238,255 F,2,134897,135697,1,0 S,2,134897,135697,1.2,1 P,0,134897,135697,A
Sprite,Foreground,Centre,"sb\linev.png",402,327 R,0,135047,,0.4030367 C,0,135047,,204,238,255 F,2,135047,135847,1,0 S,2,135047,135847,1.2,1 P,0,135047,135847,A
Sprite,Foreground,Centre,"sb\linev.png",168,163 R,0,123197,,0.4726243 C,0,123197,,202,237,255 F,2,123197,123997,1,0 S,2,123197,123997,1.2,1 P,0,123197,123997,A
Sprite,Foreground,Centre,"sb\linev.png",168,163 C,0,123347,,202,237,255 R,0,123347,123647,0.4817325 F,2,123347,124447,1,0 S,2,123347,124447,1.2,1 P,0,123347,124447,A
Sprite,Foreground,Centre,"sb\linev.png",222,151 R,0,123497,,0.4768023 C,0,123497,,202,237,255 F,2,123497,124297,1,0 S,2,123497,124297,1.2,1 P,0,123497,124297,A
Sprite,Foreground,Centre,"sb\linev.png",275,142 R,0,123647,,0.4558161 C,0,123647,,202,237,255 F,2,123647,124447,1,0 S,2,123647,124447,1.2,1 P,0,123647,124447,A
Sprite,Foreground,Centre,"sb\linev.png",310,99 C,0,123797,,202,237,255 R,0,123797,124097,0.4206033 F,2,123797,124897,1,0 S,2,123797,124897,1.2,1 P,0,123797,124897,A
Sprite,Foreground,Centre,"sb\linev.png",331,151 R,0,123947,,0.4558885 C,0,123947,,202,237,255 F,2,123947,124747,1,0 S,2,123947,124747,1.2,1 P,0,123947,124747,A
Sprite,Foreground,Centre,"sb\linev.png",377,172 R,0,124097,,0.4906027 C,0,124097,,202,237,255 F,2,124097,124897,1,0 S,2,124097,124897,1.2,1 P,0,124097,124897,A
Sprite,Foreground,Centre,"sb\linev.png",384,177 R,0,124247,,0.4442178 C,0,124247,,202,237,255 F,2,124247,125047,1,0 S,2,124247,125047,1.2,1 P,0,124247,125047,A
Sprite,Foreground,Centre,"sb\linev.png",466,107 R,0,124397,,0.497755 C,0,124397,,202,237,255 F,2,124397,125197,1,0 S,2,124397,125197,1.2,1 P,0,124397,125197,A
Sprite,Foreground,Centre,"sb\linev.png",466,107 R,0,124547,,0.4273705 C,0,124547,,202,237,255 F,2,124547,125347,1,0 S,2,124547,125347,1.2,1 P,0,124547,125347,A
Sprite,Foreground,Centre,"sb\linev.png",556,169 R,0,124697,,0.4291906 C,0,124697,,202,237,255 F,2,124697,125497,1,0 S,2,124697,125497,1.2,1 P,0,124697,125497,A
Sprite,Foreground,Centre,"sb\linev.png",556,169 R,0,124847,,0.4467315 C,0,124847,,202,237,255 F,2,124847,125647,1,0 S,2,124847,125647,1.2,1 P,0,124847,125647,A
Sprite,Foreground,Centre,"sb\linev.png",557,278 R,0,124997,,0.4632659 C,0,124997,,202,237,255 F,2,124997,125797,1,0 S,2,124997,125797,1.2,1 P,0,124997,125797,A
Sprite,Foreground,Centre,"sb\linev.png",557,278 R,0,125147,,0.4469512 C,0,125147,,202,237,255 F,2,125147,125947,1,0 S,2,125147,125947,1.2,1 P,0,125147,125947,A
Sprite,Foreground,Centre,"sb\linev.png",460,329 R,0,125297,,0.4982151 C,0,125297,,202,237,255 F,2,125297,126097,1,0 S,2,125297,126097,1.2,1 P,0,125297,126097,A
Sprite,Foreground,Centre,"sb\linev.png",460,329 R,0,125447,,0.4030367 C,0,125447,,202,237,255 F,2,125447,126247,1,0 S,2,125447,126247,1.2,1 P,0,125447,126247,A
Sprite,Foreground,CentreLeft,"sb\Beatmap.png",0,0 F,0,88397,88797,0,1 M,1,88397,91997,380,100,390,100 S,0,88397,91997,0.3 F,0,91597,91997,1,0
Sprite,Foreground,CentreLeft,"sb\Storyboard.png",0,0 F,0,90197,90597,0,1 M,1,90197,93797,0,320,10,320 S,0,90197,93797,0.3 F,0,93397,93797,1,0
Sprite,Foreground,CentreLeft,"sb\jojajim.png",0,0 F,0,90797,91197,0,1 M,1,90797,93797,0,360,10,360 S,0,90797,93797,0.6 F,0,93397,93797,1,0
Sprite,Foreground,CentreLeft,"sb\Azinlen.png",0,0 F,0,88997,89397,0,1 M,1,88997,91997,380,142,390,142 S,0,88997,91997,0.6 F,0,91597,91997,1,0
//Storyboard Layer 4 (Overlay)
//Storyboard Sound Samples

[TimingPoints]
797,300,4,2,1,30,1,0
10397,-100,4,2,1,60,0,0
29597,-100,4,2,1,45,0,0
58397,-100,4,2,1,75,0,1
66797,-100,4,2,1,75,0,1
67997,-100,4,2,1,50,0,0
87197,-100,4,2,1,35,0,0
94397,-100,4,2,1,50,0,0
96797,-100,4,2,1,75,0,1
115997,-100,4,2,1,60,0,0
135197,-100,4,2,1,50,0,0

[Colours]
Combo1 : 255,231,155
Combo2 : 255,179,179
Combo3 : 174,210,255
Combo4 : 255,184,149

[HitObjects]
50,262,10397,6,0,L|168:253,1,110,12|0,0:2|0:0,0:0:0:0:
202,288,10847,2,0,L|311:296,1,110,8|0,0:2|3:2,0:0:0:0:
347,338,11297,1,8,0:2:0:0:
442,203,11747,2,0,P|420:157|444:87,1,110,8|0,0:2|3:2,0:0:0:0:
469,61,12197,2,0,L|348:75,1,110,8|8,0:2|0:2,0:0:0:0:
311,46,12647,1,0,3:2:0:0:
311,46,12797,6,0,L|190:60,1,110,12|0,0:2|0:0,0:0:0:0:
153,32,13247,2,0,P|175:78|151:148,1,110,8|0,0:2|3:2,0:0:0:0:
129,177,13697,1,8,0:2:0:0:
42,317,14147,2,0,L|173:301,1,110,8|0,0:2|3:2,0:0:0:0:
196,335,14597,2,0,P|253:351|309:325,1,110,8|8,0:2|0:2,0:0:0:0:
392,276,15197,6,0,L|385:162,1,110,4|0,3:2|3:2,0:0:0:0:
296,101,15797,2,0,P|239:85|183:111,1,110,8|0,0:2|3:2,0:0:0:0:
162,146,16247,2,0,L|178:20,1,110,8|0,0:2|3:2,0:0:0:0:
129,7,16697,2,0,P|94:48|41:56,1,110,0|8,3:2|0:2,0:0:0:0:
15,163,17297,2,0,L|80:172,1,55,0|0,3:2|3:2,0:0:0:0:
98,217,17597,6,0,L|85:337,1,110,4|0,3:2|3:2,0:0:0:0:
191,357,18197,2,0,L|202:247,1,110,8|0,0:2|3:2,0:0:0:0:
240,208,18647,1,0,3:2:0:0:
240,208,18797,2,0,P|296:181|354:206,1,110,12|0,0:2|3:2,0:0:0:0:
375,235,19247,2,0,L|492:223,1,110,12|0,0:2|3:2,0:0:0:0:
496,170,19697,1,12,0:2:0:0:
449,70,19997,6,0,L|339:81,1,110,12|0,0:2|0:0,0:0:0:0:
296,46,20447,2,0,L|186:57,1,110,8|0,0:2|3:2,0:0:0:0:
139,28,20897,1,8,0:2:0:0:
58,171,21347,2,0,P|105:207|113:271,1,110,8|0,0:2|3:2,0:0:0:0:
84,299,21797,2,0,L|214:285,1,110,8|8,0:2|0:2,0:0:0:0:
233,325,22247,1,0,3:2:0:0:
233,325,22397,6,0,L|342:336,1,110,12|0,0:2|0:0,0:0:0:0:
375,292,22847,2,0,P|331:260|316:208,1,110,8|0,0:2|3:2,0:0:0:0:
354,168,23297,1,8,0:2:0:0:
247,41,23747,2,0,L|136:53,1,110,8|0,0:2|3:2,0:0:0:0:
87,29,24197,1,8,0:2:0:0:
21,116,24497,2,0,L|29:175,1,55,8|0,0:2|3:2,0:0:0:0:
71,204,24797,6,0,P|84:265|62:332,1,110,4|0,3:2|3:2,0:0:0:0:
172,358,25397,2,0,L|284:346,1,110,8|0,0:2|3:2,0:0:0:0:
320,308,25847,1,8,0:2:0:0:
421,349,26147,2,0,L|488:343,2,55,0|0|0,3:2|3:2|3:2,0:0:0:0:
434,239,26747,2,0,L|501:233,2,55,0|0|0,3:2|3:2|3:2,0:0:0:0:
390,205,27197,6,0,P|366:154|388:101,1,110,4|0,3:2|3:2,0:0:0:0:
482,58,27797,1,8,0:2:0:0:
379,17,28097,2,0,L|310:30,1,55,0|0,3:2|3:2,0:0:0:0:
281,61,28397,2,0,B|193:55|230:131|120:111,1,165,12|0,0:2|3:2,0:0:0:0:
62,197,29147,1,0,3:2:0:0:
62,197,29297,2,0,L|72:267,1,55,10|0,0:2|3:2,0:0:0:0:
45,300,29597,5,2,3:2:0:0:
234,187,30197,1,0,3:2:0:0:
388,343,30797,1,0,3:2:0:0:
459,134,31397,1,2,3:2:0:0:
295,280,31997,6,0,P|200:297|125:202,1,220,2|0,3:2|3:2,0:0:0:0:
260,36,33197,2,0,B|319:3|380:52|356:69|406:117|471:80,1,220,2|2,3:2|3:2,0:0:0:0:
497,124,33947,2,0,P|486:208|482:244,1,110,2|0,0:2|0:0,0:0:0:0:
511,280,34397,6,0,P|406:266|341:349,1,220,2|2,3:2|3:2,0:0:0:0:
216,167,35597,2,0,P|151:249|46:236,1,220,0|2,3:2|3:2,0:0:0:0:
79,18,36797,2,0,P|157:36|307:60,1,220,2|2,3:2|3:2,0:0:0:0:
487,165,37997,6,0,P|499:217|476:265,1,110,2|8,3:2|0:2,0:0:0:0:
433,301,38447,1,0,1:2:0:0:
433,301,38597,2,0,L|355:293,1,55,2|2,3:2|3:2,0:0:0:0:
330,322,38897,2,0,L|275:327,1,55,8|8,0:2|0:2,0:0:0:0:
232,362,39197,6,0,P|243:281|252:129,1,220,6|10,3:2|0:2,0:0:0:0:
50,52,40397,2,0,P|61:133|70:285,1,220,0|10,3:2|0:2,0:0:0:0:
171,75,41597,2,0,B|283:112|265:3|394:41,1,220,2|8,3:2|0:2,0:0:0:0:
441,126,42497,1,0,3:2:0:0:
349,187,42797,2,0,P|319:249|339:290,1,110,0|0,3:2|3:2,0:0:0:0:
426,341,43397,1,10,0:2:0:0:
206,345,43997,6,0,B|241:291|201:220|188:259|145:188|182:120,1,220,2|10,3:2|0:2,0:0:0:0:
379,63,45197,2,0,P|412:92|399:159,1,110,0|0,3:2|3:2,0:0:0:0:
333,237,45797,1,10,0:2:0:0:
435,276,46097,1,2,3:2:0:0:
365,361,46397,2,0,L|238:336,1,110,2|2,3:2|0:2,0:0:0:0:
150,368,46997,1,8,0:2:0:0:
54,165,47597,5,0,3:2:0:0:
133,91,47897,2,0,L|196:98,1,55,0|0,1:2|1:2,0:0:0:0:
232,65,48197,2,0,P|306:40|376:92,1,165,2|2,3:2|3:2,0:0:0:0:
404,130,48797,5,6,3:2:0:0:
105,293,51197,5,6,3:2:0:0:
425,231,53597,5,2,3:2:0:0:
256,192,53747,12,0,57797,0:0:0:0:
467,70,58397,6,0,P|411:65|339:56,1,110,14|0,3:2|3:2,0:0:0:0:
314,92,58847,2,0,P|258:87|186:78,1,110,10|0,0:2|3:2,0:0:0:0:
164,118,59297,2,0,P|123:187|154:270,1,165,10|8,0:2|0:2,0:0:0:0:
188,299,59897,1,2,3:2:0:0:
279,360,60197,2,0,P|333:353|388:348,1,110,10|10,0:2|0:2,0:0:0:0:
436,319,60647,1,0,3:2:0:0:
436,319,60797,6,0,P|409:262|425:210,1,110,14|0,0:2|0:0,0:0:0:0:
462,184,61247,2,0,L|443:54,1,110,10|0,0:2|3:2,0:0:0:0:
477,30,61697,2,0,P|425:70|327:49,1,165,10|10,0:2|0:2,0:0:0:0:
289,18,62297,1,2,3:2:0:0:
199,82,62597,2,0,L|119:92,2,55,8|0|10,0:2|3:2|0:2,0:0:0:0:
238,119,63047,1,0,3:2:0:0:
238,119,63197,6,0,P|261:172|231:229,1,110,6|0,3:2|3:2,0:0:0:0:
177,306,63797,2,0,L|299:296,1,110,8|2,0:2|3:2,0:0:0:0:
329,331,64247,2,0,P|375:354|438:339,1,110,8|0,0:2|3:2,0:0:0:0:
469,305,64697,2,0,L|460:245,1,55,0|0,3:2|3:2,0:0:0:0:
428,205,64997,2,0,L|453:38,1,165,8|0,0:2|3:2,0:0:0:0:
414,2,65597,5,6,3:2:0:0:
337,80,65897,1,2,3:2:0:0:
236,35,66197,2,0,P|175:44|136:91,1,110,10|2,0:2|3:2,0:0:0:0:
130,130,66647,1,0,3:2:0:0:
130,130,66797,2,0,L|146:243,1,110,8|2,0:2|0:2,0:0:0:0:
124,289,67247,2,0,P|181:254|239:269,1,110,2|2,3:2|3:2,0:0:0:0:
262,296,67697,2,0,L|328:286,1,55,10|8,0:2|0:2,0:0:0:0:
359,322,67997,6,0,B|387:269|355:199|350:229|303:174|343:94,1,220,6|8,0:2|0:2,0:0:0:0:
131,29,69197,2,0,P|56:51|67:187,1,220,0|10,3:2|0:2,0:0:0:0:
210,329,70397,2,0,P|316:294|423:275,1,220,2|10,3:2|0:2,0:0:0:0:
324,77,71597,6,0,P|270:67|192:55,1,110,2|2,3:2|0:2,0:0:0:0:
173,94,72047,1,2,0:2:0:0:
173,94,72197,2,0,P|186:142|190:167,1,55,10|2,0:2|0:2,0:0:0:0:
166,311,72797,6,0,P|67:293|78:193,1,220,2|8,3:2|0:2,0:0:0:0:
284,114,73996,2,0,P|383:160|489:188,1,220,0|10,3:2|0:2,0:0:0:0:
294,290,75197,2,0,P|187:317|88:364,1,220,2|8,3:2|0:2,0:0:0:0:
26,216,76247,5,0,3:2:0:0:
26,216,76397,2,0,P|44:142|46:91,1,110,2|0,3:2|0:0,0:0:0:0:
135,43,76997,2,0,L|206:57,1,55,8|8,0:2|0:2,0:0:0:0:
234,85,77297,2,0,L|287:74,1,55,8|8,0:2|0:2,0:0:0:0:
337,110,77597,5,2,0:2:0:0:
337,110,77747,2,0,P|395:100|446:140,1,110,0|0,3:2|3:2,0:0:0:0:
455,177,78197,1,8,0:2:0:0:
413,278,78497,1,2,3:2:0:0:
363,376,78797,5,0,3:2:0:0:
363,376,78947,2,0,B|331:382|308:362|315:354|287:331|251:343,1,110,0|0,3:2|3:2,0:0:0:0:
214,365,79397,2,0,P|224:288|233:234,1,110,10|2,0:2|3:2,0:0:0:0:
131,203,79997,1,2,3:2:0:0:
131,203,80147,2,0,P|122:148|115:94,1,110,0|0,3:2|3:2,0:0:0:0:
149,50,80597,2,0,P|199:21|258:41,1,110,8|2,0:2|3:2,0:0:0:0:
325,110,81197,5,0,3:2:0:0:
325,110,81347,2,0,L|445:95,1,110,0|0,3:2|3:2,0:0:0:0:
476,131,81797,1,8,0:2:0:0:
405,215,82097,1,2,3:2:0:0:
462,315,82397,1,0,3:2:0:0:
462,315,82547,2,0,L|352:328,1,110,0|0,3:2|3:2,0:0:0:0:
307,359,82997,2,0,L|197:345,1,110,8|0,0:2|3:2,0:0:0:0:
98,310,83597,5,0,3:2:0:0:
98,310,83747,2,0,P|76:254|107:203,1,110,0|0,3:2|3:2,0:0:0:0:
141,180,84197,2,0,L|124:61,1,110,8|2,0:2|3:2,0:0:0:0:
229,28,84797,1,2,3:2:0:0:
229,28,84947,2,0,L|244:136,1,110,2|0,3:2|3:2,0:0:0:0:
287,171,85397,2,0,P|346:177|399:144,1,110,10|2,0:2|3:2,0:0:0:0:
487,100,85997,5,2,3:2:0:0:
487,100,86147,2,0,L|471:220,1,110,8|2,0:2|3:2,0:0:0:0:
486,262,86597,2,0,L|423:273,1,55,8|0,0:2|1:2,0:0:0:0:
389,306,86897,2,0,L|334:296,1,55,2|0,1:2|3:2,0:0:0:0:
296,335,87197,1,6,3:2:0:0:
79,323,94397,5,14,0:2:0:0:
79,323,94547,2,0,P|105:259|105:214,1,110,0|2,3:2|3:2,0:0:0:0:
244,126,95297,1,6,3:2:0:0:
244,126,95447,2,0,P|270:190|270:235,1,110,0|2,3:2|3:2,0:0:0:0:
348,307,96047,1,0,3:2:0:0:
348,307,96197,2,0,P|407:299|432:195,1,165,10|0,0:2|0:0,0:0:0:0:
400,169,96797,5,14,3:2:0:0:
480,93,97097,1,8,0:2:0:0:
391,27,97397,2,0,L|258:39,1,110,8|10,0:2|0:2,0:0:0:0:
204,115,97997,2,0,L|94:105,1,110,8|10,0:2|0:2,0:0:0:0:
40,201,98597,2,0,L|173:213,1,110,10|10,0:2|0:2,0:0:0:0:
201,307,99197,6,0,L|310:297,1,110,14|8,0:2|0:2,0:0:0:0:
419,279,99797,1,8,0:2:0:0:
346,196,100097,1,10,0:2:0:0:
436,133,100397,6,0,P|457:72|428:24,1,110,8|10,0:2|0:2,0:0:0:0:
340,82,100997,1,8,0:2:0:0:
237,41,101297,1,8,0:2:0:0:
149,107,101597,6,0,P|130:157|151:206,1,110,14|8,0:2|0:2,0:0:0:0:
234,277,102197,1,8,0:2:0:0:
299,188,102497,1,10,0:2:0:0:
374,268,102797,6,0,L|495:257,1,110,8|10,0:2|0:2,0:0:0:0:
510,151,103397,2,0,L|400:160,1,110,10|10,0:2|0:2,0:0:0:0:
308,100,103997,6,0,P|324:42|294:-2,1,110,14|8,0:2|0:2,0:0:0:0:
206,61,104597,1,8,0:2:0:0:
99,31,104897,1,10,0:2:0:0:
88,142,105197,6,0,L|106:256,1,110,8|8,0:2|0:2,0:0:0:0:
184,326,105797,2,0,L|201:217,1,110,8|8,0:2|0:2,0:0:0:0:
288,150,106397,6,0,L|306:264,1,110,14|8,0:2|0:2,0:0:0:0:
384,334,106997,2,0,L|401:225,1,110,8|10,0:2|0:2,0:0:0:0:
483,151,107597,5,8,0:2:0:0:
378,116,107897,1,10,0:2:0:0:
464,48,108197,1,10,0:2:0:0:
358,15,108497,1,10,0:2:0:0:
272,84,108797,6,0,P|202:108|161:137,1,110,14|8,0:2|0:2,0:0:0:0:
81,189,109397,2,0,P|151:213|192:242,1,110,8|10,0:2|0:2,0:0:0:0:
233,329,109997,1,8,0:2:0:0:
298,240,110297,1,10,0:2:0:0:
361,330,110597,2,0,P|417:343|462:305,1,110,8|10,0:2|0:2,0:0:0:0:
491,209,111197,6,0,L|471:98,1,110,14|8,0:2|0:2,0:0:0:0:
380,39,111797,2,0,L|360:147,1,110,8|10,0:2|0:2,0:0:0:0:
282,225,112397,2,0,P|236:248|159:223,1,110,8|8,0:2|0:2,0:0:0:0:
115,149,112997,2,0,P|61:139|12:162,1,110,8|8,0:2|0:2,0:0:0:0:
77,251,113597,5,14,0:2:0:0:
46,356,113897,1,8,0:2:0:0:
150,323,114197,1,8,0:2:0:0:
254,356,114497,1,10,3:2:0:0:
345,294,114797,6,0,P|392:263|455:278,1,110,8|0,0:2|3:2,0:0:0:0:
485,305,115247,1,0,3:2:0:0:
485,305,115397,2,0,P|468:227|463:133,1,165,8|8,0:2|0:2,0:0:0:0:
420,116,115997,5,6,0:2:0:0:
420,116,116147,2,0,P|376:142|318:138,1,110,0|0,3:2|3:2,0:0:0:0:
265,124,116597,2,0,L|272:250,1,110,8|2,0:2|0:2,0:0:0:0:
197,316,117197,1,2,3:2:0:0:
197,316,117347,2,0,P|149:289|95:293,1,110,0|2,3:2|3:2,0:0:0:0:
42,308,117796,2,0,L|48:198,1,110,8|2,0:2|0:2,0:0:0:0:
17,91,118397,5,6,3:2:0:0:
17,91,118547,2,0,P|74:117|122:87,1,110,0|2,3:2|3:2,0:0:0:0:
135,47,118997,1,8,0:2:0:0:
212,125,119297,1,2,0:2:0:0:
305,66,119597,5,2,3:2:0:0:
305,66,119747,2,0,L|423:55,1,110,0|2,3:2|3:2,0:0:0:0:
459,86,120197,1,8,0:2:0:0:
405,181,120497,1,2,0:2:0:0:
486,255,120797,5,6,3:2:0:0:
486,255,120947,2,0,P|503:305|481:355,1,110,0|0,3:2|3:2,0:0:0:0:
430,376,121397,2,0,L|303:363,1,110,8|0,0:2|0:0,0:0:0:0:
218,339,121997,1,0,3:2:0:0:
218,339,122147,2,0,P|239:290|228:222,1,110,0|0,3:2|3:2,0:0:0:0:
198,192,122597,2,0,L|89:212,1,110,8|0,0:2|0:0,0:0:0:0:
104,107,123197,5,6,3:2:0:0:
104,107,123347,2,0,L|212:86,1,110,2|2,3:2|3:2,0:0:0:0:
246,43,123797,2,0,P|265:93|330:116,1,110,10|2,0:2|0:2,0:0:0:0:
402,51,124397,5,10,0:2:0:0:
492,113,124697,1,10,0:2:0:0:
493,222,124997,1,10,0:2:0:0:
396,273,125297,1,10,0:2:0:0:
294,229,125597,5,6,0:2:0:0:
294,229,125747,2,0,P|245:252|226:302,1,110,0|0,3:2|3:2,0:0:0:0:
248,352,126197,2,0,L|119:344,1,110,8|2,0:2|0:2,0:0:0:0:
29,329,126797,1,2,3:2:0:0:
29,329,126947,2,0,P|46:288|30:227,1,110,0|2,3:2|3:2,0:0:0:0:
0,183,127397,2,0,L|116:166,1,110,8|2,0:2|0:2,0:0:0:0:
184,87,127997,5,6,3:2:0:0:
184,87,128147,2,0,L|292:102,1,110,0|2,3:2|3:2,0:0:0:0:
339,73,128597,2,0,P|322:124|339:175,1,110,8|2,0:2|0:2,0:0:0:0:
439,223,129197,1,2,3:2:0:0:
439,223,129347,2,0,L|428:339,1,110,0|2,3:2|3:2,0:0:0:0:
382,362,129797,2,0,P|339:329|272:347,1,110,8|2,0:2|0:2,0:0:0:0:
179,362,130397,5,6,3:2:0:0:
179,362,130547,2,0,L|62:350,1,110,0|0,3:2|3:2,0:0:0:0:
31,310,130997,1,8,0:2:0:0:
122,248,131297,1,0,0:0:0:0:
37,177,131597,5,0,3:2:0:0:
37,177,131747,2,0,P|19:130|57:80,1,110,0|0,3:2|3:2,0:0:0:0:
96,54,132197,1,8,0:2:0:0:
181,122,132497,1,0,0:0:0:0:
256,41,132797,5,6,3:2:0:0:
256,41,132947,2,0,L|371:32,1,110,2|2,3:2|3:2,0:0:0:0:
409,74,133397,1,10,0:2:0:0:
409,74,133547,2,0,P|384:113|394:189,1,110,2|2,3:2|3:2,0:0:0:0:
429,209,133997,5,10,0:2:0:0:
498,294,134297,1,8,0:2:0:0:
407,356,134597,1,0,3:2:0:0:
338,271,134897,1,10,0:2:0:0:
249,336,135197,6,0,L|129:331,1,110,6|0,3:2|0:0,0:0:0:0:
90,357,135647,2,0,P|105:313|48:200,1,165,0|8,3:2|0:2,0:0:0:0:
145,66,136547,2,0,L|264:82,1,110,0|0,3:2|3:2,0:0:0:0:
285,126,136997,2,0,L|394:111,1,110,8|0,0:2|3:2,0:0:0:0:
466,199,137597,6,0,L|356:213,1,110,4|0,3:2|0:0,0:0:0:0:
332,263,138047,2,0,L|222:277,1,110,0|0,3:2|3:2,0:0:0:0:
186,319,138497,1,8,0:2:0:0:
48,227,138947,2,0,P|37:165|66:126,1,110,0|0,3:2|3:2,0:0:0:0:
107,97,139397,2,0,L|233:111,1,110,8|0,0:2|3:2,0:0:0:0:
311,54,139997,6,0,B|405:47|376:117|475:104,2,165,6|2|10,3:2|3:2|0:2,0:0:0:0:
220,192,141347,2,0,P|236:262|245:308,1,110,0|0,3:2|3:2,0:0:0:0:
287,332,141797,2,0,P|344:314|395:343,1,110,8|0,0:2|3:2,0:0:0:0:
425,373,142247,1,0,3:2:0:0:
467,338,142397,1,4,1:2:0:0:
