osu file format v14

[General]
AudioFilename: audio.mp3
AudioLeadIn: 0
PreviewTime: 62326
Countdown: 0
SampleSet: Soft
StackLeniency: 0.7
Mode: 3
LetterboxInBreaks: 0
SpecialStyle: 0
WidescreenStoryboard: 0

[Editor]
DistanceSpacing: 0.1
BeatDivisor: 4
GridSize: 32
TimelineZoom: 2.599999

[Metadata]
Title:Joy of Living (Cut Ver.)
TitleUnicode:Joy of Living (Cut Ver.)
Artist:Wiklund
ArtistUnicode:Wiklund
Creator:Ly_tou
Version:Insane
Source:
Tags:Electronic Instrumental chiptune 8-bit 8 bit cheerful playful upbeat MG MPG Mappers' Guild FA Featured Artist Wing Beats Marcialus
BeatmapID:4473090
BeatmapSetID:2127811

[Difficulty]
HPDrainRate:8
CircleSize:10
OverallDifficulty:8
ApproachRate:5
SliderMultiplier:1.4
SliderTickRate:1

[Events]
//Background and Video events
0,0,"Rainbow_Overdose_Wallpaper_by_pronouncedyou.jpg",0,0
//Break Periods
//Storyboard Layer 0 (Background)
//Storyboard Layer 1 (Fail)
//Storyboard Layer 2 (Pass)
//Storyboard Layer 3 (Foreground)
//Storyboard Layer 4 (Overlay)
//Storyboard Sound Samples

[TimingPoints]
1050,319.148936170212,4,2,1,30,1,0
16369,-100,4,2,1,30,0,1
31688,-100,4,2,1,30,0,0
62326,-100,4,2,1,30,0,1
76369,-100,4,2,1,30,0,0
108284,-100,4,2,1,30,0,1
118496,-100,4,2,1,30,0,0

[HitObjects]
486,192,1050,128,0,2326:0:0:0:0:
179,192,1050,1,0,0:0:0:0:
76,192,1209,1,0,0:0:0:0:
281,192,1369,1,0,0:0:0:0:
179,192,1528,1,0,0:0:0:0:
384,192,1688,1,0,0:0:0:0:
281,192,1847,1,0,0:0:0:0:
76,192,2007,1,0,0:0:0:0:
128,192,2167,1,0,0:0:0:0:
332,192,2326,128,0,3603:0:0:0:0:
179,192,2326,1,0,0:0:0:0:
25,192,2486,1,0,0:0:0:0:
281,192,2645,1,0,0:0:0:0:
128,192,2805,1,0,0:0:0:0:
435,192,2964,1,0,0:0:0:0:
230,192,3124,1,0,0:0:0:0:
486,192,3284,1,0,0:0:0:0:
76,192,3443,1,0,0:0:0:0:
179,192,3603,128,0,4879:0:0:0:0:
76,192,3603,1,0,0:0:0:0:
281,192,3762,1,0,0:0:0:0:
128,192,3922,1,0,0:0:0:0:
384,192,4081,1,0,0:0:0:0:
230,192,4241,1,0,0:0:0:0:
486,192,4401,1,0,0:0:0:0:
332,192,4560,1,0,0:0:0:0:
384,192,4720,1,0,0:0:0:0:
25,192,4879,128,0,6156:0:0:0:0:
435,192,4879,1,0,0:0:0:0:
281,192,5039,1,0,0:0:0:0:
230,192,5198,1,0,0:0:0:0:
179,192,5358,1,0,0:0:0:0:
384,192,5518,1,0,0:0:0:0:
230,192,5677,1,0,0:0:0:0:
332,192,5837,1,0,0:0:0:0:
128,192,5996,1,0,0:0:0:0:
486,192,6156,128,0,7432:0:0:0:0:
230,192,6156,1,0,0:0:0:0:
435,192,6156,1,0,0:0:0:0:
76,192,6315,1,0,0:0:0:0:
332,192,6475,1,0,0:0:0:0:
179,192,6555,1,0,0:0:0:0:
128,192,6595,1,0,0:0:0:0:
76,192,6635,1,0,0:0:0:0:
25,192,6674,1,0,0:0:0:0:
384,192,6714,1,0,0:0:0:0:
384,192,6794,1,0,0:0:0:0:
230,192,6954,1,0,0:0:0:0:
76,192,7113,1,0,0:0:0:0:
128,192,7273,1,0,0:0:0:0:
332,192,7432,128,0,8709:0:0:0:0:
179,192,7432,1,0,0:0:0:0:
25,192,7592,1,0,0:0:0:0:
281,192,7752,1,0,0:0:0:0:
76,192,7831,1,0,0:0:0:0:
128,192,7871,1,0,0:0:0:0:
179,192,7911,1,0,0:0:0:0:
230,192,7951,1,0,0:0:0:0:
435,192,7991,1,0,0:0:0:0:
435,192,8071,1,0,0:0:0:0:
25,192,8230,1,0,0:0:0:0:
486,192,8390,1,0,0:0:0:0:
76,192,8549,1,0,0:0:0:0:
179,192,8709,128,0,9986:0:0:0:0:
76,192,8709,1,0,0:0:0:0:
281,192,8869,1,0,0:0:0:0:
128,192,9028,1,0,0:0:0:0:
486,192,9108,1,0,0:0:0:0:
435,192,9148,1,0,0:0:0:0:
384,192,9188,1,0,0:0:0:0:
332,192,9228,1,0,0:0:0:0:
76,192,9268,1,0,0:0:0:0:
76,192,9347,1,0,0:0:0:0:
486,192,9507,1,0,0:0:0:0:
281,192,9667,1,0,0:0:0:0:
332,192,9826,1,0,0:0:0:0:
25,192,9986,128,0,11262:0:0:0:0:
384,192,9986,1,0,0:0:0:0:
281,192,10145,1,0,0:0:0:0:
76,192,10305,1,0,0:0:0:0:
332,192,10385,1,0,0:0:0:0:
384,192,10424,1,0,0:0:0:0:
435,192,10464,1,0,0:0:0:0:
486,192,10504,1,0,0:0:0:0:
128,192,10544,1,0,0:0:0:0:
128,192,10624,1,0,0:0:0:0:
332,192,10784,1,0,0:0:0:0:
179,192,10943,1,0,0:0:0:0:
384,192,11103,1,0,0:0:0:0:
486,192,11262,128,0,12539:0:0:0:0:
230,192,11262,1,0,0:0:0:0:
76,192,11422,1,0,0:0:0:0:
332,192,11581,1,0,0:0:0:0:
179,192,11661,1,0,0:0:0:0:
128,192,11701,1,0,0:0:0:0:
76,192,11741,1,0,0:0:0:0:
25,192,11781,1,0,0:0:0:0:
384,192,11821,1,0,0:0:0:0:
384,192,11901,1,0,0:0:0:0:
230,192,12060,1,0,0:0:0:0:
76,192,12220,1,0,0:0:0:0:
128,192,12379,1,0,0:0:0:0:
179,192,12539,1,0,0:0:0:0:
332,192,12539,128,0,13815:0:0:0:0:
25,192,12698,1,0,0:0:0:0:
281,192,12858,1,0,0:0:0:0:
76,192,12938,1,0,0:0:0:0:
128,192,12978,1,0,0:0:0:0:
179,192,13018,1,0,0:0:0:0:
230,192,13057,1,0,0:0:0:0:
435,192,13097,1,0,0:0:0:0:
435,192,13177,1,0,0:0:0:0:
25,192,13337,1,0,0:0:0:0:
486,192,13496,1,0,0:0:0:0:
76,192,13656,1,0,0:0:0:0:
179,192,13815,128,0,15092:0:0:0:0:
76,192,13815,1,0,0:0:0:0:
281,192,13975,1,0,0:0:0:0:
128,192,14135,1,0,0:0:0:0:
486,192,14214,1,0,0:0:0:0:
435,192,14254,1,0,0:0:0:0:
384,192,14294,1,0,0:0:0:0:
332,192,14334,1,0,0:0:0:0:
76,192,14374,1,0,0:0:0:0:
76,192,14454,1,0,0:0:0:0:
486,192,14613,1,0,0:0:0:0:
281,192,14773,1,0,0:0:0:0:
332,192,14932,1,0,0:0:0:0:
25,192,15092,128,0,16369:0:0:0:0:
384,192,15092,1,0,0:0:0:0:
281,192,15252,1,0,0:0:0:0:
128,192,15411,1,0,0:0:0:0:
332,192,15491,1,0,0:0:0:0:
384,192,15531,1,0,0:0:0:0:
435,192,15571,1,0,0:0:0:0:
486,192,15611,1,0,0:0:0:0:
179,192,15651,1,0,0:0:0:0:
179,192,15730,1,0,0:0:0:0:
332,192,15890,1,0,0:0:0:0:
128,192,15890,128,0,16369:0:0:0:0:
230,192,15970,1,0,0:0:0:0:
332,192,16049,1,0,0:0:0:0:
435,192,16209,1,0,0:0:0:0:
230,192,16369,1,0,0:0:0:0:
281,192,16369,1,0,0:0:0:0:
486,192,16369,1,0,0:0:0:0:
332,192,16369,1,0,0:0:0:0:
179,192,16528,1,0,0:0:0:0:
332,192,16608,1,0,0:0:0:0:
435,192,16688,1,0,0:0:0:0:
179,192,16688,1,0,0:0:0:0:
76,192,16688,1,0,0:0:0:0:
332,192,16847,1,0,0:0:0:0:
435,192,17007,1,0,0:0:0:0:
25,192,17007,1,0,0:0:0:0:
230,192,17007,1,0,0:0:0:0:
179,192,17167,1,0,0:0:0:0:
332,192,17246,1,0,0:0:0:0:
435,192,17326,1,0,0:0:0:0:
179,192,17326,1,0,0:0:0:0:
76,192,17326,1,0,0:0:0:0:
332,192,17486,1,0,0:0:0:0:
76,192,17645,1,0,0:0:0:0:
486,192,17645,1,0,0:0:0:0:
435,192,17645,1,0,0:0:0:0:
179,192,17805,1,0,0:0:0:0:
281,192,17885,1,0,0:0:0:0:
25,192,17964,1,0,0:0:0:0:
179,192,17964,1,0,0:0:0:0:
384,192,17964,1,0,0:0:0:0:
281,192,18124,1,0,0:0:0:0:
128,192,18284,1,0,0:0:0:0:
76,192,18284,1,0,0:0:0:0:
384,192,18284,1,0,0:0:0:0:
179,192,18443,1,0,0:0:0:0:
281,192,18523,1,0,0:0:0:0:
384,192,18603,1,0,0:0:0:0:
179,192,18603,1,0,0:0:0:0:
25,192,18603,1,0,0:0:0:0:
384,192,18762,1,0,0:0:0:0:
25,192,18762,1,0,0:0:0:0:
435,192,18762,1,0,0:0:0:0:
179,192,18922,1,0,0:0:0:0:
128,192,18922,1,0,0:0:0:0:
332,192,18922,1,0,0:0:0:0:
230,192,19081,1,0,0:0:0:0:
486,192,19161,1,0,0:0:0:0:
332,192,19241,1,0,0:0:0:0:
230,192,19241,1,0,0:0:0:0:
76,192,19241,1,0,0:0:0:0:
486,192,19401,1,0,0:0:0:0:
332,192,19560,1,0,0:0:0:0:
25,192,19560,1,0,0:0:0:0:
179,192,19560,1,0,0:0:0:0:
230,192,19720,1,0,0:0:0:0:
486,192,19799,1,0,0:0:0:0:
230,192,19879,1,0,0:0:0:0:
332,192,19879,1,0,0:0:0:0:
76,192,19879,1,0,0:0:0:0:
486,192,20039,1,0,0:0:0:0:
281,192,20198,1,0,0:0:0:0:
179,192,20198,1,0,0:0:0:0:
128,192,20198,1,0,0:0:0:0:
76,192,20358,1,0,0:0:0:0:
435,192,20438,1,0,0:0:0:0:
281,192,20518,1,0,0:0:0:0:
179,192,20518,1,0,0:0:0:0:
76,192,20518,1,0,0:0:0:0:
435,192,20677,1,0,0:0:0:0:
281,192,20837,1,0,0:0:0:0:
25,192,20837,1,0,0:0:0:0:
230,192,20837,1,0,0:0:0:0:
76,192,20996,1,0,0:0:0:0:
435,192,21076,1,0,0:0:0:0:
76,192,21156,1,0,0:0:0:0:
179,192,21156,1,0,0:0:0:0:
281,192,21156,1,0,0:0:0:0:
179,192,21315,1,0,0:0:0:0:
281,192,21315,1,0,0:0:0:0:
332,192,21315,1,0,0:0:0:0:
230,192,21475,1,0,0:0:0:0:
25,192,21475,1,0,0:0:0:0:
486,192,21475,1,0,0:0:0:0:
332,192,21635,1,0,0:0:0:0:
179,192,21714,1,0,0:0:0:0:
76,192,21794,1,0,0:0:0:0:
332,192,21794,1,0,0:0:0:0:
435,192,21794,1,0,0:0:0:0:
179,192,21954,1,0,0:0:0:0:
76,192,22113,1,0,0:0:0:0:
486,192,22113,1,0,0:0:0:0:
281,192,22113,1,0,0:0:0:0:
332,192,22273,1,0,0:0:0:0:
179,192,22353,1,0,0:0:0:0:
76,192,22432,1,0,0:0:0:0:
332,192,22432,1,0,0:0:0:0:
435,192,22432,1,0,0:0:0:0:
179,192,22592,1,0,0:0:0:0:
435,192,22752,1,0,0:0:0:0:
25,192,22752,1,0,0:0:0:0:
76,192,22752,1,0,0:0:0:0:
332,192,22911,1,0,0:0:0:0:
230,192,22991,1,0,0:0:0:0:
486,192,23071,1,0,0:0:0:0:
332,192,23071,1,0,0:0:0:0:
128,192,23071,1,0,0:0:0:0:
230,192,23230,1,0,0:0:0:0:
384,192,23390,1,0,0:0:0:0:
435,192,23390,1,0,0:0:0:0:
128,192,23390,1,0,0:0:0:0:
332,192,23549,1,0,0:0:0:0:
230,192,23629,1,0,0:0:0:0:
128,192,23709,1,0,0:0:0:0:
332,192,23709,1,0,0:0:0:0:
486,192,23709,1,0,0:0:0:0:
230,192,23869,1,0,0:0:0:0:
384,192,24028,1,0,0:0:0:0:
435,192,24028,1,0,0:0:0:0:
128,192,24028,1,0,0:0:0:0:
281,192,24188,1,0,0:0:0:0:
25,192,24268,1,0,0:0:0:0:
179,192,24347,1,0,0:0:0:0:
281,192,24347,1,0,0:0:0:0:
435,192,24347,1,0,0:0:0:0:
25,192,24507,1,0,0:0:0:0:
179,192,24667,1,0,0:0:0:0:
486,192,24667,1,0,0:0:0:0:
332,192,24667,1,0,0:0:0:0:
281,192,24826,1,0,0:0:0:0:
25,192,24906,1,0,0:0:0:0:
281,192,24986,1,0,0:0:0:0:
179,192,24986,1,0,0:0:0:0:
384,192,24986,1,0,0:0:0:0:
179,192,25145,1,0,0:0:0:0:
128,192,25145,1,0,0:0:0:0:
384,192,25145,1,0,0:0:0:0:
281,192,25305,1,0,0:0:0:0:
25,192,25305,1,0,0:0:0:0:
332,192,25305,1,0,0:0:0:0:
435,192,25464,1,0,0:0:0:0:
76,192,25544,1,0,0:0:0:0:
230,192,25624,1,0,0:0:0:0:
435,192,25624,1,0,0:0:0:0:
332,192,25624,1,0,0:0:0:0:
76,192,25784,1,0,0:0:0:0:
230,192,25943,1,0,0:0:0:0:
486,192,25943,1,0,0:0:0:0:
281,192,25943,1,0,0:0:0:0:
435,192,26103,1,0,0:0:0:0:
76,192,26182,1,0,0:0:0:0:
332,192,26262,1,0,0:0:0:0:
435,192,26262,1,0,0:0:0:0:
230,192,26262,1,0,0:0:0:0:
76,192,26422,1,0,0:0:0:0:
281,192,26581,1,0,0:0:0:0:
486,192,26581,1,0,0:0:0:0:
25,192,26581,1,0,0:0:0:0:
179,192,26741,1,0,0:0:0:0:
332,192,26821,1,0,0:0:0:0:
76,192,26901,1,0,0:0:0:0:
179,192,26901,1,0,0:0:0:0:
435,192,26901,1,0,0:0:0:0:
332,192,27060,1,0,0:0:0:0:
230,192,27220,1,0,0:0:0:0:
25,192,27220,1,0,0:0:0:0:
435,192,27220,1,0,0:0:0:0:
179,192,27379,1,0,0:0:0:0:
332,192,27459,1,0,0:0:0:0:
76,192,27539,1,0,0:0:0:0:
179,192,27539,1,0,0:0:0:0:
435,192,27539,1,0,0:0:0:0:
332,192,27698,1,0,0:0:0:0:
435,192,27858,1,0,0:0:0:0:
486,192,27858,1,0,0:0:0:0:
76,192,27858,1,0,0:0:0:0:
179,192,28018,1,0,0:0:0:0:
281,192,28097,1,0,0:0:0:0:
384,192,28177,1,0,0:0:0:0:
179,192,28177,1,0,0:0:0:0:
25,192,28177,1,0,0:0:0:0:
281,192,28337,1,0,0:0:0:0:
384,192,28496,1,0,0:0:0:0:
76,192,28496,1,0,0:0:0:0:
128,192,28496,1,0,0:0:0:0:
179,192,28656,1,0,0:0:0:0:
281,192,28736,1,0,0:0:0:0:
25,192,28815,1,0,0:0:0:0:
179,192,28815,1,0,0:0:0:0:
384,192,28815,1,0,0:0:0:0:
435,192,28975,1,0,0:0:0:0:
25,192,28975,1,0,0:0:0:0:
384,192,28975,1,0,0:0:0:0:
332,192,29135,1,0,0:0:0:0:
128,192,29135,1,0,0:0:0:0:
179,192,29135,1,0,0:0:0:0:
230,192,29294,1,0,0:0:0:0:
486,192,29374,1,0,0:0:0:0:
76,192,29454,1,0,0:0:0:0:
230,192,29454,1,0,0:0:0:0:
332,192,29454,1,0,0:0:0:0:
486,192,29613,1,0,0:0:0:0:
179,192,29773,1,0,0:0:0:0:
25,192,29773,1,0,0:0:0:0:
332,192,29773,1,0,0:0:0:0:
230,192,29932,1,0,0:0:0:0:
486,192,30012,1,0,0:0:0:0:
76,192,30092,1,0,0:0:0:0:
332,192,30092,1,0,0:0:0:0:
230,192,30092,1,0,0:0:0:0:
486,192,30252,1,0,0:0:0:0:
128,192,30411,1,0,0:0:0:0:
179,192,30411,1,0,0:0:0:0:
281,192,30411,1,0,0:0:0:0:
76,192,30571,1,0,0:0:0:0:
435,192,30651,1,0,0:0:0:0:
76,192,30730,1,0,0:0:0:0:
179,192,30730,1,0,0:0:0:0:
281,192,30730,1,0,0:0:0:0:
435,192,30890,1,0,0:0:0:0:
230,192,31049,1,0,0:0:0:0:
25,192,31049,1,0,0:0:0:0:
281,192,31049,1,0,0:0:0:0:
384,192,31209,1,0,0:0:0:0:
332,192,31209,1,0,0:0:0:0:
179,192,31289,1,0,0:0:0:0:
128,192,31289,1,0,0:0:0:0:
384,192,31369,1,0,0:0:0:0:
332,192,31369,1,0,0:0:0:0:
179,192,31448,1,0,0:0:0:0:
128,192,31448,1,0,0:0:0:0:
332,192,31528,1,0,0:0:0:0:
384,192,31528,1,0,0:0:0:0:
179,192,31608,1,0,0:0:0:0:
128,192,31608,1,0,0:0:0:0:
281,192,31688,1,0,0:0:0:0:
25,192,31688,1,0,0:0:0:0:
486,192,31688,128,0,31847:0:0:0:0:
230,192,31688,1,0,0:0:0:0:
435,192,32007,128,0,32326:0:0:0:0:
230,192,32007,1,0,0:0:0:0:
76,192,32007,1,0,0:0:0:0:
332,192,32167,128,0,32326:0:0:0:0:
179,192,32326,1,0,0:0:0:0:
179,192,32486,1,0,0:0:0:0:
281,192,32645,128,0,32805:0:0:0:0:
76,192,32645,1,0,0:0:0:0:
230,192,32645,1,0,0:0:0:0:
384,192,32964,128,0,33124:0:0:0:0:
128,192,32964,1,0,0:0:0:0:
25,192,33284,1,0,0:0:0:0:
486,192,33284,128,0,33443:0:0:0:0:
230,192,33284,1,0,0:0:0:0:
332,192,33603,128,0,33922:0:0:0:0:
128,192,33603,1,0,0:0:0:0:
435,192,33762,128,0,33922:0:0:0:0:
128,192,33762,1,0,0:0:0:0:
25,192,33922,1,0,0:0:0:0:
230,192,33922,1,0,0:0:0:0:
281,192,34081,128,0,34241:0:0:0:0:
76,192,34241,1,0,0:0:0:0:
486,192,34401,128,0,34720:0:0:0:0:
384,192,34560,128,0,34720:0:0:0:0:
128,192,34560,1,0,0:0:0:0:
230,192,34560,1,0,0:0:0:0:
332,192,34879,128,0,35039:0:0:0:0:
76,192,34879,1,0,0:0:0:0:
76,192,35039,1,0,0:0:0:0:
281,192,35198,128,0,35518:0:0:0:0:
128,192,35198,1,0,0:0:0:0:
230,192,35198,1,0,0:0:0:0:
435,192,35358,128,0,35518:0:0:0:0:
179,192,35518,1,0,0:0:0:0:
384,192,35677,128,0,35837:0:0:0:0:
76,192,35837,1,0,0:0:0:0:
230,192,35837,1,0,0:0:0:0:
486,192,35996,128,0,36315:0:0:0:0:
332,192,36156,128,0,36315:0:0:0:0:
179,192,36156,1,0,0:0:0:0:
179,192,36315,1,0,0:0:0:0:
281,192,36475,128,0,36635:0:0:0:0:
76,192,36475,1,0,0:0:0:0:
230,192,36475,1,0,0:0:0:0:
25,192,36794,128,0,36954:0:0:0:0:
332,192,36794,1,0,0:0:0:0:
76,192,37113,128,0,37432:0:0:0:0:
281,192,37113,1,0,0:0:0:0:
435,192,37113,1,0,0:0:0:0:
179,192,37273,128,0,37432:0:0:0:0:
332,192,37432,1,0,0:0:0:0:
332,192,37592,1,0,0:0:0:0:
230,192,37752,128,0,37911:0:0:0:0:
435,192,37752,1,0,0:0:0:0:
281,192,37752,1,0,0:0:0:0:
128,192,38071,128,0,38230:0:0:0:0:
384,192,38071,1,0,0:0:0:0:
486,192,38390,1,0,0:0:0:0:
25,192,38390,128,0,38549:0:0:0:0:
281,192,38390,1,0,0:0:0:0:
179,192,38709,128,0,39028:0:0:0:0:
384,192,38709,1,0,0:0:0:0:
76,192,38869,128,0,39028:0:0:0:0:
384,192,38869,1,0,0:0:0:0:
486,192,39028,1,0,0:0:0:0:
281,192,39028,1,0,0:0:0:0:
230,192,39188,128,0,39347:0:0:0:0:
435,192,39347,1,0,0:0:0:0:
25,192,39507,128,0,39826:0:0:0:0:
128,192,39667,128,0,39826:0:0:0:0:
384,192,39667,1,0,0:0:0:0:
281,192,39667,1,0,0:0:0:0:
179,192,39986,128,0,40145:0:0:0:0:
435,192,39986,1,0,0:0:0:0:
435,192,40145,1,0,0:0:0:0:
230,192,40305,128,0,40624:0:0:0:0:
384,192,40305,1,0,0:0:0:0:
281,192,40305,1,0,0:0:0:0:
76,192,40464,128,0,40624:0:0:0:0:
332,192,40624,1,0,0:0:0:0:
128,192,40784,128,0,40943:0:0:0:0:
435,192,40943,1,0,0:0:0:0:
281,192,40943,1,0,0:0:0:0:
25,192,41103,128,0,41422:0:0:0:0:
179,192,41262,128,0,41422:0:0:0:0:
332,192,41262,1,0,0:0:0:0:
332,192,41422,1,0,0:0:0:0:
230,192,41581,128,0,41741:0:0:0:0:
435,192,41581,1,0,0:0:0:0:
281,192,41581,1,0,0:0:0:0:
25,192,41901,1,0,0:0:0:0:
230,192,41901,1,0,0:0:0:0:
486,192,41901,1,0,0:0:0:0:
332,192,42060,1,0,0:0:0:0:
435,192,42220,1,0,0:0:0:0:
179,192,42220,1,0,0:0:0:0:
76,192,42220,1,0,0:0:0:0:
332,192,42379,1,0,0:0:0:0:
435,192,42539,1,0,0:0:0:0:
25,192,42539,1,0,0:0:0:0:
230,192,42539,1,0,0:0:0:0:
332,192,42698,1,0,0:0:0:0:
435,192,42858,1,0,0:0:0:0:
179,192,42858,1,0,0:0:0:0:
76,192,42858,1,0,0:0:0:0:
332,192,43018,1,0,0:0:0:0:
76,192,43177,1,0,0:0:0:0:
486,192,43177,1,0,0:0:0:0:
128,192,43177,1,0,0:0:0:0:
281,192,43337,1,0,0:0:0:0:
25,192,43496,1,0,0:0:0:0:
179,192,43496,1,0,0:0:0:0:
384,192,43496,1,0,0:0:0:0:
281,192,43656,1,0,0:0:0:0:
128,192,43815,1,0,0:0:0:0:
76,192,43815,1,0,0:0:0:0:
384,192,43815,1,0,0:0:0:0:
281,192,43975,1,0,0:0:0:0:
384,192,44135,1,0,0:0:0:0:
179,192,44135,1,0,0:0:0:0:
25,192,44135,1,0,0:0:0:0:
281,192,44294,1,0,0:0:0:0:
179,192,44454,1,0,0:0:0:0:
128,192,44454,1,0,0:0:0:0:
384,192,44454,1,0,0:0:0:0:
486,192,44613,1,0,0:0:0:0:
332,192,44773,1,0,0:0:0:0:
230,192,44773,1,0,0:0:0:0:
76,192,44773,1,0,0:0:0:0:
486,192,44932,1,0,0:0:0:0:
332,192,45092,1,0,0:0:0:0:
128,192,45092,1,0,0:0:0:0:
179,192,45092,1,0,0:0:0:0:
486,192,45252,1,0,0:0:0:0:
230,192,45411,1,0,0:0:0:0:
332,192,45411,1,0,0:0:0:0:
76,192,45411,1,0,0:0:0:0:
486,192,45571,1,0,0:0:0:0:
281,192,45730,1,0,0:0:0:0:
179,192,45730,1,0,0:0:0:0:
128,192,45730,1,0,0:0:0:0:
435,192,45890,1,0,0:0:0:0:
281,192,46049,1,0,0:0:0:0:
179,192,46049,1,0,0:0:0:0:
76,192,46049,1,0,0:0:0:0:
435,192,46209,1,0,0:0:0:0:
281,192,46369,1,0,0:0:0:0:
25,192,46369,1,0,0:0:0:0:
230,192,46369,1,0,0:0:0:0:
435,192,46528,1,0,0:0:0:0:
76,192,46688,1,0,0:0:0:0:
179,192,46688,1,0,0:0:0:0:
281,192,46688,1,0,0:0:0:0:
384,192,46847,1,0,0:0:0:0:
230,192,47007,1,0,0:0:0:0:
25,192,47007,1,0,0:0:0:0:
486,192,47007,1,0,0:0:0:0:
179,192,47167,1,0,0:0:0:0:
76,192,47326,1,0,0:0:0:0:
332,192,47326,1,0,0:0:0:0:
435,192,47326,1,0,0:0:0:0:
179,192,47486,1,0,0:0:0:0:
76,192,47645,1,0,0:0:0:0:
486,192,47645,1,0,0:0:0:0:
281,192,47645,1,0,0:0:0:0:
179,192,47805,1,0,0:0:0:0:
76,192,47964,1,0,0:0:0:0:
332,192,47964,1,0,0:0:0:0:
435,192,47964,1,0,0:0:0:0:
179,192,48124,1,0,0:0:0:0:
435,192,48284,1,0,0:0:0:0:
76,192,48284,1,0,0:0:0:0:
384,192,48284,1,0,0:0:0:0:
230,192,48443,1,0,0:0:0:0:
486,192,48603,1,0,0:0:0:0:
332,192,48603,1,0,0:0:0:0:
128,192,48603,1,0,0:0:0:0:
230,192,48762,1,0,0:0:0:0:
384,192,48922,1,0,0:0:0:0:
435,192,48922,1,0,0:0:0:0:
128,192,48922,1,0,0:0:0:0:
230,192,49081,1,0,0:0:0:0:
128,192,49241,1,0,0:0:0:0:
332,192,49241,1,0,0:0:0:0:
486,192,49241,1,0,0:0:0:0:
230,192,49401,1,0,0:0:0:0:
384,192,49560,1,0,0:0:0:0:
435,192,49560,1,0,0:0:0:0:
128,192,49560,1,0,0:0:0:0:
25,192,49720,1,0,0:0:0:0:
179,192,49879,1,0,0:0:0:0:
281,192,49879,1,0,0:0:0:0:
435,192,49879,1,0,0:0:0:0:
25,192,50039,1,0,0:0:0:0:
179,192,50198,1,0,0:0:0:0:
384,192,50198,1,0,0:0:0:0:
332,192,50198,1,0,0:0:0:0:
25,192,50358,1,0,0:0:0:0:
281,192,50518,1,0,0:0:0:0:
179,192,50518,1,0,0:0:0:0:
435,192,50518,1,0,0:0:0:0:
25,192,50677,1,0,0:0:0:0:
332,192,50837,1,0,0:0:0:0:
179,192,50837,1,0,0:0:0:0:
384,192,50837,1,0,0:0:0:0:
76,192,50996,1,0,0:0:0:0:
230,192,51156,1,0,0:0:0:0:
435,192,51156,1,0,0:0:0:0:
332,192,51156,1,0,0:0:0:0:
76,192,51315,1,0,0:0:0:0:
230,192,51475,1,0,0:0:0:0:
486,192,51475,1,0,0:0:0:0:
281,192,51475,1,0,0:0:0:0:
76,192,51635,1,0,0:0:0:0:
332,192,51794,1,0,0:0:0:0:
435,192,51794,1,0,0:0:0:0:
230,192,51794,1,0,0:0:0:0:
179,192,51954,1,0,0:0:0:0:
281,192,52113,1,0,0:0:0:0:
486,192,52113,1,0,0:0:0:0:
76,192,52113,128,0,52273:0:0:0:0:
384,192,52113,1,0,0:0:0:0:
179,192,52273,128,0,52432:0:0:0:0:
76,192,52432,128,0,52592:0:0:0:0:
179,192,52592,128,0,52752:0:0:0:0:
76,192,52752,128,0,52911:0:0:0:0:
179,192,52911,128,0,53071:0:0:0:0:
435,192,53071,1,0,0:0:0:0:
76,192,53071,128,0,53230:0:0:0:0:
179,192,53230,128,0,53390:0:0:0:0:
25,192,53390,1,0,0:0:0:0:
384,192,53390,128,0,53549:0:0:0:0:
281,192,53549,128,0,53709:0:0:0:0:
384,192,53709,128,0,53869:0:0:0:0:
281,192,53869,128,0,54028:0:0:0:0:
384,192,54028,128,0,54188:0:0:0:0:
281,192,54188,128,0,54347:0:0:0:0:
128,192,54347,1,0,0:0:0:0:
384,192,54347,128,0,54507:0:0:0:0:
281,192,54507,128,0,54667:0:0:0:0:
486,192,54667,1,0,0:0:0:0:
25,192,54667,128,0,54826:0:0:0:0:
179,192,54826,128,0,54986:0:0:0:0:
25,192,54986,128,0,55145:0:0:0:0:
179,192,55145,128,0,55305:0:0:0:0:
25,192,55305,128,0,55464:0:0:0:0:
179,192,55464,128,0,55624:0:0:0:0:
332,192,55624,1,0,0:0:0:0:
25,192,55624,128,0,55784:0:0:0:0:
332,192,55704,1,0,0:0:0:0:
179,192,55784,128,0,55943:0:0:0:0:
435,192,55943,128,0,56103:0:0:0:0:
76,192,55943,1,0,0:0:0:0:
281,192,56103,128,0,56262:0:0:0:0:
435,192,56262,128,0,56422:0:0:0:0:
281,192,56422,128,0,56581:0:0:0:0:
128,192,56581,1,0,0:0:0:0:
435,192,56581,128,0,56741:0:0:0:0:
281,192,56741,128,0,56901:0:0:0:0:
128,192,56901,1,0,0:0:0:0:
435,192,56901,128,0,57060:0:0:0:0:
281,192,57060,128,0,57220:0:0:0:0:
76,192,57220,128,0,57379:0:0:0:0:
384,192,57220,1,0,0:0:0:0:
179,192,57379,128,0,57539:0:0:0:0:
76,192,57539,128,0,57698:0:0:0:0:
179,192,57698,128,0,57858:0:0:0:0:
76,192,57858,128,0,58018:0:0:0:0:
179,192,58018,128,0,58177:0:0:0:0:
435,192,58177,1,0,0:0:0:0:
76,192,58177,128,0,58337:0:0:0:0:
179,192,58337,128,0,58496:0:0:0:0:
25,192,58496,1,0,0:0:0:0:
384,192,58496,128,0,58656:0:0:0:0:
281,192,58656,128,0,58815:0:0:0:0:
384,192,58815,128,0,58975:0:0:0:0:
281,192,58975,128,0,59135:0:0:0:0:
384,192,59135,128,0,59294:0:0:0:0:
281,192,59294,128,0,59454:0:0:0:0:
128,192,59454,1,0,0:0:0:0:
384,192,59454,128,0,59613:0:0:0:0:
281,192,59613,128,0,59773:0:0:0:0:
435,192,59773,1,0,0:0:0:0:
25,192,59773,128,0,59932:0:0:0:0:
179,192,59932,128,0,60092:0:0:0:0:
25,192,60092,128,0,60252:0:0:0:0:
179,192,60252,128,0,60411:0:0:0:0:
25,192,60411,128,0,60571:0:0:0:0:
179,192,60571,128,0,60730:0:0:0:0:
25,192,60730,128,0,60890:0:0:0:0:
384,192,60730,1,0,0:0:0:0:
384,192,60810,1,0,0:0:0:0:
179,192,60890,128,0,61049:0:0:0:0:
230,192,61049,1,0,0:0:0:0:
435,192,61049,1,0,0:0:0:0:
25,192,61049,1,0,0:0:0:0:
281,192,61209,1,0,0:0:0:0:
179,192,61369,1,0,0:0:0:0:
76,192,61369,1,0,0:0:0:0:
384,192,61369,1,0,0:0:0:0:
281,192,61528,1,0,0:0:0:0:
435,192,61688,1,0,0:0:0:0:
25,192,61688,1,0,0:0:0:0:
230,192,61688,1,0,0:0:0:0:
384,192,61847,1,0,0:0:0:0:
332,192,61847,1,0,0:0:0:0:
128,192,61927,1,0,0:0:0:0:
179,192,61927,1,0,0:0:0:0:
332,192,62007,1,0,0:0:0:0:
384,192,62007,1,0,0:0:0:0:
179,192,62087,1,0,0:0:0:0:
128,192,62087,1,0,0:0:0:0:
332,192,62167,1,0,0:0:0:0:
384,192,62167,1,0,0:0:0:0:
179,192,62246,1,0,0:0:0:0:
128,192,62246,1,0,0:0:0:0:
25,192,62326,1,0,0:0:0:0:
281,192,62326,1,0,0:0:0:0:
486,192,62326,1,0,0:0:0:0:
230,192,62326,1,0,0:0:0:0:
281,192,62486,1,0,0:0:0:0:
384,192,62565,1,0,0:0:0:0:
281,192,62645,1,0,0:0:0:0:
76,192,62645,1,0,0:0:0:0:
128,192,62645,1,0,0:0:0:0:
281,192,62805,1,0,0:0:0:0:
281,192,62964,1,0,0:0:0:0:
25,192,62964,1,0,0:0:0:0:
230,192,62964,1,0,0:0:0:0:
281,192,63124,1,0,0:0:0:0:
384,192,63204,1,0,0:0:0:0:
281,192,63284,1,0,0:0:0:0:
128,192,63284,1,0,0:0:0:0:
179,192,63284,1,0,0:0:0:0:
281,192,63443,1,0,0:0:0:0:
384,192,63523,1,0,0:0:0:0:
179,192,63603,1,0,0:0:0:0:
230,192,63603,1,0,0:0:0:0:
486,192,63603,1,0,0:0:0:0:
179,192,63762,1,0,0:0:0:0:
76,192,63842,1,0,0:0:0:0:
179,192,63922,1,0,0:0:0:0:
384,192,63922,1,0,0:0:0:0:
435,192,63922,1,0,0:0:0:0:
179,192,64081,1,0,0:0:0:0:
179,192,64241,1,0,0:0:0:0:
281,192,64241,1,0,0:0:0:0:
486,192,64241,1,0,0:0:0:0:
179,192,64401,1,0,0:0:0:0:
76,192,64480,1,0,0:0:0:0:
179,192,64560,1,0,0:0:0:0:
435,192,64560,1,0,0:0:0:0:
384,192,64560,1,0,0:0:0:0:
179,192,64720,1,0,0:0:0:0:
435,192,64720,1,0,0:0:0:0:
384,192,64720,1,0,0:0:0:0:
128,192,64799,1,0,0:0:0:0:
76,192,64879,1,0,0:0:0:0:
281,192,64879,1,0,0:0:0:0:
332,192,64879,1,0,0:0:0:0:
332,192,65039,1,0,0:0:0:0:
435,192,65119,1,0,0:0:0:0:
332,192,65198,1,0,0:0:0:0:
128,192,65198,1,0,0:0:0:0:
76,192,65198,1,0,0:0:0:0:
332,192,65358,1,0,0:0:0:0:
332,192,65518,1,0,0:0:0:0:
230,192,65518,1,0,0:0:0:0:
25,192,65518,1,0,0:0:0:0:
332,192,65677,1,0,0:0:0:0:
435,192,65757,1,0,0:0:0:0:
332,192,65837,1,0,0:0:0:0:
179,192,65837,1,0,0:0:0:0:
128,192,65837,1,0,0:0:0:0:
332,192,65996,1,0,0:0:0:0:
384,192,66076,1,0,0:0:0:0:
230,192,66156,1,0,0:0:0:0:
435,192,66156,1,0,0:0:0:0:
76,192,66156,1,0,0:0:0:0:
230,192,66315,1,0,0:0:0:0:
128,192,66395,1,0,0:0:0:0:
230,192,66475,1,0,0:0:0:0:
435,192,66475,1,0,0:0:0:0:
384,192,66475,1,0,0:0:0:0:
230,192,66635,1,0,0:0:0:0:
230,192,66794,1,0,0:0:0:0:
281,192,66794,1,0,0:0:0:0:
486,192,66794,1,0,0:0:0:0:
230,192,66954,1,0,0:0:0:0:
128,192,67034,1,0,0:0:0:0:
230,192,67113,1,0,0:0:0:0:
384,192,67113,1,0,0:0:0:0:
332,192,67113,1,0,0:0:0:0:
332,192,67273,1,0,0:0:0:0:
384,192,67273,1,0,0:0:0:0:
230,192,67273,1,0,0:0:0:0:
25,192,67432,1,0,0:0:0:0:
281,192,67432,1,0,0:0:0:0:
486,192,67432,1,0,0:0:0:0:
281,192,67592,1,0,0:0:0:0:
384,192,67672,1,0,0:0:0:0:
281,192,67752,1,0,0:0:0:0:
76,192,67752,1,0,0:0:0:0:
128,192,67752,1,0,0:0:0:0:
281,192,67911,1,0,0:0:0:0:
281,192,68071,1,0,0:0:0:0:
25,192,68071,1,0,0:0:0:0:
230,192,68071,1,0,0:0:0:0:
281,192,68230,1,0,0:0:0:0:
384,192,68310,1,0,0:0:0:0:
281,192,68390,1,0,0:0:0:0:
128,192,68390,1,0,0:0:0:0:
179,192,68390,1,0,0:0:0:0:
281,192,68549,1,0,0:0:0:0:
384,192,68629,1,0,0:0:0:0:
486,192,68709,1,0,0:0:0:0:
230,192,68709,1,0,0:0:0:0:
179,192,68709,1,0,0:0:0:0:
179,192,68869,1,0,0:0:0:0:
76,192,68948,1,0,0:0:0:0:
179,192,69028,1,0,0:0:0:0:
332,192,69028,1,0,0:0:0:0:
384,192,69028,1,0,0:0:0:0:
179,192,69188,1,0,0:0:0:0:
179,192,69347,1,0,0:0:0:0:
281,192,69347,1,0,0:0:0:0:
486,192,69347,1,0,0:0:0:0:
179,192,69507,1,0,0:0:0:0:
76,192,69587,1,0,0:0:0:0:
179,192,69667,1,0,0:0:0:0:
435,192,69667,1,0,0:0:0:0:
384,192,69667,1,0,0:0:0:0:
179,192,69826,1,0,0:0:0:0:
435,192,69826,1,0,0:0:0:0:
384,192,69826,1,0,0:0:0:0:
128,192,69906,1,0,0:0:0:0:
76,192,69986,1,0,0:0:0:0:
281,192,69986,1,0,0:0:0:0:
332,192,69986,1,0,0:0:0:0:
332,192,70145,1,0,0:0:0:0:
435,192,70225,1,0,0:0:0:0:
332,192,70305,1,0,0:0:0:0:
128,192,70305,1,0,0:0:0:0:
76,192,70305,1,0,0:0:0:0:
332,192,70464,1,0,0:0:0:0:
332,192,70624,1,0,0:0:0:0:
230,192,70624,1,0,0:0:0:0:
25,192,70624,1,0,0:0:0:0:
332,192,70784,1,0,0:0:0:0:
435,192,70863,1,0,0:0:0:0:
332,192,70943,1,0,0:0:0:0:
179,192,70943,1,0,0:0:0:0:
128,192,70943,1,0,0:0:0:0:
332,192,71103,1,0,0:0:0:0:
384,192,71182,1,0,0:0:0:0:
230,192,71262,1,0,0:0:0:0:
435,192,71262,1,0,0:0:0:0:
76,192,71262,1,0,0:0:0:0:
230,192,71422,1,0,0:0:0:0:
128,192,71502,1,0,0:0:0:0:
230,192,71581,1,0,0:0:0:0:
435,192,71581,1,0,0:0:0:0:
384,192,71581,1,0,0:0:0:0:
230,192,71741,1,0,0:0:0:0:
230,192,71901,1,0,0:0:0:0:
281,192,71901,1,0,0:0:0:0:
486,192,71901,1,0,0:0:0:0:
230,192,72060,1,0,0:0:0:0:
128,192,72140,1,0,0:0:0:0:
230,192,72220,1,0,0:0:0:0:
384,192,72220,1,0,0:0:0:0:
332,192,72220,1,0,0:0:0:0:
230,192,72379,1,0,0:0:0:0:
486,192,72539,1,0,0:0:0:0:
281,192,72539,1,0,0:0:0:0:
25,192,72539,1,0,0:0:0:0:
281,192,72698,1,0,0:0:0:0:
384,192,72778,1,0,0:0:0:0:
281,192,72858,1,0,0:0:0:0:
128,192,72858,1,0,0:0:0:0:
179,192,72858,1,0,0:0:0:0:
281,192,73018,1,0,0:0:0:0:
230,192,73177,1,0,0:0:0:0:
25,192,73177,1,0,0:0:0:0:
281,192,73177,1,0,0:0:0:0:
281,192,73337,1,0,0:0:0:0:
384,192,73417,1,0,0:0:0:0:
281,192,73496,1,0,0:0:0:0:
76,192,73496,1,0,0:0:0:0:
128,192,73496,1,0,0:0:0:0:
281,192,73656,1,0,0:0:0:0:
76,192,73656,1,0,0:0:0:0:
128,192,73656,1,0,0:0:0:0:
384,192,73736,1,0,0:0:0:0:
230,192,73815,1,0,0:0:0:0:
179,192,73815,1,0,0:0:0:0:
486,192,73815,1,0,0:0:0:0:
179,192,73975,1,0,0:0:0:0:
76,192,74055,1,0,0:0:0:0:
384,192,74135,1,0,0:0:0:0:
332,192,74135,1,0,0:0:0:0:
179,192,74135,1,0,0:0:0:0:
179,192,74294,1,0,0:0:0:0:
486,192,74454,1,0,0:0:0:0:
281,192,74454,1,0,0:0:0:0:
179,192,74454,1,0,0:0:0:0:
179,192,74613,1,0,0:0:0:0:
76,192,74693,1,0,0:0:0:0:
384,192,74773,1,0,0:0:0:0:
435,192,74773,1,0,0:0:0:0:
179,192,74773,1,0,0:0:0:0:
179,192,74932,1,0,0:0:0:0:
128,192,75012,1,0,0:0:0:0:
332,192,75092,1,0,0:0:0:0:
281,192,75092,1,0,0:0:0:0:
76,192,75092,1,0,0:0:0:0:
332,192,75252,1,0,0:0:0:0:
435,192,75331,1,0,0:0:0:0:
76,192,75411,1,0,0:0:0:0:
128,192,75411,1,0,0:0:0:0:
332,192,75411,1,0,0:0:0:0:
332,192,75571,1,0,0:0:0:0:
25,192,75730,1,0,0:0:0:0:
230,192,75730,1,0,0:0:0:0:
332,192,75730,1,0,0:0:0:0:
332,192,75890,1,0,0:0:0:0:
435,192,75970,1,0,0:0:0:0:
128,192,76049,1,0,0:0:0:0:
179,192,76049,1,0,0:0:0:0:
332,192,76049,1,0,0:0:0:0:
332,192,76209,1,0,0:0:0:0:
384,192,76289,1,0,0:0:0:0:
435,192,76369,1,0,0:0:0:0:
230,192,76369,1,0,0:0:0:0:
128,192,76528,1,0,0:0:0:0:
230,192,76688,1,0,0:0:0:0:
486,192,76688,1,0,0:0:0:0:
230,192,76847,1,0,0:0:0:0:
384,192,76847,1,0,0:0:0:0:
230,192,77007,1,0,0:0:0:0:
332,192,77007,1,0,0:0:0:0:
230,192,77167,1,0,0:0:0:0:
230,192,77326,1,0,0:0:0:0:
281,192,77326,1,0,0:0:0:0:
230,192,77486,1,0,0:0:0:0:
281,192,77645,1,0,0:0:0:0:
486,192,77645,1,0,0:0:0:0:
76,192,77645,128,0,77805:0:0:0:0:
128,192,77645,1,0,0:0:0:0:
179,192,77805,128,0,77964:0:0:0:0:
76,192,77964,128,0,78124:0:0:0:0:
332,192,77964,1,0,0:0:0:0:
435,192,77964,1,0,0:0:0:0:
179,192,78124,128,0,78284:0:0:0:0:
76,192,78284,128,0,78443:0:0:0:0:
281,192,78284,1,0,0:0:0:0:
486,192,78284,1,0,0:0:0:0:
179,192,78443,128,0,78603:0:0:0:0:
76,192,78603,128,0,78762:0:0:0:0:
332,192,78603,1,0,0:0:0:0:
435,192,78603,1,0,0:0:0:0:
179,192,78762,128,0,78922:0:0:0:0:
25,192,78922,1,0,0:0:0:0:
384,192,78922,128,0,79081:0:0:0:0:
230,192,78922,1,0,0:0:0:0:
281,192,79081,128,0,79241:0:0:0:0:
384,192,79241,128,0,79401:0:0:0:0:
76,192,79241,1,0,0:0:0:0:
179,192,79241,1,0,0:0:0:0:
281,192,79401,128,0,79560:0:0:0:0:
384,192,79560,128,0,79720:0:0:0:0:
25,192,79560,1,0,0:0:0:0:
230,192,79560,1,0,0:0:0:0:
281,192,79720,128,0,79879:0:0:0:0:
384,192,79879,128,0,80039:0:0:0:0:
76,192,79879,1,0,0:0:0:0:
179,192,79879,1,0,0:0:0:0:
281,192,80039,128,0,80198:0:0:0:0:
25,192,80198,128,0,80358:0:0:0:0:
486,192,80198,1,0,0:0:0:0:
332,192,80198,1,0,0:0:0:0:
179,192,80358,128,0,80518:0:0:0:0:
25,192,80518,128,0,80677:0:0:0:0:
384,192,80518,1,0,0:0:0:0:
281,192,80518,1,0,0:0:0:0:
179,192,80677,128,0,80837:0:0:0:0:
25,192,80837,128,0,80996:0:0:0:0:
332,192,80837,1,0,0:0:0:0:
486,192,80837,1,0,0:0:0:0:
179,192,80996,128,0,81156:0:0:0:0:
25,192,81156,128,0,81315:0:0:0:0:
281,192,81156,1,0,0:0:0:0:
384,192,81156,1,0,0:0:0:0:
179,192,81315,128,0,81475:0:0:0:0:
384,192,81315,1,0,0:0:0:0:
281,192,81315,1,0,0:0:0:0:
435,192,81475,128,0,81635:0:0:0:0:
25,192,81475,1,0,0:0:0:0:
230,192,81475,1,0,0:0:0:0:
281,192,81635,128,0,81794:0:0:0:0:
435,192,81794,128,0,81954:0:0:0:0:
179,192,81794,1,0,0:0:0:0:
76,192,81794,1,0,0:0:0:0:
281,192,81954,128,0,82113:0:0:0:0:
435,192,82113,128,0,82273:0:0:0:0:
25,192,82113,1,0,0:0:0:0:
230,192,82113,1,0,0:0:0:0:
281,192,82273,128,0,82432:0:0:0:0:
435,192,82432,128,0,82592:0:0:0:0:
76,192,82432,1,0,0:0:0:0:
179,192,82432,1,0,0:0:0:0:
281,192,82592,128,0,82752:0:0:0:0:
76,192,82752,128,0,82911:0:0:0:0:
332,192,82752,1,0,0:0:0:0:
486,192,82752,1,0,0:0:0:0:
179,192,82911,128,0,83071:0:0:0:0:
76,192,83071,128,0,83230:0:0:0:0:
281,192,83071,1,0,0:0:0:0:
435,192,83071,1,0,0:0:0:0:
179,192,83230,128,0,83390:0:0:0:0:
76,192,83390,128,0,83549:0:0:0:0:
332,192,83390,1,0,0:0:0:0:
486,192,83390,1,0,0:0:0:0:
179,192,83549,128,0,83709:0:0:0:0:
76,192,83709,128,0,83869:0:0:0:0:
281,192,83709,1,0,0:0:0:0:
435,192,83709,1,0,0:0:0:0:
179,192,83869,128,0,84028:0:0:0:0:
25,192,84028,1,0,0:0:0:0:
384,192,84028,128,0,84188:0:0:0:0:
230,192,84028,1,0,0:0:0:0:
281,192,84188,128,0,84347:0:0:0:0:
384,192,84347,128,0,84507:0:0:0:0:
76,192,84347,1,0,0:0:0:0:
179,192,84347,1,0,0:0:0:0:
281,192,84507,128,0,84667:0:0:0:0:
384,192,84667,128,0,84826:0:0:0:0:
25,192,84667,1,0,0:0:0:0:
230,192,84667,1,0,0:0:0:0:
281,192,84826,128,0,84986:0:0:0:0:
384,192,84986,128,0,85145:0:0:0:0:
76,192,84986,1,0,0:0:0:0:
179,192,84986,1,0,0:0:0:0:
281,192,85145,128,0,85305:0:0:0:0:
76,192,85145,1,0,0:0:0:0:
179,192,85145,1,0,0:0:0:0:
25,192,85305,128,0,85464:0:0:0:0:
332,192,85305,1,0,0:0:0:0:
486,192,85305,1,0,0:0:0:0:
179,192,85464,128,0,85624:0:0:0:0:
25,192,85624,128,0,85784:0:0:0:0:
281,192,85624,1,0,0:0:0:0:
384,192,85624,1,0,0:0:0:0:
179,192,85784,128,0,85943:0:0:0:0:
25,192,85943,128,0,86103:0:0:0:0:
332,192,85943,1,0,0:0:0:0:
486,192,85943,1,0,0:0:0:0:
179,192,86103,128,0,86262:0:0:0:0:
25,192,86262,128,0,86422:0:0:0:0:
281,192,86262,1,0,0:0:0:0:
384,192,86262,1,0,0:0:0:0:
179,192,86422,128,0,86581:0:0:0:0:
435,192,86581,128,0,86741:0:0:0:0:
76,192,86581,1,0,0:0:0:0:
230,192,86581,1,0,0:0:0:0:
281,192,86741,128,0,86901:0:0:0:0:
435,192,86901,128,0,87060:0:0:0:0:
25,192,86901,1,0,0:0:0:0:
179,192,86901,1,0,0:0:0:0:
281,192,87060,128,0,87220:0:0:0:0:
435,192,87220,128,0,87379:0:0:0:0:
76,192,87220,1,0,0:0:0:0:
230,192,87220,1,0,0:0:0:0:
281,192,87379,128,0,87539:0:0:0:0:
435,192,87539,128,0,87698:0:0:0:0:
25,192,87539,1,0,0:0:0:0:
179,192,87539,1,0,0:0:0:0:
25,192,87698,1,0,0:0:0:0:
179,192,87698,1,0,0:0:0:0:
281,192,87698,128,0,87858:0:0:0:0:
76,192,87858,128,0,88018:0:0:0:0:
486,192,87858,1,0,0:0:0:0:
332,192,87858,1,0,0:0:0:0:
25,192,88177,128,0,88496:0:0:0:0:
281,192,88177,1,0,0:0:0:0:
435,192,88177,1,0,0:0:0:0:
179,192,88337,128,0,88496:0:0:0:0:
332,192,88496,1,0,0:0:0:0:
332,192,88656,1,0,0:0:0:0:
230,192,88815,128,0,88975:0:0:0:0:
435,192,88815,1,0,0:0:0:0:
281,192,88815,1,0,0:0:0:0:
128,192,89135,128,0,89294:0:0:0:0:
384,192,89135,1,0,0:0:0:0:
486,192,89454,1,0,0:0:0:0:
25,192,89454,128,0,89613:0:0:0:0:
281,192,89454,1,0,0:0:0:0:
179,192,89773,128,0,90092:0:0:0:0:
384,192,89773,1,0,0:0:0:0:
76,192,89932,128,0,90092:0:0:0:0:
384,192,89932,1,0,0:0:0:0:
486,192,90092,1,0,0:0:0:0:
281,192,90092,1,0,0:0:0:0:
230,192,90252,128,0,90411:0:0:0:0:
435,192,90411,1,0,0:0:0:0:
25,192,90571,128,0,90890:0:0:0:0:
128,192,90730,128,0,90890:0:0:0:0:
384,192,90730,1,0,0:0:0:0:
281,192,90730,1,0,0:0:0:0:
179,192,91049,128,0,91209:0:0:0:0:
435,192,91049,1,0,0:0:0:0:
435,192,91209,1,0,0:0:0:0:
230,192,91369,128,0,91688:0:0:0:0:
384,192,91369,1,0,0:0:0:0:
281,192,91369,1,0,0:0:0:0:
76,192,91528,128,0,91688:0:0:0:0:
332,192,91688,1,0,0:0:0:0:
128,192,91847,128,0,92007:0:0:0:0:
435,192,92007,1,0,0:0:0:0:
281,192,92007,1,0,0:0:0:0:
25,192,92167,128,0,92486:0:0:0:0:
179,192,92326,128,0,92486:0:0:0:0:
332,192,92326,1,0,0:0:0:0:
332,192,92486,1,0,0:0:0:0:
230,192,92645,128,0,92805:0:0:0:0:
435,192,92645,1,0,0:0:0:0:
281,192,92645,1,0,0:0:0:0:
486,192,92964,128,0,93124:0:0:0:0:
179,192,92964,1,0,0:0:0:0:
435,192,93284,128,0,93603:0:0:0:0:
230,192,93284,1,0,0:0:0:0:
76,192,93284,1,0,0:0:0:0:
332,192,93443,128,0,93603:0:0:0:0:
179,192,93603,1,0,0:0:0:0:
179,192,93762,1,0,0:0:0:0:
281,192,93922,128,0,94081:0:0:0:0:
76,192,93922,1,0,0:0:0:0:
230,192,93922,1,0,0:0:0:0:
384,192,94241,128,0,94401:0:0:0:0:
128,192,94241,1,0,0:0:0:0:
25,192,94560,1,0,0:0:0:0:
486,192,94560,128,0,94720:0:0:0:0:
230,192,94560,1,0,0:0:0:0:
332,192,94879,128,0,95198:0:0:0:0:
128,192,94879,1,0,0:0:0:0:
435,192,95039,128,0,95198:0:0:0:0:
128,192,95039,1,0,0:0:0:0:
25,192,95198,1,0,0:0:0:0:
230,192,95198,1,0,0:0:0:0:
281,192,95358,128,0,95518:0:0:0:0:
76,192,95518,1,0,0:0:0:0:
486,192,95677,128,0,95996:0:0:0:0:
384,192,95837,128,0,95996:0:0:0:0:
128,192,95837,1,0,0:0:0:0:
230,192,95837,1,0,0:0:0:0:
332,192,96156,128,0,96315:0:0:0:0:
76,192,96156,1,0,0:0:0:0:
76,192,96315,1,0,0:0:0:0:
281,192,96475,128,0,96794:0:0:0:0:
128,192,96475,1,0,0:0:0:0:
230,192,96475,1,0,0:0:0:0:
435,192,96635,128,0,96794:0:0:0:0:
179,192,96794,1,0,0:0:0:0:
384,192,96954,128,0,97113:0:0:0:0:
76,192,97113,1,0,0:0:0:0:
230,192,97113,1,0,0:0:0:0:
486,192,97273,128,0,97592:0:0:0:0:
332,192,97432,128,0,97592:0:0:0:0:
179,192,97432,1,0,0:0:0:0:
179,192,97592,1,0,0:0:0:0:
281,192,97752,128,0,97911:0:0:0:0:
76,192,97752,1,0,0:0:0:0:
230,192,97752,1,0,0:0:0:0:
486,192,98071,1,0,0:0:0:0:
281,192,98071,1,0,0:0:0:0:
25,192,98071,1,0,0:0:0:0:
179,192,98230,1,0,0:0:0:0:
332,192,98310,1,0,0:0:0:0:
76,192,98390,1,0,0:0:0:0:
179,192,98390,1,0,0:0:0:0:
435,192,98390,1,0,0:0:0:0:
332,192,98549,1,0,0:0:0:0:
230,192,98709,1,0,0:0:0:0:
25,192,98709,1,0,0:0:0:0:
435,192,98709,1,0,0:0:0:0:
179,192,98869,1,0,0:0:0:0:
332,192,98948,1,0,0:0:0:0:
76,192,99028,1,0,0:0:0:0:
179,192,99028,1,0,0:0:0:0:
435,192,99028,1,0,0:0:0:0:
332,192,99188,1,0,0:0:0:0:
435,192,99347,1,0,0:0:0:0:
486,192,99347,1,0,0:0:0:0:
76,192,99347,1,0,0:0:0:0:
179,192,99507,1,0,0:0:0:0:
281,192,99587,1,0,0:0:0:0:
384,192,99667,1,0,0:0:0:0:
179,192,99667,1,0,0:0:0:0:
25,192,99667,1,0,0:0:0:0:
281,192,99826,1,0,0:0:0:0:
384,192,99986,1,0,0:0:0:0:
76,192,99986,1,0,0:0:0:0:
128,192,99986,1,0,0:0:0:0:
179,192,100145,1,0,0:0:0:0:
281,192,100225,1,0,0:0:0:0:
25,192,100305,1,0,0:0:0:0:
179,192,100305,1,0,0:0:0:0:
384,192,100305,1,0,0:0:0:0:
281,192,100464,1,0,0:0:0:0:
128,192,100624,1,0,0:0:0:0:
179,192,100624,1,0,0:0:0:0:
384,192,100624,1,0,0:0:0:0:
230,192,100784,1,0,0:0:0:0:
486,192,100863,1,0,0:0:0:0:
76,192,100943,1,0,0:0:0:0:
230,192,100943,1,0,0:0:0:0:
332,192,100943,1,0,0:0:0:0:
486,192,101103,1,0,0:0:0:0:
179,192,101262,1,0,0:0:0:0:
25,192,101262,1,0,0:0:0:0:
332,192,101262,1,0,0:0:0:0:
230,192,101422,1,0,0:0:0:0:
486,192,101502,1,0,0:0:0:0:
76,192,101581,1,0,0:0:0:0:
332,192,101581,1,0,0:0:0:0:
230,192,101581,1,0,0:0:0:0:
332,192,101741,1,0,0:0:0:0:
76,192,101741,1,0,0:0:0:0:
384,192,101741,1,0,0:0:0:0:
230,192,101901,1,0,0:0:0:0:
179,192,101901,1,0,0:0:0:0:
281,192,101901,1,0,0:0:0:0:
128,192,102060,1,0,0:0:0:0:
435,192,102140,1,0,0:0:0:0:
128,192,102220,1,0,0:0:0:0:
179,192,102220,1,0,0:0:0:0:
281,192,102220,1,0,0:0:0:0:
435,192,102379,1,0,0:0:0:0:
230,192,102539,1,0,0:0:0:0:
25,192,102539,1,0,0:0:0:0:
281,192,102539,1,0,0:0:0:0:
332,192,102698,1,0,0:0:0:0:
384,192,102698,1,0,0:0:0:0:
128,192,102778,1,0,0:0:0:0:
179,192,102778,1,0,0:0:0:0:
384,192,102858,1,0,0:0:0:0:
332,192,102858,1,0,0:0:0:0:
179,192,102938,1,0,0:0:0:0:
128,192,102938,1,0,0:0:0:0:
384,192,103018,1,0,0:0:0:0:
332,192,103018,1,0,0:0:0:0:
128,192,103097,1,0,0:0:0:0:
179,192,103097,1,0,0:0:0:0:
486,192,103177,1,0,0:0:0:0:
25,192,103177,1,0,0:0:0:0:
281,192,103177,1,0,0:0:0:0:
332,192,103337,1,0,0:0:0:0:
179,192,103417,1,0,0:0:0:0:
435,192,103496,1,0,0:0:0:0:
332,192,103496,1,0,0:0:0:0:
76,192,103496,1,0,0:0:0:0:
179,192,103656,1,0,0:0:0:0:
281,192,103815,1,0,0:0:0:0:
486,192,103815,1,0,0:0:0:0:
76,192,103815,1,0,0:0:0:0:
332,192,103975,1,0,0:0:0:0:
179,192,104055,1,0,0:0:0:0:
435,192,104135,1,0,0:0:0:0:
332,192,104135,1,0,0:0:0:0:
76,192,104135,1,0,0:0:0:0:
179,192,104294,1,0,0:0:0:0:
76,192,104454,1,0,0:0:0:0:
25,192,104454,1,0,0:0:0:0:
435,192,104454,1,0,0:0:0:0:
332,192,104613,1,0,0:0:0:0:
230,192,104693,1,0,0:0:0:0:
128,192,104773,1,0,0:0:0:0:
332,192,104773,1,0,0:0:0:0:
486,192,104773,1,0,0:0:0:0:
230,192,104932,1,0,0:0:0:0:
128,192,105092,1,0,0:0:0:0:
435,192,105092,1,0,0:0:0:0:
384,192,105092,1,0,0:0:0:0:
332,192,105252,1,0,0:0:0:0:
230,192,105331,1,0,0:0:0:0:
486,192,105411,1,0,0:0:0:0:
332,192,105411,1,0,0:0:0:0:
128,192,105411,1,0,0:0:0:0:
230,192,105571,1,0,0:0:0:0:
128,192,105730,1,0,0:0:0:0:
435,192,105730,1,0,0:0:0:0:
384,192,105730,1,0,0:0:0:0:
281,192,105890,1,0,0:0:0:0:
25,192,105970,1,0,0:0:0:0:
435,192,106049,1,0,0:0:0:0:
281,192,106049,1,0,0:0:0:0:
179,192,106049,1,0,0:0:0:0:
25,192,106209,1,0,0:0:0:0:
332,192,106369,1,0,0:0:0:0:
486,192,106369,1,0,0:0:0:0:
179,192,106369,1,0,0:0:0:0:
281,192,106528,1,0,0:0:0:0:
25,192,106608,1,0,0:0:0:0:
435,192,106688,1,0,0:0:0:0:
179,192,106688,1,0,0:0:0:0:
281,192,106688,1,0,0:0:0:0:
435,192,106847,1,0,0:0:0:0:
128,192,106847,1,0,0:0:0:0:
179,192,106847,1,0,0:0:0:0:
332,192,107167,1,0,0:0:0:0:
128,192,107486,1,0,0:0:0:0:
128,192,107645,1,0,0:0:0:0:
128,192,107805,1,0,0:0:0:0:
128,192,107964,1,0,0:0:0:0:
128,192,108124,1,0,0:0:0:0:
25,192,108284,1,0,0:0:0:0:
281,192,108284,1,0,0:0:0:0:
486,192,108284,1,0,0:0:0:0:
230,192,108284,1,0,0:0:0:0:
281,192,108443,1,0,0:0:0:0:
384,192,108523,1,0,0:0:0:0:
281,192,108603,1,0,0:0:0:0:
76,192,108603,1,0,0:0:0:0:
128,192,108603,1,0,0:0:0:0:
281,192,108762,1,0,0:0:0:0:
281,192,108922,1,0,0:0:0:0:
25,192,108922,1,0,0:0:0:0:
230,192,108922,1,0,0:0:0:0:
281,192,109081,1,0,0:0:0:0:
384,192,109161,1,0,0:0:0:0:
281,192,109241,1,0,0:0:0:0:
128,192,109241,1,0,0:0:0:0:
179,192,109241,1,0,0:0:0:0:
281,192,109401,1,0,0:0:0:0:
384,192,109480,1,0,0:0:0:0:
486,192,109560,1,0,0:0:0:0:
179,192,109560,1,0,0:0:0:0:
230,192,109560,1,0,0:0:0:0:
179,192,109720,1,0,0:0:0:0:
76,192,109799,1,0,0:0:0:0:
179,192,109879,1,0,0:0:0:0:
384,192,109879,1,0,0:0:0:0:
435,192,109879,1,0,0:0:0:0:
179,192,110039,1,0,0:0:0:0:
179,192,110198,1,0,0:0:0:0:
281,192,110198,1,0,0:0:0:0:
486,192,110198,1,0,0:0:0:0:
179,192,110358,1,0,0:0:0:0:
76,192,110438,1,0,0:0:0:0:
179,192,110518,1,0,0:0:0:0:
435,192,110518,1,0,0:0:0:0:
384,192,110518,1,0,0:0:0:0:
179,192,110677,1,0,0:0:0:0:
435,192,110677,1,0,0:0:0:0:
384,192,110677,1,0,0:0:0:0:
128,192,110757,1,0,0:0:0:0:
76,192,110837,1,0,0:0:0:0:
281,192,110837,1,0,0:0:0:0:
332,192,110837,1,0,0:0:0:0:
332,192,110996,1,0,0:0:0:0:
435,192,111076,1,0,0:0:0:0:
332,192,111156,1,0,0:0:0:0:
128,192,111156,1,0,0:0:0:0:
76,192,111156,1,0,0:0:0:0:
332,192,111315,1,0,0:0:0:0:
332,192,111475,1,0,0:0:0:0:
230,192,111475,1,0,0:0:0:0:
25,192,111475,1,0,0:0:0:0:
332,192,111635,1,0,0:0:0:0:
435,192,111714,1,0,0:0:0:0:
332,192,111794,1,0,0:0:0:0:
179,192,111794,1,0,0:0:0:0:
128,192,111794,1,0,0:0:0:0:
332,192,111954,1,0,0:0:0:0:
384,192,112034,1,0,0:0:0:0:
230,192,112113,1,0,0:0:0:0:
435,192,112113,1,0,0:0:0:0:
76,192,112113,1,0,0:0:0:0:
230,192,112273,1,0,0:0:0:0:
128,192,112353,1,0,0:0:0:0:
230,192,112432,1,0,0:0:0:0:
435,192,112432,1,0,0:0:0:0:
384,192,112432,1,0,0:0:0:0:
230,192,112592,1,0,0:0:0:0:
230,192,112752,1,0,0:0:0:0:
281,192,112752,1,0,0:0:0:0:
486,192,112752,1,0,0:0:0:0:
230,192,112911,1,0,0:0:0:0:
128,192,112991,1,0,0:0:0:0:
230,192,113071,1,0,0:0:0:0:
384,192,113071,1,0,0:0:0:0:
332,192,113071,1,0,0:0:0:0:
332,192,113230,1,0,0:0:0:0:
384,192,113230,1,0,0:0:0:0:
230,192,113230,1,0,0:0:0:0:
25,192,113390,1,0,0:0:0:0:
281,192,113390,1,0,0:0:0:0:
486,192,113390,1,0,0:0:0:0:
281,192,113549,1,0,0:0:0:0:
384,192,113629,1,0,0:0:0:0:
281,192,113709,1,0,0:0:0:0:
76,192,113709,1,0,0:0:0:0:
128,192,113709,1,0,0:0:0:0:
281,192,113869,1,0,0:0:0:0:
281,192,114028,1,0,0:0:0:0:
25,192,114028,1,0,0:0:0:0:
230,192,114028,1,0,0:0:0:0:
281,192,114188,1,0,0:0:0:0:
384,192,114268,1,0,0:0:0:0:
281,192,114347,1,0,0:0:0:0:
128,192,114347,1,0,0:0:0:0:
179,192,114347,1,0,0:0:0:0:
281,192,114507,1,0,0:0:0:0:
384,192,114587,1,0,0:0:0:0:
486,192,114667,1,0,0:0:0:0:
230,192,114667,1,0,0:0:0:0:
179,192,114667,1,0,0:0:0:0:
179,192,114826,1,0,0:0:0:0:
76,192,114906,1,0,0:0:0:0:
179,192,114986,1,0,0:0:0:0:
332,192,114986,1,0,0:0:0:0:
384,192,114986,1,0,0:0:0:0:
179,192,115145,1,0,0:0:0:0:
179,192,115305,1,0,0:0:0:0:
281,192,115305,1,0,0:0:0:0:
486,192,115305,1,0,0:0:0:0:
179,192,115464,1,0,0:0:0:0:
76,192,115544,1,0,0:0:0:0:
179,192,115624,1,0,0:0:0:0:
435,192,115624,1,0,0:0:0:0:
384,192,115624,1,0,0:0:0:0:
179,192,115784,1,0,0:0:0:0:
435,192,115784,1,0,0:0:0:0:
384,192,115784,1,0,0:0:0:0:
128,192,115863,1,0,0:0:0:0:
76,192,115943,1,0,0:0:0:0:
281,192,115943,1,0,0:0:0:0:
332,192,115943,1,0,0:0:0:0:
332,192,116103,1,0,0:0:0:0:
435,192,116182,1,0,0:0:0:0:
332,192,116262,1,0,0:0:0:0:
128,192,116262,1,0,0:0:0:0:
76,192,116262,1,0,0:0:0:0:
332,192,116422,1,0,0:0:0:0:
332,192,116581,1,0,0:0:0:0:
230,192,116581,1,0,0:0:0:0:
25,192,116581,1,0,0:0:0:0:
332,192,116741,1,0,0:0:0:0:
435,192,116821,1,0,0:0:0:0:
332,192,116901,1,0,0:0:0:0:
179,192,116901,1,0,0:0:0:0:
128,192,116901,1,0,0:0:0:0:
332,192,117060,1,0,0:0:0:0:
384,192,117140,1,0,0:0:0:0:
230,192,117220,1,0,0:0:0:0:
435,192,117220,1,0,0:0:0:0:
76,192,117220,1,0,0:0:0:0:
230,192,117379,1,0,0:0:0:0:
128,192,117459,1,0,0:0:0:0:
230,192,117539,1,0,0:0:0:0:
435,192,117539,1,0,0:0:0:0:
384,192,117539,1,0,0:0:0:0:
230,192,117698,1,0,0:0:0:0:
230,192,117858,1,0,0:0:0:0:
281,192,117858,1,0,0:0:0:0:
486,192,117858,1,0,0:0:0:0:
76,192,118018,1,0,0:0:0:0:
128,192,118018,1,0,0:0:0:0:
384,192,118097,1,0,0:0:0:0:
435,192,118097,1,0,0:0:0:0:
76,192,118177,1,0,0:0:0:0:
128,192,118177,1,0,0:0:0:0:
384,192,118257,1,0,0:0:0:0:
435,192,118257,1,0,0:0:0:0:
76,192,118337,1,0,0:0:0:0:
128,192,118337,1,0,0:0:0:0:
384,192,118417,1,0,0:0:0:0:
435,192,118417,1,0,0:0:0:0:
25,192,118496,1,0,0:0:0:0:
230,192,118496,1,0,0:0:0:0:
486,192,118496,1,0,0:0:0:0:
281,192,118496,1,0,0:0:0:0:
332,192,118656,1,0,0:0:0:0:
76,192,118815,1,0,0:0:0:0:
179,192,118815,1,0,0:0:0:0:
384,192,118815,1,0,0:0:0:0:
230,192,118975,1,0,0:0:0:0:
486,192,119135,1,0,0:0:0:0:
281,192,119135,1,0,0:0:0:0:
25,192,119135,1,0,0:0:0:0:
128,192,119294,1,0,0:0:0:0:
179,192,119454,1,0,0:0:0:0:
76,192,119454,1,0,0:0:0:0:
384,192,119454,1,0,0:0:0:0:
281,192,119613,1,0,0:0:0:0:
128,192,119773,1,0,0:0:0:0:
230,192,119773,1,0,0:0:0:0:
435,192,119773,1,0,0:0:0:0:
76,192,119932,1,0,0:0:0:0:
281,192,120092,1,0,0:0:0:0:
486,192,120092,1,0,0:0:0:0:
25,192,120092,1,0,0:0:0:0:
384,192,120252,1,0,0:0:0:0:
230,192,120411,1,0,0:0:0:0:
128,192,120411,1,0,0:0:0:0:
332,192,120411,1,0,0:0:0:0:
179,192,120571,1,0,0:0:0:0:
25,192,120730,1,0,0:0:0:0:
435,192,120730,1,0,0:0:0:0:
384,192,120730,1,0,0:0:0:0:
25,192,120890,1,0,0:0:0:0:
384,192,120890,1,0,0:0:0:0:
435,192,120890,1,0,0:0:0:0:
230,192,121049,1,0,0:0:0:0:
128,192,121049,1,0,0:0:0:0:
281,192,121049,1,0,0:0:0:0:
332,192,121209,1,0,0:0:0:0:
76,192,121369,1,0,0:0:0:0:
281,192,121369,1,0,0:0:0:0:
435,192,121369,1,0,0:0:0:0:
179,192,121528,1,0,0:0:0:0:
25,192,121688,1,0,0:0:0:0:
230,192,121688,1,0,0:0:0:0:
384,192,121688,1,0,0:0:0:0:
486,192,121847,1,0,0:0:0:0:
281,192,122007,1,0,0:0:0:0:
435,192,122007,1,0,0:0:0:0:
76,192,122007,1,0,0:0:0:0:
179,192,122167,1,0,0:0:0:0:
230,192,122326,1,0,0:0:0:0:
76,192,122326,1,0,0:0:0:0:
384,192,122326,1,0,0:0:0:0:
128,192,122486,1,0,0:0:0:0:
179,192,122645,1,0,0:0:0:0:
281,192,122645,1,0,0:0:0:0:
486,192,122645,1,0,0:0:0:0:
384,192,122805,1,0,0:0:0:0:
435,192,122964,1,0,0:0:0:0:
230,192,122964,1,0,0:0:0:0:
76,192,122964,1,0,0:0:0:0:
25,192,123124,1,0,0:0:0:0:
486,192,123284,1,0,0:0:0:0:
281,192,123284,1,0,0:0:0:0:
179,192,123284,1,0,0:0:0:0:
281,192,123443,1,0,0:0:0:0:
179,192,123443,1,0,0:0:0:0:
486,192,123443,1,0,0:0:0:0:
76,192,123603,1,0,0:0:0:0:
128,192,123603,1,0,0:0:0:0:
435,192,123603,1,0,0:0:0:0:
230,192,123762,1,0,0:0:0:0:
281,192,123922,1,0,0:0:0:0:
384,192,123922,1,0,0:0:0:0:
179,192,123922,1,0,0:0:0:0:
435,192,124081,1,0,0:0:0:0:
25,192,124241,1,0,0:0:0:0:
230,192,124241,1,0,0:0:0:0:
486,192,124241,1,0,0:0:0:0:
128,192,124401,1,0,0:0:0:0:
281,192,124560,1,0,0:0:0:0:
384,192,124560,1,0,0:0:0:0:
179,192,124560,1,0,0:0:0:0:
332,192,124720,1,0,0:0:0:0:
76,192,124879,1,0,0:0:0:0:
230,192,124879,1,0,0:0:0:0:
435,192,124879,1,0,0:0:0:0:
179,192,125039,1,0,0:0:0:0:
281,192,125198,1,0,0:0:0:0:
25,192,125198,1,0,0:0:0:0:
486,192,125198,1,0,0:0:0:0:
435,192,125358,1,0,0:0:0:0:
76,192,125518,1,0,0:0:0:0:
230,192,125518,1,0,0:0:0:0:
332,192,125518,1,0,0:0:0:0:
128,192,125677,1,0,0:0:0:0:
25,192,125837,1,0,0:0:0:0:
281,192,125837,1,0,0:0:0:0:
486,192,125837,1,0,0:0:0:0:
25,192,125996,1,0,0:0:0:0:
281,192,125996,1,0,0:0:0:0:
486,192,125996,1,0,0:0:0:0:
230,192,126156,1,0,0:0:0:0:
128,192,126156,1,0,0:0:0:0:
384,192,126156,1,0,0:0:0:0:
332,192,126315,1,0,0:0:0:0:
76,192,126475,1,0,0:0:0:0:
281,192,126475,1,0,0:0:0:0:
435,192,126475,1,0,0:0:0:0:
179,192,126635,1,0,0:0:0:0:
25,192,126794,1,0,0:0:0:0:
230,192,126794,1,0,0:0:0:0:
384,192,126794,1,0,0:0:0:0:
486,192,126954,1,0,0:0:0:0:
281,192,127113,1,0,0:0:0:0:
435,192,127113,1,0,0:0:0:0:
76,192,127113,1,0,0:0:0:0:
179,192,127273,1,0,0:0:0:0:
230,192,127432,1,0,0:0:0:0:
76,192,127432,1,0,0:0:0:0:
384,192,127432,1,0,0:0:0:0:
128,192,127592,5,0,0:0:0:0:
179,192,127752,5,0,0:0:0:0:
281,192,127752,1,0,0:0:0:0:
486,192,127752,1,0,0:0:0:0:
384,192,127911,1,0,0:0:0:0:
435,192,128071,1,0,0:0:0:0:
230,192,128071,1,0,0:0:0:0:
76,192,128071,1,0,0:0:0:0:
332,192,128230,1,0,0:0:0:0:
384,192,128230,1,0,0:0:0:0:
179,192,128310,1,0,0:0:0:0:
128,192,128310,1,0,0:0:0:0:
384,192,128390,1,0,0:0:0:0:
332,192,128390,1,0,0:0:0:0:
179,192,128470,1,0,0:0:0:0:
128,192,128470,1,0,0:0:0:0:
384,192,128549,1,0,0:0:0:0:
332,192,128549,1,0,0:0:0:0:
179,192,128629,1,0,0:0:0:0:
128,192,128629,1,0,0:0:0:0:
25,192,128709,128,0,129986:0:0:0:0:
281,192,128709,1,0,0:0:0:0:
486,192,128709,1,0,0:0:0:0:
230,192,128709,1,0,0:0:0:0:
435,192,128869,1,0,0:0:0:0:
230,192,129028,1,0,0:0:0:0:
332,192,129188,1,0,0:0:0:0:
128,192,129347,1,0,0:0:0:0:
230,192,129507,1,0,0:0:0:0:
435,192,129667,1,0,0:0:0:0:
384,192,129826,1,0,0:0:0:0:
179,192,129986,128,0,131262:0:0:0:0:
332,192,129986,1,0,0:0:0:0:
486,192,130145,1,0,0:0:0:0:
230,192,130305,1,0,0:0:0:0:
384,192,130464,1,0,0:0:0:0:
76,192,130624,1,0,0:0:0:0:
281,192,130784,1,0,0:0:0:0:
25,192,130943,1,0,0:0:0:0:
435,192,131103,1,0,0:0:0:0:
332,192,131262,128,0,132539:0:0:0:0:
435,192,131262,1,0,0:0:0:0:
230,192,131422,1,0,0:0:0:0:
384,192,131581,1,0,0:0:0:0:
128,192,131741,1,0,0:0:0:0:
281,192,131901,1,0,0:0:0:0:
25,192,132060,1,0,0:0:0:0:
179,192,132220,1,0,0:0:0:0:
128,192,132379,1,0,0:0:0:0:
486,192,132539,128,0,133815:0:0:0:0:
76,192,132539,1,0,0:0:0:0:
230,192,132698,1,0,0:0:0:0:
281,192,132858,1,0,0:0:0:0:
332,192,133018,1,0,0:0:0:0:
128,192,133177,1,0,0:0:0:0:
384,192,133337,1,0,0:0:0:0:
76,192,133496,1,0,0:0:0:0:
230,192,133656,1,0,0:0:0:0:
332,192,133815,1,0,0:0:0:0:
25,192,133815,128,0,135092:0:0:0:0:
435,192,133975,1,0,0:0:0:0:
230,192,134135,1,0,0:0:0:0:
332,192,134294,1,0,0:0:0:0:
128,192,134454,1,0,0:0:0:0:
230,192,134613,1,0,0:0:0:0:
435,192,134773,1,0,0:0:0:0:
384,192,134932,1,0,0:0:0:0:
332,192,135092,1,0,0:0:0:0:
179,192,135092,128,0,136369:0:0:0:0:
486,192,135252,1,0,0:0:0:0:
230,192,135411,1,0,0:0:0:0:
384,192,135571,1,0,0:0:0:0:
76,192,135730,1,0,0:0:0:0:
281,192,135890,1,0,0:0:0:0:
25,192,136049,1,0,0:0:0:0:
435,192,136209,1,0,0:0:0:0:
435,192,136369,1,0,0:0:0:0:
332,192,136369,128,0,137645:0:0:0:0:
230,192,136528,1,0,0:0:0:0:
384,192,136688,1,0,0:0:0:0:
128,192,136847,1,0,0:0:0:0:
281,192,137007,1,0,0:0:0:0:
25,192,137167,1,0,0:0:0:0:
179,192,137326,1,0,0:0:0:0:
128,192,137486,1,0,0:0:0:0:
76,192,137645,1,0,0:0:0:0:
486,192,137645,128,0,138922:0:0:0:0:
230,192,137805,1,0,0:0:0:0:
281,192,137964,1,0,0:0:0:0:
332,192,138124,1,0,0:0:0:0:
128,192,138284,1,0,0:0:0:0:
384,192,138443,1,0,0:0:0:0:
25,192,138443,128,0,138922:0:0:0:0:
281,192,138523,1,0,0:0:0:0:
384,192,138603,1,0,0:0:0:0:
230,192,138762,1,0,0:0:0:0:
128,192,138922,1,0,0:0:0:0:
384,192,138922,1,0,0:0:0:0:
332,192,138922,1,0,0:0:0:0:
179,192,138922,1,0,0:0:0:0:
