osu file format v14

[General]
AudioFilename: audio.mp3
AudioLeadIn: 0
PreviewTime: 62326
Countdown: 0
SampleSet: Soft
StackLeniency: 0.7
Mode: 3
LetterboxInBreaks: 0
SpecialStyle: 0
WidescreenStoryboard: 1

[Editor]
Bookmarks: 71519
DistanceSpacing: 0.1
BeatDivisor: 4
GridSize: 32
TimelineZoom: 2

[Metadata]
Title:Joy of Living (Cut Ver.)
TitleUnicode:Joy of Living (Cut Ver.)
Artist:Wiklund
ArtistUnicode:Wiklund
Creator:Ly_tou
Version:Hard
Source:
Tags:Electronic Instrumental chiptune 8-bit 8 bit cheerful playful upbeat MG MPG Mappers' Guild FA Featured Artist Wing Beats Marcialus
BeatmapID:4473089
BeatmapSetID:2127811

[Difficulty]
HPDrainRate:7.5
CircleSize:10
OverallDifficulty:7.5
ApproachRate:5
SliderMultiplier:1.4
SliderTickRate:1

[Events]
//Background and Video events
0,0,"Rainbow_Overdose_Wallpaper_by_pronouncedyou.jpg",0,0
//Break Periods
//Storyboard Layer 0 (Background)
//Storyboard Layer 1 (Fail)
//Storyboard Layer 2 (Pass)
//Storyboard Layer 3 (Foreground)
//Storyboard Layer 4 (Overlay)
//Storyboard Sound Samples

[TimingPoints]
1050,319.148936170212,4,2,1,30,1,0
16369,-100,4,2,1,30,0,1
31688,-100,4,2,1,30,0,0
62326,-100,4,2,1,30,0,1
76369,-100,4,2,1,30,0,0
108284,-100,4,2,1,30,0,1
118496,-100,4,2,1,30,0,0

[HitObjects]
281,192,1050,5,0,0:0:0:0:
128,192,1209,1,0,0:0:0:0:
332,192,1369,1,0,0:0:0:0:
179,192,1528,1,0,0:0:0:0:
384,192,1688,1,0,0:0:0:0:
230,192,1847,1,0,0:0:0:0:
76,192,2007,1,0,0:0:0:0:
179,192,2167,1,0,0:0:0:0:
281,192,2326,1,0,0:0:0:0:
25,192,2486,1,0,0:0:0:0:
332,192,2645,1,0,0:0:0:0:
128,192,2805,1,0,0:0:0:0:
384,192,2964,1,0,0:0:0:0:
230,192,3124,1,0,0:0:0:0:
435,192,3284,1,0,0:0:0:0:
179,192,3443,1,0,0:0:0:0:
179,192,3603,1,0,0:0:0:0:
384,192,3762,1,0,0:0:0:0:
128,192,3922,1,0,0:0:0:0:
332,192,4081,1,0,0:0:0:0:
76,192,4241,1,0,0:0:0:0:
281,192,4401,1,0,0:0:0:0:
435,192,4560,1,0,0:0:0:0:
332,192,4720,1,0,0:0:0:0:
230,192,4879,1,0,0:0:0:0:
76,192,5039,1,0,0:0:0:0:
179,192,5198,1,0,0:0:0:0:
281,192,5358,1,0,0:0:0:0:
128,192,5518,1,0,0:0:0:0:
384,192,5677,1,0,0:0:0:0:
179,192,5837,1,0,0:0:0:0:
486,192,5996,1,0,0:0:0:0:
281,192,6156,1,0,0:0:0:0:
25,192,6156,1,0,0:0:0:0:
128,192,6315,1,0,0:0:0:0:
332,192,6475,1,0,0:0:0:0:
384,192,6555,1,0,0:0:0:0:
435,192,6635,1,0,0:0:0:0:
230,192,6714,1,0,0:0:0:0:
230,192,6794,1,0,0:0:0:0:
486,192,6954,1,0,0:0:0:0:
76,192,7113,1,0,0:0:0:0:
179,192,7273,1,0,0:0:0:0:
281,192,7432,1,0,0:0:0:0:
435,192,7592,1,0,0:0:0:0:
179,192,7752,1,0,0:0:0:0:
128,192,7831,1,0,0:0:0:0:
76,192,7911,1,0,0:0:0:0:
332,192,7991,1,0,0:0:0:0:
332,192,8071,1,0,0:0:0:0:
128,192,8230,1,0,0:0:0:0:
281,192,8390,1,0,0:0:0:0:
76,192,8549,1,0,0:0:0:0:
76,192,8709,1,0,0:0:0:0:
230,192,8869,1,0,0:0:0:0:
384,192,9028,1,0,0:0:0:0:
332,192,9108,1,0,0:0:0:0:
281,192,9188,1,0,0:0:0:0:
179,192,9268,1,0,0:0:0:0:
179,192,9347,1,0,0:0:0:0:
486,192,9507,1,0,0:0:0:0:
332,192,9667,1,0,0:0:0:0:
179,192,9826,1,0,0:0:0:0:
25,192,9986,1,0,0:0:0:0:
281,192,10145,1,0,0:0:0:0:
128,192,10305,1,0,0:0:0:0:
179,192,10385,1,0,0:0:0:0:
230,192,10464,1,0,0:0:0:0:
384,192,10544,1,0,0:0:0:0:
384,192,10624,1,0,0:0:0:0:
128,192,10784,1,0,0:0:0:0:
332,192,10943,1,0,0:0:0:0:
25,192,11103,1,0,0:0:0:0:
281,192,11262,1,0,0:0:0:0:
128,192,11422,1,0,0:0:0:0:
332,192,11581,1,0,0:0:0:0:
384,192,11661,1,0,0:0:0:0:
435,192,11741,1,0,0:0:0:0:
230,192,11821,1,0,0:0:0:0:
230,192,11901,1,0,0:0:0:0:
486,192,12060,1,0,0:0:0:0:
76,192,12220,1,0,0:0:0:0:
179,192,12379,1,0,0:0:0:0:
281,192,12539,1,0,0:0:0:0:
435,192,12698,1,0,0:0:0:0:
179,192,12858,1,0,0:0:0:0:
128,192,12938,1,0,0:0:0:0:
76,192,13018,1,0,0:0:0:0:
332,192,13097,1,0,0:0:0:0:
332,192,13177,1,0,0:0:0:0:
128,192,13337,1,0,0:0:0:0:
281,192,13496,1,0,0:0:0:0:
76,192,13656,1,0,0:0:0:0:
76,192,13815,1,0,0:0:0:0:
230,192,13975,1,0,0:0:0:0:
384,192,14135,1,0,0:0:0:0:
332,192,14214,1,0,0:0:0:0:
281,192,14294,1,0,0:0:0:0:
179,192,14374,1,0,0:0:0:0:
179,192,14454,1,0,0:0:0:0:
486,192,14613,1,0,0:0:0:0:
332,192,14773,1,0,0:0:0:0:
179,192,14932,1,0,0:0:0:0:
25,192,15092,1,0,0:0:0:0:
281,192,15252,1,0,0:0:0:0:
128,192,15411,1,0,0:0:0:0:
179,192,15491,1,0,0:0:0:0:
230,192,15571,1,0,0:0:0:0:
384,192,15651,1,0,0:0:0:0:
384,192,15730,1,0,0:0:0:0:
128,192,15890,1,0,0:0:0:0:
281,192,15970,1,0,0:0:0:0:
435,192,16049,1,0,0:0:0:0:
25,192,16209,1,0,0:0:0:0:
281,192,16369,1,0,0:0:0:0:
128,192,16369,128,0,16528:0:0:0:0:
486,192,16369,1,0,0:0:0:0:
384,192,16528,128,0,16688:0:0:0:0:
230,192,16688,1,0,0:0:0:0:
179,192,16688,1,0,0:0:0:0:
332,192,16688,1,0,0:0:0:0:
25,192,16847,128,0,17007:0:0:0:0:
384,192,17007,1,0,0:0:0:0:
435,192,17007,1,0,0:0:0:0:
128,192,17167,128,0,17326:0:0:0:0:
76,192,17326,1,0,0:0:0:0:
281,192,17326,1,0,0:0:0:0:
384,192,17326,1,0,0:0:0:0:
230,192,17486,128,0,17645:0:0:0:0:
332,192,17645,1,0,0:0:0:0:
179,192,17645,1,0,0:0:0:0:
435,192,17805,128,0,17964:0:0:0:0:
384,192,17964,128,0,18124:0:0:0:0:
25,192,17964,1,0,0:0:0:0:
230,192,17964,1,0,0:0:0:0:
332,192,18124,128,0,18284:0:0:0:0:
486,192,18284,128,0,18443:0:0:0:0:
179,192,18284,1,0,0:0:0:0:
128,192,18443,1,0,0:0:0:0:
76,192,18603,128,0,18762:0:0:0:0:
332,192,18603,1,0,0:0:0:0:
281,192,18603,1,0,0:0:0:0:
332,192,18762,1,0,0:0:0:0:
281,192,18762,1,0,0:0:0:0:
230,192,18922,1,0,0:0:0:0:
486,192,18922,128,0,19081:0:0:0:0:
384,192,19081,128,0,19241:0:0:0:0:
281,192,19241,128,0,19401:0:0:0:0:
179,192,19241,1,0,0:0:0:0:
25,192,19241,1,0,0:0:0:0:
486,192,19401,1,0,0:0:0:0:
128,192,19560,128,0,19720:0:0:0:0:
384,192,19560,1,0,0:0:0:0:
230,192,19720,128,0,19879:0:0:0:0:
25,192,19879,1,0,0:0:0:0:
281,192,19879,1,0,0:0:0:0:
435,192,19879,1,0,0:0:0:0:
128,192,20039,128,0,20198:0:0:0:0:
332,192,20198,1,0,0:0:0:0:
384,192,20198,1,0,0:0:0:0:
179,192,20358,128,0,20518:0:0:0:0:
281,192,20518,1,0,0:0:0:0:
76,192,20518,1,0,0:0:0:0:
332,192,20518,1,0,0:0:0:0:
486,192,20677,128,0,20837:0:0:0:0:
384,192,20837,128,0,20996:0:0:0:0:
128,192,20837,1,0,0:0:0:0:
25,192,20996,1,0,0:0:0:0:
332,192,21156,128,0,21315:0:0:0:0:
179,192,21156,1,0,0:0:0:0:
230,192,21156,1,0,0:0:0:0:
230,192,21315,1,0,0:0:0:0:
179,192,21315,1,0,0:0:0:0:
76,192,21475,128,0,21635:0:0:0:0:
486,192,21475,1,0,0:0:0:0:
128,192,21635,128,0,21794:0:0:0:0:
332,192,21794,1,0,0:0:0:0:
435,192,21794,1,0,0:0:0:0:
230,192,21794,1,0,0:0:0:0:
25,192,21954,128,0,22113:0:0:0:0:
128,192,22113,128,0,22273:0:0:0:0:
384,192,22113,1,0,0:0:0:0:
230,192,22273,128,0,22432:0:0:0:0:
435,192,22432,128,0,22592:0:0:0:0:
76,192,22432,1,0,0:0:0:0:
179,192,22432,1,0,0:0:0:0:
332,192,22592,128,0,22752:0:0:0:0:
179,192,22752,1,0,0:0:0:0:
230,192,22752,1,0,0:0:0:0:
384,192,22911,128,0,23071:0:0:0:0:
281,192,23071,128,0,23230:0:0:0:0:
25,192,23071,1,0,0:0:0:0:
486,192,23071,1,0,0:0:0:0:
179,192,23230,128,0,23390:0:0:0:0:
76,192,23390,128,0,23549:0:0:0:0:
435,192,23390,1,0,0:0:0:0:
384,192,23390,1,0,0:0:0:0:
230,192,23549,1,0,0:0:0:0:
128,192,23709,128,0,23869:0:0:0:0:
281,192,23709,1,0,0:0:0:0:
384,192,23709,1,0,0:0:0:0:
25,192,23869,1,0,0:0:0:0:
230,192,24028,128,0,24188:0:0:0:0:
486,192,24028,1,0,0:0:0:0:
332,192,24188,128,0,24347:0:0:0:0:
435,192,24347,128,0,24507:0:0:0:0:
76,192,24347,1,0,0:0:0:0:
179,192,24347,1,0,0:0:0:0:
230,192,24507,1,0,0:0:0:0:
25,192,24667,128,0,24826:0:0:0:0:
384,192,24667,1,0,0:0:0:0:
128,192,24826,128,0,24986:0:0:0:0:
281,192,24986,1,0,0:0:0:0:
332,192,24986,1,0,0:0:0:0:
281,192,25145,1,0,0:0:0:0:
332,192,25145,1,0,0:0:0:0:
179,192,25145,128,0,25305:0:0:0:0:
435,192,25305,1,0,0:0:0:0:
128,192,25305,1,0,0:0:0:0:
230,192,25464,128,0,25624:0:0:0:0:
179,192,25624,1,0,0:0:0:0:
332,192,25624,1,0,0:0:0:0:
384,192,25624,1,0,0:0:0:0:
486,192,25784,128,0,25943:0:0:0:0:
384,192,25943,128,0,26103:0:0:0:0:
128,192,25943,1,0,0:0:0:0:
25,192,26103,1,0,0:0:0:0:
281,192,26262,128,0,26422:0:0:0:0:
230,192,26262,1,0,0:0:0:0:
179,192,26262,1,0,0:0:0:0:
332,192,26422,1,0,0:0:0:0:
76,192,26581,128,0,26741:0:0:0:0:
486,192,26581,1,0,0:0:0:0:
128,192,26741,128,0,26901:0:0:0:0:
332,192,26901,1,0,0:0:0:0:
435,192,26901,1,0,0:0:0:0:
230,192,26901,1,0,0:0:0:0:
25,192,27060,128,0,27220:0:0:0:0:
128,192,27220,128,0,27379:0:0:0:0:
384,192,27220,1,0,0:0:0:0:
230,192,27379,128,0,27539:0:0:0:0:
435,192,27539,128,0,27698:0:0:0:0:
76,192,27539,1,0,0:0:0:0:
179,192,27539,1,0,0:0:0:0:
332,192,27698,128,0,27858:0:0:0:0:
179,192,27858,1,0,0:0:0:0:
230,192,27858,1,0,0:0:0:0:
384,192,28018,128,0,28177:0:0:0:0:
281,192,28177,128,0,28337:0:0:0:0:
25,192,28177,1,0,0:0:0:0:
486,192,28177,1,0,0:0:0:0:
179,192,28337,128,0,28496:0:0:0:0:
76,192,28496,128,0,28656:0:0:0:0:
435,192,28496,1,0,0:0:0:0:
384,192,28496,1,0,0:0:0:0:
230,192,28656,1,0,0:0:0:0:
128,192,28815,128,0,28975:0:0:0:0:
281,192,28815,1,0,0:0:0:0:
332,192,28815,1,0,0:0:0:0:
281,192,28975,1,0,0:0:0:0:
332,192,28975,1,0,0:0:0:0:
230,192,29135,128,0,29294:0:0:0:0:
486,192,29135,1,0,0:0:0:0:
281,192,29294,128,0,29454:0:0:0:0:
332,192,29454,128,0,29613:0:0:0:0:
76,192,29454,1,0,0:0:0:0:
179,192,29454,1,0,0:0:0:0:
486,192,29613,1,0,0:0:0:0:
25,192,29773,128,0,29932:0:0:0:0:
384,192,29773,1,0,0:0:0:0:
128,192,29932,128,0,30092:0:0:0:0:
281,192,30092,1,0,0:0:0:0:
332,192,30092,1,0,0:0:0:0:
230,192,30092,1,0,0:0:0:0:
179,192,30252,128,0,30411:0:0:0:0:
435,192,30411,1,0,0:0:0:0:
128,192,30411,1,0,0:0:0:0:
230,192,30571,128,0,30730:0:0:0:0:
179,192,30730,1,0,0:0:0:0:
332,192,30730,1,0,0:0:0:0:
384,192,30730,1,0,0:0:0:0:
486,192,30890,128,0,31049:0:0:0:0:
384,192,31049,128,0,31209:0:0:0:0:
25,192,31049,1,0,0:0:0:0:
179,192,31209,1,0,0:0:0:0:
332,192,31289,1,0,0:0:0:0:
179,192,31369,1,0,0:0:0:0:
332,192,31448,1,0,0:0:0:0:
179,192,31528,1,0,0:0:0:0:
332,192,31608,1,0,0:0:0:0:
179,192,31688,1,0,0:0:0:0:
230,192,31688,1,0,0:0:0:0:
486,192,31688,1,0,0:0:0:0:
76,192,32007,1,0,0:0:0:0:
128,192,32007,1,0,0:0:0:0:
384,192,32007,1,0,0:0:0:0:
230,192,32326,1,0,0:0:0:0:
230,192,32486,1,0,0:0:0:0:
435,192,32645,1,0,0:0:0:0:
486,192,32645,1,0,0:0:0:0:
128,192,32645,1,0,0:0:0:0:
332,192,32964,1,0,0:0:0:0:
25,192,32964,1,0,0:0:0:0:
128,192,33284,1,0,0:0:0:0:
230,192,33284,1,0,0:0:0:0:
384,192,33284,1,0,0:0:0:0:
281,192,33603,1,0,0:0:0:0:
281,192,33762,1,0,0:0:0:0:
76,192,33922,1,0,0:0:0:0:
179,192,33922,1,0,0:0:0:0:
435,192,33922,1,0,0:0:0:0:
128,192,34241,1,0,0:0:0:0:
332,192,34241,1,0,0:0:0:0:
384,192,34560,1,0,0:0:0:0:
435,192,34560,1,0,0:0:0:0:
25,192,34560,1,0,0:0:0:0:
230,192,34879,1,0,0:0:0:0:
230,192,35039,1,0,0:0:0:0:
332,192,35198,128,0,35358:0:0:0:0:
76,192,35198,1,0,0:0:0:0:
128,192,35198,1,0,0:0:0:0:
435,192,35518,1,0,0:0:0:0:
179,192,35518,1,0,0:0:0:0:
384,192,35837,1,0,0:0:0:0:
281,192,35837,1,0,0:0:0:0:
76,192,35837,1,0,0:0:0:0:
230,192,36156,1,0,0:0:0:0:
486,192,36156,1,0,0:0:0:0:
230,192,36315,1,0,0:0:0:0:
486,192,36475,1,0,0:0:0:0:
128,192,36475,1,0,0:0:0:0:
179,192,36475,1,0,0:0:0:0:
281,192,36794,1,0,0:0:0:0:
25,192,36794,1,0,0:0:0:0:
76,192,37113,1,0,0:0:0:0:
128,192,37113,1,0,0:0:0:0:
384,192,37113,1,0,0:0:0:0:
230,192,37432,1,0,0:0:0:0:
230,192,37592,1,0,0:0:0:0:
435,192,37752,1,0,0:0:0:0:
486,192,37752,1,0,0:0:0:0:
128,192,37752,1,0,0:0:0:0:
332,192,38071,1,0,0:0:0:0:
25,192,38071,1,0,0:0:0:0:
128,192,38390,1,0,0:0:0:0:
230,192,38390,1,0,0:0:0:0:
384,192,38390,1,0,0:0:0:0:
281,192,38709,1,0,0:0:0:0:
281,192,38869,1,0,0:0:0:0:
76,192,39028,1,0,0:0:0:0:
179,192,39028,1,0,0:0:0:0:
435,192,39028,1,0,0:0:0:0:
128,192,39347,1,0,0:0:0:0:
332,192,39347,1,0,0:0:0:0:
384,192,39667,1,0,0:0:0:0:
435,192,39667,1,0,0:0:0:0:
25,192,39667,1,0,0:0:0:0:
230,192,39986,1,0,0:0:0:0:
230,192,40145,1,0,0:0:0:0:
332,192,40305,128,0,40464:0:0:0:0:
76,192,40305,1,0,0:0:0:0:
128,192,40305,1,0,0:0:0:0:
435,192,40624,1,0,0:0:0:0:
179,192,40624,1,0,0:0:0:0:
384,192,40943,5,0,0:0:0:0:
281,192,40943,1,0,0:0:0:0:
76,192,40943,1,0,0:0:0:0:
230,192,41262,1,0,0:0:0:0:
486,192,41262,1,0,0:0:0:0:
230,192,41422,1,0,0:0:0:0:
486,192,41581,1,0,0:0:0:0:
128,192,41581,1,0,0:0:0:0:
179,192,41581,1,0,0:0:0:0:
25,192,41901,1,0,0:0:0:0:
281,192,41901,128,0,42060:0:0:0:0:
128,192,42060,1,0,0:0:0:0:
486,192,42220,128,0,42379:0:0:0:0:
230,192,42220,1,0,0:0:0:0:
179,192,42220,1,0,0:0:0:0:
332,192,42379,128,0,42539:0:0:0:0:
179,192,42539,1,0,0:0:0:0:
128,192,42539,1,0,0:0:0:0:
384,192,42698,128,0,42858:0:0:0:0:
230,192,42858,128,0,43018:0:0:0:0:
281,192,42858,1,0,0:0:0:0:
25,192,42858,1,0,0:0:0:0:
486,192,43018,1,0,0:0:0:0:
76,192,43177,128,0,43337:0:0:0:0:
384,192,43177,1,0,0:0:0:0:
179,192,43337,128,0,43496:0:0:0:0:
76,192,43496,128,0,43656:0:0:0:0:
332,192,43496,1,0,0:0:0:0:
435,192,43496,1,0,0:0:0:0:
281,192,43656,128,0,43815:0:0:0:0:
128,192,43815,1,0,0:0:0:0:
486,192,43815,1,0,0:0:0:0:
332,192,43975,128,0,44135:0:0:0:0:
76,192,44135,1,0,0:0:0:0:
179,192,44135,1,0,0:0:0:0:
281,192,44135,1,0,0:0:0:0:
435,192,44294,128,0,44454:0:0:0:0:
384,192,44454,128,0,44613:0:0:0:0:
230,192,44454,1,0,0:0:0:0:
25,192,44613,1,0,0:0:0:0:
281,192,44773,128,0,44932:0:0:0:0:
332,192,44773,1,0,0:0:0:0:
128,192,44773,1,0,0:0:0:0:
486,192,44932,1,0,0:0:0:0:
179,192,45092,128,0,45252:0:0:0:0:
384,192,45092,1,0,0:0:0:0:
25,192,45252,1,0,0:0:0:0:
435,192,45411,128,0,45571:0:0:0:0:
76,192,45411,1,0,0:0:0:0:
128,192,45411,1,0,0:0:0:0:
332,192,45571,128,0,45730:0:0:0:0:
281,192,45730,1,0,0:0:0:0:
179,192,45730,1,0,0:0:0:0:
230,192,45890,128,0,46049:0:0:0:0:
128,192,46049,1,0,0:0:0:0:
384,192,46049,1,0,0:0:0:0:
435,192,46049,1,0,0:0:0:0:
25,192,46209,128,0,46369:0:0:0:0:
128,192,46369,128,0,46528:0:0:0:0:
281,192,46369,1,0,0:0:0:0:
486,192,46528,1,0,0:0:0:0:
230,192,46688,128,0,46847:0:0:0:0:
179,192,46688,1,0,0:0:0:0:
332,192,46688,1,0,0:0:0:0:
435,192,46847,1,0,0:0:0:0:
25,192,47007,1,0,0:0:0:0:
281,192,47007,128,0,47167:0:0:0:0:
128,192,47167,1,0,0:0:0:0:
486,192,47326,128,0,47486:0:0:0:0:
230,192,47326,1,0,0:0:0:0:
179,192,47326,1,0,0:0:0:0:
332,192,47486,128,0,47645:0:0:0:0:
179,192,47645,1,0,0:0:0:0:
128,192,47645,1,0,0:0:0:0:
384,192,47805,128,0,47964:0:0:0:0:
230,192,47964,128,0,48124:0:0:0:0:
281,192,47964,1,0,0:0:0:0:
25,192,47964,1,0,0:0:0:0:
486,192,48124,1,0,0:0:0:0:
76,192,48284,128,0,48443:0:0:0:0:
384,192,48284,1,0,0:0:0:0:
179,192,48443,128,0,48603:0:0:0:0:
76,192,48603,128,0,48762:0:0:0:0:
332,192,48603,1,0,0:0:0:0:
435,192,48603,1,0,0:0:0:0:
281,192,48762,128,0,48922:0:0:0:0:
128,192,48922,1,0,0:0:0:0:
486,192,48922,1,0,0:0:0:0:
332,192,49081,128,0,49241:0:0:0:0:
76,192,49241,1,0,0:0:0:0:
179,192,49241,1,0,0:0:0:0:
230,192,49241,1,0,0:0:0:0:
435,192,49401,128,0,49560:0:0:0:0:
384,192,49560,128,0,49720:0:0:0:0:
230,192,49560,1,0,0:0:0:0:
25,192,49720,1,0,0:0:0:0:
281,192,49879,128,0,50039:0:0:0:0:
332,192,49879,1,0,0:0:0:0:
128,192,49879,1,0,0:0:0:0:
486,192,50039,1,0,0:0:0:0:
179,192,50198,128,0,50358:0:0:0:0:
384,192,50198,1,0,0:0:0:0:
25,192,50358,1,0,0:0:0:0:
435,192,50518,128,0,50677:0:0:0:0:
76,192,50518,1,0,0:0:0:0:
128,192,50518,1,0,0:0:0:0:
332,192,50677,128,0,50837:0:0:0:0:
281,192,50837,1,0,0:0:0:0:
179,192,50837,1,0,0:0:0:0:
230,192,50996,128,0,51156:0:0:0:0:
128,192,51156,1,0,0:0:0:0:
384,192,51156,1,0,0:0:0:0:
435,192,51156,1,0,0:0:0:0:
25,192,51315,128,0,51475:0:0:0:0:
128,192,51475,128,0,51635:0:0:0:0:
281,192,51475,1,0,0:0:0:0:
486,192,51635,1,0,0:0:0:0:
230,192,51794,128,0,51954:0:0:0:0:
179,192,51794,1,0,0:0:0:0:
384,192,51794,1,0,0:0:0:0:
25,192,51954,1,0,0:0:0:0:
435,192,52113,1,0,0:0:0:0:
281,192,52113,1,0,0:0:0:0:
76,192,52113,1,0,0:0:0:0:
179,192,52273,1,0,0:0:0:0:
435,192,52432,1,0,0:0:0:0:
179,192,52592,1,0,0:0:0:0:
435,192,52752,1,0,0:0:0:0:
179,192,52911,1,0,0:0:0:0:
435,192,53071,1,0,0:0:0:0:
179,192,53230,1,0,0:0:0:0:
281,192,53390,1,0,0:0:0:0:
25,192,53549,1,0,0:0:0:0:
281,192,53709,1,0,0:0:0:0:
25,192,53869,1,0,0:0:0:0:
281,192,54028,1,0,0:0:0:0:
25,192,54188,1,0,0:0:0:0:
281,192,54347,1,0,0:0:0:0:
25,192,54507,1,0,0:0:0:0:
435,192,54667,1,0,0:0:0:0:
179,192,54826,1,0,0:0:0:0:
435,192,54986,1,0,0:0:0:0:
179,192,55145,1,0,0:0:0:0:
435,192,55305,1,0,0:0:0:0:
179,192,55464,1,0,0:0:0:0:
435,192,55624,1,0,0:0:0:0:
179,192,55784,1,0,0:0:0:0:
281,192,55943,1,0,0:0:0:0:
25,192,56103,1,0,0:0:0:0:
281,192,56262,1,0,0:0:0:0:
25,192,56422,1,0,0:0:0:0:
281,192,56581,1,0,0:0:0:0:
25,192,56741,1,0,0:0:0:0:
281,192,56901,1,0,0:0:0:0:
25,192,57060,1,0,0:0:0:0:
332,192,57220,1,0,0:0:0:0:
128,192,57379,1,0,0:0:0:0:
332,192,57539,1,0,0:0:0:0:
128,192,57698,1,0,0:0:0:0:
332,192,57858,1,0,0:0:0:0:
128,192,58018,1,0,0:0:0:0:
332,192,58177,1,0,0:0:0:0:
128,192,58337,1,0,0:0:0:0:
486,192,58496,1,0,0:0:0:0:
230,192,58656,1,0,0:0:0:0:
486,192,58815,1,0,0:0:0:0:
230,192,58975,1,0,0:0:0:0:
486,192,59135,1,0,0:0:0:0:
230,192,59294,1,0,0:0:0:0:
486,192,59454,1,0,0:0:0:0:
230,192,59613,1,0,0:0:0:0:
332,192,59773,1,0,0:0:0:0:
128,192,59932,1,0,0:0:0:0:
332,192,60092,1,0,0:0:0:0:
128,192,60252,1,0,0:0:0:0:
332,192,60411,1,0,0:0:0:0:
128,192,60571,1,0,0:0:0:0:
332,192,60730,1,0,0:0:0:0:
128,192,60890,1,0,0:0:0:0:
332,192,61049,1,0,0:0:0:0:
435,192,61049,1,0,0:0:0:0:
281,192,61209,1,0,0:0:0:0:
179,192,61369,1,0,0:0:0:0:
128,192,61369,1,0,0:0:0:0:
76,192,61369,1,0,0:0:0:0:
230,192,61528,1,0,0:0:0:0:
435,192,61688,1,0,0:0:0:0:
332,192,61688,1,0,0:0:0:0:
128,192,61847,1,0,0:0:0:0:
384,192,61927,1,0,0:0:0:0:
128,192,62007,1,0,0:0:0:0:
384,192,62087,1,0,0:0:0:0:
128,192,62167,1,0,0:0:0:0:
384,192,62246,1,0,0:0:0:0:
76,192,62326,128,0,62486:0:0:0:0:
486,192,62326,1,0,0:0:0:0:
230,192,62326,1,0,0:0:0:0:
384,192,62486,128,0,62645:0:0:0:0:
332,192,62645,1,0,0:0:0:0:
179,192,62645,1,0,0:0:0:0:
128,192,62645,1,0,0:0:0:0:
25,192,62805,128,0,62964:0:0:0:0:
384,192,62964,1,0,0:0:0:0:
435,192,62964,1,0,0:0:0:0:
128,192,63124,128,0,63284:0:0:0:0:
76,192,63284,1,0,0:0:0:0:
281,192,63284,1,0,0:0:0:0:
384,192,63284,1,0,0:0:0:0:
230,192,63443,128,0,63603:0:0:0:0:
332,192,63603,1,0,0:0:0:0:
179,192,63603,1,0,0:0:0:0:
435,192,63762,128,0,63922:0:0:0:0:
384,192,63922,128,0,64081:0:0:0:0:
25,192,63922,1,0,0:0:0:0:
230,192,63922,1,0,0:0:0:0:
332,192,64081,128,0,64241:0:0:0:0:
486,192,64241,128,0,64401:0:0:0:0:
179,192,64241,1,0,0:0:0:0:
128,192,64401,1,0,0:0:0:0:
76,192,64560,128,0,64720:0:0:0:0:
332,192,64560,1,0,0:0:0:0:
281,192,64560,1,0,0:0:0:0:
332,192,64720,1,0,0:0:0:0:
281,192,64720,1,0,0:0:0:0:
230,192,64879,1,0,0:0:0:0:
486,192,64879,128,0,65039:0:0:0:0:
384,192,65039,128,0,65198:0:0:0:0:
281,192,65198,128,0,65358:0:0:0:0:
179,192,65198,1,0,0:0:0:0:
25,192,65198,1,0,0:0:0:0:
486,192,65358,1,0,0:0:0:0:
128,192,65518,128,0,65677:0:0:0:0:
384,192,65518,1,0,0:0:0:0:
230,192,65677,128,0,65837:0:0:0:0:
25,192,65837,1,0,0:0:0:0:
281,192,65837,1,0,0:0:0:0:
435,192,65837,1,0,0:0:0:0:
128,192,65996,128,0,66156:0:0:0:0:
332,192,66156,1,0,0:0:0:0:
384,192,66156,1,0,0:0:0:0:
179,192,66315,128,0,66475:0:0:0:0:
281,192,66475,1,0,0:0:0:0:
76,192,66475,1,0,0:0:0:0:
332,192,66475,1,0,0:0:0:0:
486,192,66635,128,0,66794:0:0:0:0:
384,192,66794,128,0,66954:0:0:0:0:
128,192,66794,1,0,0:0:0:0:
25,192,66954,1,0,0:0:0:0:
332,192,67113,128,0,67273:0:0:0:0:
179,192,67113,1,0,0:0:0:0:
230,192,67113,1,0,0:0:0:0:
230,192,67273,1,0,0:0:0:0:
179,192,67273,1,0,0:0:0:0:
486,192,67432,1,0,0:0:0:0:
76,192,67432,128,0,67592:0:0:0:0:
128,192,67592,128,0,67752:0:0:0:0:
230,192,67752,1,0,0:0:0:0:
435,192,67752,1,0,0:0:0:0:
332,192,67752,1,0,0:0:0:0:
25,192,67911,128,0,68071:0:0:0:0:
384,192,68071,1,0,0:0:0:0:
128,192,68071,128,0,68230:0:0:0:0:
230,192,68230,128,0,68390:0:0:0:0:
179,192,68390,1,0,0:0:0:0:
76,192,68390,1,0,0:0:0:0:
435,192,68390,128,0,68549:0:0:0:0:
332,192,68549,128,0,68709:0:0:0:0:
230,192,68709,1,0,0:0:0:0:
179,192,68709,1,0,0:0:0:0:
384,192,68869,128,0,69028:0:0:0:0:
486,192,69028,1,0,0:0:0:0:
25,192,69028,1,0,0:0:0:0:
281,192,69028,128,0,69188:0:0:0:0:
179,192,69188,128,0,69347:0:0:0:0:
384,192,69347,1,0,0:0:0:0:
435,192,69347,1,0,0:0:0:0:
76,192,69347,128,0,69507:0:0:0:0:
230,192,69507,1,0,0:0:0:0:
281,192,69667,1,0,0:0:0:0:
128,192,69667,128,0,69826:0:0:0:0:
332,192,69667,1,0,0:0:0:0:
281,192,69826,1,0,0:0:0:0:
332,192,69826,1,0,0:0:0:0:
486,192,69986,1,0,0:0:0:0:
230,192,69986,128,0,70145:0:0:0:0:
332,192,70145,128,0,70305:0:0:0:0:
179,192,70305,1,0,0:0:0:0:
76,192,70305,1,0,0:0:0:0:
435,192,70305,128,0,70464:0:0:0:0:
230,192,70464,1,0,0:0:0:0:
384,192,70624,1,0,0:0:0:0:
25,192,70624,128,0,70784:0:0:0:0:
128,192,70784,128,0,70943:0:0:0:0:
281,192,70943,1,0,0:0:0:0:
486,192,70943,1,0,0:0:0:0:
230,192,70943,1,0,0:0:0:0:
179,192,71103,128,0,71262:0:0:0:0:
435,192,71262,1,0,0:0:0:0:
76,192,71262,1,0,0:0:0:0:
230,192,71422,128,0,71581:0:0:0:0:
128,192,71581,1,0,0:0:0:0:
281,192,71581,1,0,0:0:0:0:
332,192,71581,1,0,0:0:0:0:
486,192,71741,128,0,71901:0:0:0:0:
179,192,71901,1,0,0:0:0:0:
384,192,71901,128,0,72060:0:0:0:0:
25,192,72060,1,0,0:0:0:0:
128,192,72220,1,0,0:0:0:0:
179,192,72220,1,0,0:0:0:0:
281,192,72220,128,0,72379:0:0:0:0:
332,192,72379,1,0,0:0:0:0:
230,192,72539,1,0,0:0:0:0:
384,192,72539,128,0,72698:0:0:0:0:
25,192,72539,1,0,0:0:0:0:
128,192,72698,128,0,72858:0:0:0:0:
281,192,72858,1,0,0:0:0:0:
332,192,72858,1,0,0:0:0:0:
486,192,73018,128,0,73177:0:0:0:0:
230,192,73177,1,0,0:0:0:0:
25,192,73177,1,0,0:0:0:0:
384,192,73337,128,0,73496:0:0:0:0:
435,192,73496,1,0,0:0:0:0:
128,192,73496,1,0,0:0:0:0:
179,192,73496,1,0,0:0:0:0:
281,192,73656,128,0,73815:0:0:0:0:
128,192,73656,1,0,0:0:0:0:
179,192,73656,1,0,0:0:0:0:
332,192,73815,1,0,0:0:0:0:
384,192,73815,1,0,0:0:0:0:
76,192,73975,128,0,74135:0:0:0:0:
128,192,74135,128,0,74294:0:0:0:0:
486,192,74135,1,0,0:0:0:0:
281,192,74135,1,0,0:0:0:0:
179,192,74294,128,0,74454:0:0:0:0:
25,192,74454,128,0,74613:0:0:0:0:
332,192,74454,1,0,0:0:0:0:
384,192,74613,1,0,0:0:0:0:
435,192,74773,128,0,74932:0:0:0:0:
179,192,74773,1,0,0:0:0:0:
230,192,74773,1,0,0:0:0:0:
128,192,74932,1,0,0:0:0:0:
281,192,75092,1,0,0:0:0:0:
25,192,75092,128,0,75252:0:0:0:0:
128,192,75252,128,0,75411:0:0:0:0:
230,192,75411,128,0,75571:0:0:0:0:
332,192,75411,1,0,0:0:0:0:
486,192,75411,1,0,0:0:0:0:
76,192,75571,1,0,0:0:0:0:
384,192,75730,128,0,75890:0:0:0:0:
179,192,75730,1,0,0:0:0:0:
281,192,75890,128,0,76049:0:0:0:0:
486,192,76049,1,0,0:0:0:0:
230,192,76049,1,0,0:0:0:0:
25,192,76049,1,0,0:0:0:0:
384,192,76209,128,0,76369:0:0:0:0:
128,192,76369,1,0,0:0:0:0:
281,192,76369,1,0,0:0:0:0:
384,192,76528,1,0,0:0:0:0:
281,192,76688,1,0,0:0:0:0:
25,192,76688,1,0,0:0:0:0:
281,192,76847,1,0,0:0:0:0:
128,192,76847,1,0,0:0:0:0:
230,192,77007,1,0,0:0:0:0:
486,192,77007,1,0,0:0:0:0:
230,192,77167,1,0,0:0:0:0:
179,192,77326,1,0,0:0:0:0:
384,192,77326,1,0,0:0:0:0:
179,192,77486,1,0,0:0:0:0:
332,192,77645,1,0,0:0:0:0:
128,192,77645,1,0,0:0:0:0:
76,192,77645,1,0,0:0:0:0:
435,192,77805,1,0,0:0:0:0:
332,192,77964,1,0,0:0:0:0:
230,192,77964,1,0,0:0:0:0:
25,192,77964,1,0,0:0:0:0:
435,192,78124,1,0,0:0:0:0:
332,192,78284,1,0,0:0:0:0:
128,192,78284,1,0,0:0:0:0:
435,192,78443,1,0,0:0:0:0:
332,192,78603,1,0,0:0:0:0:
230,192,78603,1,0,0:0:0:0:
25,192,78603,1,0,0:0:0:0:
435,192,78762,1,0,0:0:0:0:
332,192,78922,1,0,0:0:0:0:
76,192,78922,1,0,0:0:0:0:
179,192,79081,1,0,0:0:0:0:
76,192,79241,1,0,0:0:0:0:
486,192,79241,1,0,0:0:0:0:
281,192,79241,1,0,0:0:0:0:
179,192,79401,1,0,0:0:0:0:
76,192,79560,1,0,0:0:0:0:
384,192,79560,1,0,0:0:0:0:
179,192,79720,1,0,0:0:0:0:
76,192,79879,1,0,0:0:0:0:
281,192,79879,1,0,0:0:0:0:
486,192,79879,1,0,0:0:0:0:
179,192,80039,1,0,0:0:0:0:
25,192,80198,1,0,0:0:0:0:
384,192,80198,1,0,0:0:0:0:
281,192,80358,1,0,0:0:0:0:
384,192,80518,1,0,0:0:0:0:
128,192,80518,1,0,0:0:0:0:
179,192,80518,1,0,0:0:0:0:
281,192,80677,1,0,0:0:0:0:
384,192,80837,1,0,0:0:0:0:
25,192,80837,1,0,0:0:0:0:
281,192,80996,1,0,0:0:0:0:
384,192,81156,1,0,0:0:0:0:
128,192,81156,1,0,0:0:0:0:
179,192,81156,1,0,0:0:0:0:
281,192,81315,1,0,0:0:0:0:
179,192,81315,1,0,0:0:0:0:
128,192,81315,1,0,0:0:0:0:
486,192,81475,1,0,0:0:0:0:
230,192,81475,1,0,0:0:0:0:
128,192,81635,1,0,0:0:0:0:
230,192,81794,1,0,0:0:0:0:
384,192,81794,1,0,0:0:0:0:
332,192,81794,1,0,0:0:0:0:
128,192,81954,1,0,0:0:0:0:
230,192,82113,1,0,0:0:0:0:
486,192,82113,1,0,0:0:0:0:
128,192,82273,1,0,0:0:0:0:
230,192,82432,1,0,0:0:0:0:
384,192,82432,1,0,0:0:0:0:
332,192,82432,1,0,0:0:0:0:
128,192,82592,1,0,0:0:0:0:
230,192,82752,1,0,0:0:0:0:
435,192,82752,1,0,0:0:0:0:
332,192,82911,1,0,0:0:0:0:
435,192,83071,1,0,0:0:0:0:
128,192,83071,1,0,0:0:0:0:
76,192,83071,1,0,0:0:0:0:
332,192,83230,1,0,0:0:0:0:
435,192,83390,1,0,0:0:0:0:
230,192,83390,1,0,0:0:0:0:
332,192,83549,1,0,0:0:0:0:
435,192,83709,1,0,0:0:0:0:
128,192,83709,1,0,0:0:0:0:
76,192,83709,1,0,0:0:0:0:
332,192,83869,1,0,0:0:0:0:
76,192,84028,1,0,0:0:0:0:
486,192,84028,1,0,0:0:0:0:
179,192,84188,1,0,0:0:0:0:
76,192,84347,1,0,0:0:0:0:
332,192,84347,1,0,0:0:0:0:
384,192,84347,1,0,0:0:0:0:
179,192,84507,1,0,0:0:0:0:
76,192,84667,1,0,0:0:0:0:
486,192,84667,1,0,0:0:0:0:
179,192,84826,1,0,0:0:0:0:
76,192,84986,1,0,0:0:0:0:
332,192,84986,1,0,0:0:0:0:
384,192,84986,1,0,0:0:0:0:
179,192,85145,1,0,0:0:0:0:
384,192,85145,1,0,0:0:0:0:
332,192,85145,1,0,0:0:0:0:
25,192,85305,1,0,0:0:0:0:
281,192,85305,1,0,0:0:0:0:
384,192,85464,1,0,0:0:0:0:
281,192,85624,1,0,0:0:0:0:
128,192,85624,1,0,0:0:0:0:
179,192,85624,1,0,0:0:0:0:
384,192,85784,1,0,0:0:0:0:
281,192,85943,1,0,0:0:0:0:
25,192,85943,1,0,0:0:0:0:
384,192,86103,1,0,0:0:0:0:
281,192,86262,1,0,0:0:0:0:
128,192,86262,1,0,0:0:0:0:
179,192,86262,1,0,0:0:0:0:
384,192,86422,1,0,0:0:0:0:
281,192,86581,1,0,0:0:0:0:
230,192,86581,1,0,0:0:0:0:
128,192,86741,1,0,0:0:0:0:
230,192,86901,1,0,0:0:0:0:
384,192,86901,1,0,0:0:0:0:
332,192,86901,1,0,0:0:0:0:
128,192,87060,1,0,0:0:0:0:
230,192,87220,1,0,0:0:0:0:
486,192,87220,1,0,0:0:0:0:
128,192,87379,1,0,0:0:0:0:
230,192,87539,1,0,0:0:0:0:
384,192,87539,1,0,0:0:0:0:
332,192,87539,1,0,0:0:0:0:
128,192,87698,1,0,0:0:0:0:
384,192,87698,1,0,0:0:0:0:
332,192,87698,1,0,0:0:0:0:
486,192,87858,1,0,0:0:0:0:
230,192,87858,1,0,0:0:0:0:
384,192,88177,1,0,0:0:0:0:
128,192,88177,1,0,0:0:0:0:
76,192,88177,1,0,0:0:0:0:
230,192,88496,1,0,0:0:0:0:
230,192,88656,1,0,0:0:0:0:
128,192,88815,1,0,0:0:0:0:
486,192,88815,1,0,0:0:0:0:
435,192,88815,1,0,0:0:0:0:
25,192,89135,1,0,0:0:0:0:
332,192,89135,1,0,0:0:0:0:
384,192,89454,1,0,0:0:0:0:
230,192,89454,1,0,0:0:0:0:
128,192,89454,1,0,0:0:0:0:
281,192,89773,1,0,0:0:0:0:
281,192,89932,1,0,0:0:0:0:
435,192,90092,1,0,0:0:0:0:
179,192,90092,1,0,0:0:0:0:
76,192,90092,1,0,0:0:0:0:
332,192,90411,1,0,0:0:0:0:
128,192,90411,1,0,0:0:0:0:
25,192,90730,1,0,0:0:0:0:
435,192,90730,1,0,0:0:0:0:
384,192,90730,1,0,0:0:0:0:
230,192,91049,1,0,0:0:0:0:
230,192,91209,1,0,0:0:0:0:
128,192,91369,1,0,0:0:0:0:
76,192,91369,1,0,0:0:0:0:
332,192,91369,128,0,91528:0:0:0:0:
435,192,91688,1,0,0:0:0:0:
179,192,91688,1,0,0:0:0:0:
76,192,92007,1,0,0:0:0:0:
281,192,92007,1,0,0:0:0:0:
384,192,92007,1,0,0:0:0:0:
486,192,92326,1,0,0:0:0:0:
230,192,92326,1,0,0:0:0:0:
230,192,92486,1,0,0:0:0:0:
179,192,92645,1,0,0:0:0:0:
128,192,92645,1,0,0:0:0:0:
486,192,92645,1,0,0:0:0:0:
25,192,92964,1,0,0:0:0:0:
281,192,92964,1,0,0:0:0:0:
384,192,93284,1,0,0:0:0:0:
128,192,93284,1,0,0:0:0:0:
76,192,93284,1,0,0:0:0:0:
230,192,93603,1,0,0:0:0:0:
230,192,93762,1,0,0:0:0:0:
128,192,93922,1,0,0:0:0:0:
486,192,93922,1,0,0:0:0:0:
435,192,93922,1,0,0:0:0:0:
25,192,94241,1,0,0:0:0:0:
332,192,94241,1,0,0:0:0:0:
384,192,94560,1,0,0:0:0:0:
230,192,94560,1,0,0:0:0:0:
128,192,94560,1,0,0:0:0:0:
281,192,94879,1,0,0:0:0:0:
281,192,95039,1,0,0:0:0:0:
435,192,95198,1,0,0:0:0:0:
179,192,95198,1,0,0:0:0:0:
76,192,95198,1,0,0:0:0:0:
332,192,95518,1,0,0:0:0:0:
128,192,95518,1,0,0:0:0:0:
25,192,95837,1,0,0:0:0:0:
435,192,95837,1,0,0:0:0:0:
384,192,95837,1,0,0:0:0:0:
230,192,96156,1,0,0:0:0:0:
230,192,96315,1,0,0:0:0:0:
128,192,96475,1,0,0:0:0:0:
76,192,96475,1,0,0:0:0:0:
332,192,96475,128,0,96635:0:0:0:0:
435,192,96794,1,0,0:0:0:0:
179,192,96794,1,0,0:0:0:0:
281,192,97113,1,0,0:0:0:0:
76,192,97113,1,0,0:0:0:0:
384,192,97113,1,0,0:0:0:0:
128,192,97432,1,0,0:0:0:0:
435,192,97432,1,0,0:0:0:0:
179,192,97752,1,0,0:0:0:0:
230,192,97752,1,0,0:0:0:0:
435,192,97752,1,0,0:0:0:0:
25,192,98071,1,0,0:0:0:0:
281,192,98071,1,0,0:0:0:0:
332,192,98071,1,0,0:0:0:0:
128,192,98230,1,0,0:0:0:0:
230,192,98390,1,0,0:0:0:0:
384,192,98390,1,0,0:0:0:0:
435,192,98390,1,0,0:0:0:0:
128,192,98549,1,0,0:0:0:0:
332,192,98709,1,0,0:0:0:0:
281,192,98709,1,0,0:0:0:0:
128,192,98869,1,0,0:0:0:0:
230,192,99028,1,0,0:0:0:0:
384,192,99028,1,0,0:0:0:0:
435,192,99028,1,0,0:0:0:0:
128,192,99188,1,0,0:0:0:0:
486,192,99347,1,0,0:0:0:0:
230,192,99347,1,0,0:0:0:0:
384,192,99507,1,0,0:0:0:0:
281,192,99667,1,0,0:0:0:0:
128,192,99667,1,0,0:0:0:0:
76,192,99667,1,0,0:0:0:0:
384,192,99826,1,0,0:0:0:0:
179,192,99986,1,0,0:0:0:0:
230,192,99986,1,0,0:0:0:0:
384,192,100145,1,0,0:0:0:0:
281,192,100305,1,0,0:0:0:0:
128,192,100305,1,0,0:0:0:0:
76,192,100305,1,0,0:0:0:0:
384,192,100464,1,0,0:0:0:0:
25,192,100624,1,0,0:0:0:0:
281,192,100624,1,0,0:0:0:0:
179,192,100784,1,0,0:0:0:0:
76,192,100943,1,0,0:0:0:0:
435,192,100943,1,0,0:0:0:0:
384,192,100943,1,0,0:0:0:0:
179,192,101103,1,0,0:0:0:0:
332,192,101262,1,0,0:0:0:0:
281,192,101262,1,0,0:0:0:0:
179,192,101422,1,0,0:0:0:0:
76,192,101581,1,0,0:0:0:0:
384,192,101581,1,0,0:0:0:0:
435,192,101581,1,0,0:0:0:0:
179,192,101741,1,0,0:0:0:0:
384,192,101741,1,0,0:0:0:0:
435,192,101741,1,0,0:0:0:0:
332,192,101901,1,0,0:0:0:0:
76,192,101901,1,0,0:0:0:0:
486,192,102060,1,0,0:0:0:0:
179,192,102220,1,0,0:0:0:0:
128,192,102220,1,0,0:0:0:0:
281,192,102220,1,0,0:0:0:0:
25,192,102379,1,0,0:0:0:0:
230,192,102539,1,0,0:0:0:0:
435,192,102539,1,0,0:0:0:0:
332,192,102698,1,0,0:0:0:0:
179,192,102778,1,0,0:0:0:0:
332,192,102858,1,0,0:0:0:0:
179,192,102938,1,0,0:0:0:0:
332,192,103018,1,0,0:0:0:0:
179,192,103097,1,0,0:0:0:0:
486,192,103177,1,0,0:0:0:0:
230,192,103177,128,0,103337:0:0:0:0:
384,192,103337,1,0,0:0:0:0:
25,192,103496,128,0,103656:0:0:0:0:
281,192,103496,1,0,0:0:0:0:
332,192,103496,1,0,0:0:0:0:
179,192,103656,128,0,103815:0:0:0:0:
332,192,103815,1,0,0:0:0:0:
384,192,103815,1,0,0:0:0:0:
128,192,103975,128,0,104135:0:0:0:0:
281,192,104135,128,0,104294:0:0:0:0:
230,192,104135,1,0,0:0:0:0:
486,192,104135,1,0,0:0:0:0:
25,192,104294,1,0,0:0:0:0:
435,192,104454,128,0,104613:0:0:0:0:
128,192,104454,1,0,0:0:0:0:
332,192,104613,128,0,104773:0:0:0:0:
435,192,104773,128,0,104932:0:0:0:0:
179,192,104773,1,0,0:0:0:0:
76,192,104773,1,0,0:0:0:0:
230,192,104932,128,0,105092:0:0:0:0:
384,192,105092,1,0,0:0:0:0:
25,192,105092,1,0,0:0:0:0:
179,192,105252,128,0,105411:0:0:0:0:
435,192,105411,1,0,0:0:0:0:
332,192,105411,1,0,0:0:0:0:
230,192,105411,1,0,0:0:0:0:
25,192,105571,128,0,105730:0:0:0:0:
128,192,105730,128,0,105890:0:0:0:0:
281,192,105730,1,0,0:0:0:0:
486,192,105890,1,0,0:0:0:0:
230,192,106049,128,0,106209:0:0:0:0:
179,192,106049,1,0,0:0:0:0:
384,192,106049,1,0,0:0:0:0:
25,192,106209,1,0,0:0:0:0:
281,192,106369,128,0,106528:0:0:0:0:
128,192,106369,1,0,0:0:0:0:
486,192,106528,1,0,0:0:0:0:
76,192,106688,128,0,106847:0:0:0:0:
332,192,106688,1,0,0:0:0:0:
384,192,106688,1,0,0:0:0:0:
179,192,106847,128,0,107167:0:0:0:0:
384,192,106847,1,0,0:0:0:0:
332,192,106847,1,0,0:0:0:0:
281,192,107167,128,0,107486:0:0:0:0:
486,192,107486,128,0,107964:0:0:0:0:
230,192,107645,128,0,107964:0:0:0:0:
25,192,107964,128,0,108284:0:0:0:0:
230,192,108284,1,0,0:0:0:0:
384,192,108284,128,0,108443:0:0:0:0:
179,192,108284,1,0,0:0:0:0:
76,192,108443,128,0,108603:0:0:0:0:
281,192,108603,1,0,0:0:0:0:
332,192,108603,1,0,0:0:0:0:
128,192,108603,1,0,0:0:0:0:
486,192,108762,128,0,108922:0:0:0:0:
76,192,108922,1,0,0:0:0:0:
25,192,108922,1,0,0:0:0:0:
384,192,109081,128,0,109241:0:0:0:0:
435,192,109241,1,0,0:0:0:0:
230,192,109241,1,0,0:0:0:0:
128,192,109241,1,0,0:0:0:0:
281,192,109401,128,0,109560:0:0:0:0:
179,192,109560,1,0,0:0:0:0:
332,192,109560,1,0,0:0:0:0:
76,192,109720,128,0,109879:0:0:0:0:
128,192,109879,128,0,110039:0:0:0:0:
486,192,109879,1,0,0:0:0:0:
281,192,109879,1,0,0:0:0:0:
179,192,110039,128,0,110198:0:0:0:0:
25,192,110198,128,0,110358:0:0:0:0:
332,192,110198,1,0,0:0:0:0:
384,192,110358,1,0,0:0:0:0:
435,192,110518,128,0,110677:0:0:0:0:
179,192,110518,1,0,0:0:0:0:
230,192,110518,1,0,0:0:0:0:
179,192,110677,1,0,0:0:0:0:
230,192,110677,1,0,0:0:0:0:
281,192,110837,1,0,0:0:0:0:
25,192,110837,128,0,110996:0:0:0:0:
128,192,110996,128,0,111156:0:0:0:0:
230,192,111156,128,0,111315:0:0:0:0:
332,192,111156,1,0,0:0:0:0:
486,192,111156,1,0,0:0:0:0:
25,192,111315,1,0,0:0:0:0:
384,192,111475,128,0,111635:0:0:0:0:
128,192,111475,1,0,0:0:0:0:
281,192,111635,128,0,111794:0:0:0:0:
486,192,111794,1,0,0:0:0:0:
230,192,111794,1,0,0:0:0:0:
76,192,111794,1,0,0:0:0:0:
384,192,111954,128,0,112113:0:0:0:0:
179,192,112113,1,0,0:0:0:0:
128,192,112113,1,0,0:0:0:0:
332,192,112273,128,0,112432:0:0:0:0:
230,192,112432,1,0,0:0:0:0:
435,192,112432,1,0,0:0:0:0:
179,192,112432,1,0,0:0:0:0:
25,192,112592,128,0,112752:0:0:0:0:
128,192,112752,128,0,112911:0:0:0:0:
384,192,112752,1,0,0:0:0:0:
486,192,112911,1,0,0:0:0:0:
179,192,113071,128,0,113230:0:0:0:0:
332,192,113071,1,0,0:0:0:0:
281,192,113071,1,0,0:0:0:0:
281,192,113230,1,0,0:0:0:0:
332,192,113230,1,0,0:0:0:0:
76,192,113390,128,0,113549:0:0:0:0:
486,192,113390,1,0,0:0:0:0:
179,192,113549,128,0,113709:0:0:0:0:
332,192,113709,1,0,0:0:0:0:
435,192,113709,1,0,0:0:0:0:
230,192,113709,1,0,0:0:0:0:
25,192,113869,128,0,114028:0:0:0:0:
128,192,114028,128,0,114188:0:0:0:0:
384,192,114028,1,0,0:0:0:0:
230,192,114188,128,0,114347:0:0:0:0:
435,192,114347,128,0,114507:0:0:0:0:
76,192,114347,1,0,0:0:0:0:
179,192,114347,1,0,0:0:0:0:
332,192,114507,128,0,114667:0:0:0:0:
179,192,114667,1,0,0:0:0:0:
230,192,114667,1,0,0:0:0:0:
384,192,114826,128,0,114986:0:0:0:0:
281,192,114986,128,0,115145:0:0:0:0:
25,192,114986,1,0,0:0:0:0:
486,192,114986,1,0,0:0:0:0:
179,192,115145,128,0,115305:0:0:0:0:
76,192,115305,128,0,115464:0:0:0:0:
435,192,115305,1,0,0:0:0:0:
384,192,115305,1,0,0:0:0:0:
230,192,115464,1,0,0:0:0:0:
128,192,115624,128,0,115784:0:0:0:0:
281,192,115624,1,0,0:0:0:0:
332,192,115624,1,0,0:0:0:0:
281,192,115784,1,0,0:0:0:0:
332,192,115784,1,0,0:0:0:0:
230,192,115943,128,0,116103:0:0:0:0:
486,192,115943,1,0,0:0:0:0:
281,192,116103,128,0,116262:0:0:0:0:
332,192,116262,128,0,116422:0:0:0:0:
76,192,116262,1,0,0:0:0:0:
179,192,116262,1,0,0:0:0:0:
486,192,116422,1,0,0:0:0:0:
25,192,116581,128,0,116741:0:0:0:0:
384,192,116581,1,0,0:0:0:0:
128,192,116741,128,0,116901:0:0:0:0:
281,192,116901,1,0,0:0:0:0:
332,192,116901,1,0,0:0:0:0:
230,192,116901,1,0,0:0:0:0:
179,192,117060,128,0,117220:0:0:0:0:
435,192,117220,1,0,0:0:0:0:
128,192,117220,1,0,0:0:0:0:
230,192,117379,128,0,117539:0:0:0:0:
179,192,117539,1,0,0:0:0:0:
332,192,117539,1,0,0:0:0:0:
384,192,117539,1,0,0:0:0:0:
486,192,117698,128,0,117858:0:0:0:0:
281,192,117858,128,0,118018:0:0:0:0:
230,192,117858,1,0,0:0:0:0:
128,192,118018,1,0,0:0:0:0:
384,192,118097,1,0,0:0:0:0:
128,192,118177,1,0,0:0:0:0:
384,192,118257,1,0,0:0:0:0:
128,192,118337,1,0,0:0:0:0:
384,192,118417,1,0,0:0:0:0:
230,192,118496,1,0,0:0:0:0:
486,192,118496,1,0,0:0:0:0:
25,192,118496,1,0,0:0:0:0:
128,192,118656,1,0,0:0:0:0:
332,192,118815,1,0,0:0:0:0:
281,192,118815,1,0,0:0:0:0:
25,192,118815,1,0,0:0:0:0:
230,192,118975,1,0,0:0:0:0:
384,192,119135,1,0,0:0:0:0:
76,192,119135,1,0,0:0:0:0:
332,192,119294,1,0,0:0:0:0:
435,192,119454,1,0,0:0:0:0:
486,192,119454,1,0,0:0:0:0:
128,192,119454,1,0,0:0:0:0:
281,192,119613,1,0,0:0:0:0:
384,192,119773,1,0,0:0:0:0:
179,192,119773,1,0,0:0:0:0:
230,192,119932,1,0,0:0:0:0:
25,192,120092,1,0,0:0:0:0:
332,192,120092,1,0,0:0:0:0:
281,192,120092,1,0,0:0:0:0:
128,192,120252,1,0,0:0:0:0:
179,192,120411,1,0,0:0:0:0:
384,192,120411,1,0,0:0:0:0:
435,192,120571,1,0,0:0:0:0:
128,192,120730,1,0,0:0:0:0:
76,192,120730,1,0,0:0:0:0:
281,192,120730,1,0,0:0:0:0:
128,192,120890,1,0,0:0:0:0:
76,192,120890,1,0,0:0:0:0:
486,192,121049,1,0,0:0:0:0:
230,192,121049,1,0,0:0:0:0:
384,192,121209,1,0,0:0:0:0:
281,192,121369,1,0,0:0:0:0:
179,192,121369,1,0,0:0:0:0:
128,192,121369,1,0,0:0:0:0:
25,192,121528,1,0,0:0:0:0:
230,192,121688,1,0,0:0:0:0:
435,192,121688,1,0,0:0:0:0:
332,192,121847,1,0,0:0:0:0:
486,192,122007,1,0,0:0:0:0:
76,192,122007,1,0,0:0:0:0:
128,192,122007,1,0,0:0:0:0:
179,192,122167,1,0,0:0:0:0:
25,192,122326,1,0,0:0:0:0:
281,192,122326,1,0,0:0:0:0:
384,192,122486,1,0,0:0:0:0:
486,192,122645,1,0,0:0:0:0:
128,192,122645,1,0,0:0:0:0:
179,192,122645,1,0,0:0:0:0:
332,192,122805,1,0,0:0:0:0:
230,192,122964,1,0,0:0:0:0:
435,192,122964,1,0,0:0:0:0:
128,192,123124,1,0,0:0:0:0:
25,192,123284,1,0,0:0:0:0:
281,192,123284,1,0,0:0:0:0:
332,192,123284,1,0,0:0:0:0:
332,192,123443,1,0,0:0:0:0:
281,192,123443,1,0,0:0:0:0:
230,192,123603,1,0,0:0:0:0:
486,192,123603,1,0,0:0:0:0:
128,192,123762,1,0,0:0:0:0:
332,192,123922,1,0,0:0:0:0:
281,192,123922,1,0,0:0:0:0:
25,192,123922,1,0,0:0:0:0:
230,192,124081,1,0,0:0:0:0:
384,192,124241,1,0,0:0:0:0:
76,192,124241,1,0,0:0:0:0:
332,192,124401,1,0,0:0:0:0:
435,192,124560,1,0,0:0:0:0:
486,192,124560,1,0,0:0:0:0:
128,192,124560,1,0,0:0:0:0:
281,192,124720,1,0,0:0:0:0:
384,192,124879,1,0,0:0:0:0:
179,192,124879,1,0,0:0:0:0:
230,192,125039,1,0,0:0:0:0:
25,192,125198,1,0,0:0:0:0:
332,192,125198,1,0,0:0:0:0:
281,192,125198,1,0,0:0:0:0:
128,192,125358,1,0,0:0:0:0:
179,192,125518,1,0,0:0:0:0:
384,192,125518,1,0,0:0:0:0:
435,192,125677,1,0,0:0:0:0:
128,192,125837,1,0,0:0:0:0:
76,192,125837,1,0,0:0:0:0:
281,192,125837,1,0,0:0:0:0:
128,192,125996,1,0,0:0:0:0:
76,192,125996,1,0,0:0:0:0:
486,192,126156,1,0,0:0:0:0:
230,192,126156,1,0,0:0:0:0:
384,192,126315,1,0,0:0:0:0:
281,192,126475,1,0,0:0:0:0:
179,192,126475,1,0,0:0:0:0:
128,192,126475,1,0,0:0:0:0:
25,192,126635,1,0,0:0:0:0:
230,192,126794,1,0,0:0:0:0:
435,192,126794,1,0,0:0:0:0:
332,192,126954,1,0,0:0:0:0:
486,192,127113,1,0,0:0:0:0:
76,192,127113,1,0,0:0:0:0:
128,192,127113,1,0,0:0:0:0:
179,192,127273,1,0,0:0:0:0:
25,192,127432,1,0,0:0:0:0:
281,192,127432,1,0,0:0:0:0:
384,192,127592,5,0,0:0:0:0:
486,192,127752,1,0,0:0:0:0:
128,192,127752,1,0,0:0:0:0:
179,192,127752,1,0,0:0:0:0:
332,192,127911,1,0,0:0:0:0:
435,192,128071,1,0,0:0:0:0:
76,192,128071,1,0,0:0:0:0:
179,192,128230,1,0,0:0:0:0:
332,192,128310,1,0,0:0:0:0:
179,192,128390,1,0,0:0:0:0:
332,192,128470,1,0,0:0:0:0:
179,192,128549,1,0,0:0:0:0:
332,192,128629,1,0,0:0:0:0:
230,192,128709,5,0,0:0:0:0:
486,192,128709,1,0,0:0:0:0:
25,192,128709,1,0,0:0:0:0:
384,192,128869,1,0,0:0:0:0:
179,192,129028,1,0,0:0:0:0:
332,192,129188,1,0,0:0:0:0:
128,192,129347,1,0,0:0:0:0:
281,192,129507,1,0,0:0:0:0:
435,192,129667,1,0,0:0:0:0:
332,192,129826,1,0,0:0:0:0:
230,192,129986,1,0,0:0:0:0:
486,192,130145,1,0,0:0:0:0:
179,192,130305,1,0,0:0:0:0:
384,192,130464,1,0,0:0:0:0:
128,192,130624,1,0,0:0:0:0:
281,192,130784,1,0,0:0:0:0:
76,192,130943,1,0,0:0:0:0:
332,192,131103,1,0,0:0:0:0:
332,192,131262,1,0,0:0:0:0:
128,192,131422,1,0,0:0:0:0:
384,192,131581,1,0,0:0:0:0:
179,192,131741,1,0,0:0:0:0:
435,192,131901,1,0,0:0:0:0:
230,192,132060,1,0,0:0:0:0:
76,192,132220,1,0,0:0:0:0:
179,192,132379,1,0,0:0:0:0:
281,192,132539,1,0,0:0:0:0:
486,192,132698,1,0,0:0:0:0:
230,192,132858,1,0,0:0:0:0:
384,192,133018,1,0,0:0:0:0:
128,192,133177,1,0,0:0:0:0:
281,192,133337,1,0,0:0:0:0:
25,192,133496,1,0,0:0:0:0:
179,192,133656,1,0,0:0:0:0:
281,192,133815,5,0,0:0:0:0:
128,192,133975,1,0,0:0:0:0:
332,192,134135,1,0,0:0:0:0:
179,192,134294,1,0,0:0:0:0:
384,192,134454,1,0,0:0:0:0:
230,192,134613,1,0,0:0:0:0:
76,192,134773,1,0,0:0:0:0:
179,192,134932,1,0,0:0:0:0:
281,192,135092,1,0,0:0:0:0:
25,192,135252,1,0,0:0:0:0:
332,192,135411,1,0,0:0:0:0:
128,192,135571,1,0,0:0:0:0:
384,192,135730,1,0,0:0:0:0:
230,192,135890,1,0,0:0:0:0:
435,192,136049,1,0,0:0:0:0:
179,192,136209,1,0,0:0:0:0:
179,192,136369,1,0,0:0:0:0:
384,192,136528,1,0,0:0:0:0:
128,192,136688,1,0,0:0:0:0:
332,192,136847,1,0,0:0:0:0:
76,192,137007,1,0,0:0:0:0:
281,192,137167,1,0,0:0:0:0:
435,192,137326,1,0,0:0:0:0:
332,192,137486,1,0,0:0:0:0:
230,192,137645,1,0,0:0:0:0:
76,192,137805,1,0,0:0:0:0:
179,192,137964,1,0,0:0:0:0:
281,192,138124,1,0,0:0:0:0:
128,192,138284,1,0,0:0:0:0:
384,192,138443,1,0,0:0:0:0:
281,192,138523,1,0,0:0:0:0:
179,192,138603,1,0,0:0:0:0:
332,192,138762,1,0,0:0:0:0:
25,192,138922,1,0,0:0:0:0:
486,192,138922,1,0,0:0:0:0:
230,192,138922,1,0,0:0:0:0:
