osu file format v14

[General]
AudioFilename: audio.mp3
AudioLeadIn: 0
PreviewTime: 62326
Countdown: 0
SampleSet: Soft
StackLeniency: 0.7
Mode: 3
LetterboxInBreaks: 0
SpecialStyle: 0
WidescreenStoryboard: 1

[Editor]
Bookmarks: 71519
DistanceSpacing: 0.1
BeatDivisor: 4
GridSize: 32
TimelineZoom: 2

[Metadata]
Title:Joy of Living (Cut Ver.)
TitleUnicode:Joy of Living (Cut Ver.)
Artist:Wiklund
ArtistUnicode:Wiklund
Creator:Ly_tou
Version:Easy
Source:
Tags:Electronic Instrumental chiptune 8-bit 8 bit cheerful playful upbeat MG MPG Mappers' Guild FA Featured Artist Wing Beats Marcialus
BeatmapID:4473088
BeatmapSetID:2127811

[Difficulty]
HPDrainRate:6.5
CircleSize:10
OverallDifficulty:6.5
ApproachRate:5
SliderMultiplier:1.4
SliderTickRate:1

[Events]
//Background and Video events
0,0,"Rainbow_Overdose_Wallpaper_by_pronouncedyou.jpg",0,0
//Break Periods
//Storyboard Layer 0 (Background)
//Storyboard Layer 1 (Fail)
//Storyboard Layer 2 (Pass)
//Storyboard Layer 3 (Foreground)
//Storyboard Layer 4 (Overlay)
//Storyboard Sound Samples

[TimingPoints]
1050,319.148936170212,4,2,1,30,1,0
16369,-100,4,2,1,30,0,1
31688,-100,4,2,1,30,0,0
62326,-100,4,2,1,30,0,1
76369,-100,4,2,1,30,0,0
108284,-100,4,2,1,30,0,1
118496,-100,4,2,1,30,0,0

[HitObjects]
76,192,1050,5,0,0:0:0:0:
281,192,1369,1,0,0:0:0:0:
128,192,1688,1,0,0:0:0:0:
332,192,2007,1,0,0:0:0:0:
179,192,2326,1,0,0:0:0:0:
384,192,2645,1,0,0:0:0:0:
128,192,2964,1,0,0:0:0:0:
332,192,3284,1,0,0:0:0:0:
76,192,3603,1,0,0:0:0:0:
384,192,3922,1,0,0:0:0:0:
128,192,4241,1,0,0:0:0:0:
435,192,4560,1,0,0:0:0:0:
179,192,4879,1,0,0:0:0:0:
486,192,5198,1,0,0:0:0:0:
128,192,5518,1,0,0:0:0:0:
384,192,5837,1,0,0:0:0:0:
25,192,6156,5,0,0:0:0:0:
281,192,6156,1,0,0:0:0:0:
384,192,6475,1,0,0:0:0:0:
128,192,6794,1,0,0:0:0:0:
332,192,7113,1,0,0:0:0:0:
179,192,7432,1,0,0:0:0:0:
384,192,7752,1,0,0:0:0:0:
128,192,8071,1,0,0:0:0:0:
332,192,8390,1,0,0:0:0:0:
76,192,8709,1,0,0:0:0:0:
384,192,9028,1,0,0:0:0:0:
128,192,9347,1,0,0:0:0:0:
435,192,9667,1,0,0:0:0:0:
179,192,9986,1,0,0:0:0:0:
486,192,10305,1,0,0:0:0:0:
128,192,10624,1,0,0:0:0:0:
384,192,10943,1,0,0:0:0:0:
25,192,11262,5,0,0:0:0:0:
281,192,11581,1,0,0:0:0:0:
128,192,11901,1,0,0:0:0:0:
332,192,12220,1,0,0:0:0:0:
179,192,12539,1,0,0:0:0:0:
384,192,12858,1,0,0:0:0:0:
128,192,13177,1,0,0:0:0:0:
332,192,13496,1,0,0:0:0:0:
76,192,13815,1,0,0:0:0:0:
384,192,14135,1,0,0:0:0:0:
128,192,14454,1,0,0:0:0:0:
435,192,14773,1,0,0:0:0:0:
179,192,15092,1,0,0:0:0:0:
486,192,15411,1,0,0:0:0:0:
128,192,15730,1,0,0:0:0:0:
384,192,16049,1,0,0:0:0:0:
25,192,16369,1,0,0:0:0:0:
281,192,16369,1,0,0:0:0:0:
435,192,16528,1,0,0:0:0:0:
76,192,16847,1,0,0:0:0:0:
230,192,17167,1,0,0:0:0:0:
384,192,17486,1,0,0:0:0:0:
435,192,17805,1,0,0:0:0:0:
332,192,17964,1,0,0:0:0:0:
230,192,18124,1,0,0:0:0:0:
128,192,18284,1,0,0:0:0:0:
179,192,18603,1,0,0:0:0:0:
486,192,18922,1,0,0:0:0:0:
332,192,19081,1,0,0:0:0:0:
179,192,19241,1,0,0:0:0:0:
332,192,19560,1,0,0:0:0:0:
179,192,19720,1,0,0:0:0:0:
76,192,20039,1,0,0:0:0:0:
230,192,20358,1,0,0:0:0:0:
486,192,20677,1,0,0:0:0:0:
384,192,20837,1,0,0:0:0:0:
230,192,21156,1,0,0:0:0:0:
25,192,21475,1,0,0:0:0:0:
179,192,21635,1,0,0:0:0:0:
435,192,21954,1,0,0:0:0:0:
332,192,22113,1,0,0:0:0:0:
230,192,22273,1,0,0:0:0:0:
128,192,22432,1,0,0:0:0:0:
281,192,22592,1,0,0:0:0:0:
25,192,22911,1,0,0:0:0:0:
179,192,23071,1,0,0:0:0:0:
332,192,23230,1,0,0:0:0:0:
486,192,23390,1,0,0:0:0:0:
230,192,23709,1,0,0:0:0:0:
435,192,24028,1,0,0:0:0:0:
332,192,24188,1,0,0:0:0:0:
230,192,24347,1,0,0:0:0:0:
76,192,24667,1,0,0:0:0:0:
179,192,24826,1,0,0:0:0:0:
281,192,25145,1,0,0:0:0:0:
332,192,25464,1,0,0:0:0:0:
128,192,25784,1,0,0:0:0:0:
230,192,25943,1,0,0:0:0:0:
281,192,26262,1,0,0:0:0:0:
25,192,26581,1,0,0:0:0:0:
128,192,26741,1,0,0:0:0:0:
435,192,27060,1,0,0:0:0:0:
332,192,27220,1,0,0:0:0:0:
230,192,27379,1,0,0:0:0:0:
128,192,27539,1,0,0:0:0:0:
281,192,27698,1,0,0:0:0:0:
25,192,28018,1,0,0:0:0:0:
179,192,28177,1,0,0:0:0:0:
332,192,28337,1,0,0:0:0:0:
486,192,28496,1,0,0:0:0:0:
230,192,28815,1,0,0:0:0:0:
435,192,29135,1,0,0:0:0:0:
332,192,29294,1,0,0:0:0:0:
230,192,29454,1,0,0:0:0:0:
76,192,29773,1,0,0:0:0:0:
179,192,29932,1,0,0:0:0:0:
281,192,30252,1,0,0:0:0:0:
332,192,30571,1,0,0:0:0:0:
25,192,30890,1,0,0:0:0:0:
179,192,31049,1,0,0:0:0:0:
281,192,31369,128,0,31688:0:0:0:0:
230,192,31688,1,0,0:0:0:0:
76,192,32007,1,0,0:0:0:0:
179,192,32167,1,0,0:0:0:0:
281,192,32645,1,0,0:0:0:0:
332,192,32964,1,0,0:0:0:0:
384,192,33284,1,0,0:0:0:0:
128,192,33603,1,0,0:0:0:0:
230,192,33762,1,0,0:0:0:0:
332,192,34081,1,0,0:0:0:0:
76,192,34401,1,0,0:0:0:0:
230,192,34560,1,0,0:0:0:0:
281,192,34879,1,0,0:0:0:0:
435,192,35198,1,0,0:0:0:0:
332,192,35358,1,0,0:0:0:0:
230,192,35677,1,0,0:0:0:0:
179,192,35996,1,0,0:0:0:0:
76,192,36156,1,0,0:0:0:0:
281,192,36475,1,0,0:0:0:0:
230,192,36794,1,0,0:0:0:0:
76,192,37113,1,0,0:0:0:0:
179,192,37273,1,0,0:0:0:0:
281,192,37752,1,0,0:0:0:0:
332,192,38071,1,0,0:0:0:0:
384,192,38390,1,0,0:0:0:0:
128,192,38709,1,0,0:0:0:0:
230,192,38869,1,0,0:0:0:0:
332,192,39188,1,0,0:0:0:0:
76,192,39507,1,0,0:0:0:0:
230,192,39667,1,0,0:0:0:0:
281,192,39986,1,0,0:0:0:0:
435,192,40305,1,0,0:0:0:0:
332,192,40464,1,0,0:0:0:0:
230,192,40784,1,0,0:0:0:0:
179,192,41103,1,0,0:0:0:0:
76,192,41262,1,0,0:0:0:0:
281,192,41581,1,0,0:0:0:0:
230,192,41901,128,0,42220:0:0:0:0:
486,192,42220,1,0,0:0:0:0:
332,192,42379,1,0,0:0:0:0:
384,192,42698,1,0,0:0:0:0:
230,192,42858,1,0,0:0:0:0:
76,192,43177,1,0,0:0:0:0:
179,192,43337,1,0,0:0:0:0:
76,192,43496,1,0,0:0:0:0:
281,192,43656,1,0,0:0:0:0:
384,192,43975,1,0,0:0:0:0:
128,192,44294,1,0,0:0:0:0:
230,192,44454,1,0,0:0:0:0:
332,192,44773,1,0,0:0:0:0:
435,192,45092,1,0,0:0:0:0:
25,192,45411,1,0,0:0:0:0:
128,192,45571,1,0,0:0:0:0:
281,192,45890,1,0,0:0:0:0:
128,192,46209,1,0,0:0:0:0:
230,192,46369,1,0,0:0:0:0:
332,192,46688,1,0,0:0:0:0:
230,192,47007,128,0,47326:0:0:0:0:
486,192,47326,1,0,0:0:0:0:
332,192,47486,1,0,0:0:0:0:
384,192,47805,1,0,0:0:0:0:
230,192,47964,1,0,0:0:0:0:
76,192,48284,1,0,0:0:0:0:
179,192,48443,1,0,0:0:0:0:
76,192,48603,1,0,0:0:0:0:
281,192,48762,1,0,0:0:0:0:
384,192,49081,1,0,0:0:0:0:
128,192,49401,1,0,0:0:0:0:
230,192,49560,1,0,0:0:0:0:
332,192,49879,1,0,0:0:0:0:
435,192,50198,1,0,0:0:0:0:
25,192,50518,1,0,0:0:0:0:
128,192,50677,1,0,0:0:0:0:
281,192,50996,1,0,0:0:0:0:
128,192,51315,1,0,0:0:0:0:
230,192,51475,1,0,0:0:0:0:
332,192,51794,1,0,0:0:0:0:
25,192,52113,1,0,0:0:0:0:
486,192,52113,1,0,0:0:0:0:
179,192,53071,1,0,0:0:0:0:
332,192,53390,1,0,0:0:0:0:
332,192,54347,1,0,0:0:0:0:
179,192,54667,1,0,0:0:0:0:
128,192,55624,128,0,55943:0:0:0:0:
384,192,55943,1,0,0:0:0:0:
230,192,56581,1,0,0:0:0:0:
230,192,56901,1,0,0:0:0:0:
230,192,57220,1,0,0:0:0:0:
332,192,58177,1,0,0:0:0:0:
179,192,58496,1,0,0:0:0:0:
179,192,59454,1,0,0:0:0:0:
332,192,59773,1,0,0:0:0:0:
384,192,60730,128,0,61049:0:0:0:0:
230,192,61049,1,0,0:0:0:0:
281,192,61369,1,0,0:0:0:0:
230,192,61688,1,0,0:0:0:0:
332,192,61847,128,0,62326:0:0:0:0:
25,192,62326,1,0,0:0:0:0:
281,192,62326,1,0,0:0:0:0:
435,192,62486,1,0,0:0:0:0:
76,192,62805,1,0,0:0:0:0:
230,192,63124,1,0,0:0:0:0:
384,192,63443,1,0,0:0:0:0:
435,192,63762,1,0,0:0:0:0:
332,192,63922,1,0,0:0:0:0:
230,192,64081,1,0,0:0:0:0:
128,192,64241,1,0,0:0:0:0:
179,192,64560,1,0,0:0:0:0:
486,192,64879,1,0,0:0:0:0:
332,192,65039,1,0,0:0:0:0:
179,192,65198,1,0,0:0:0:0:
332,192,65518,1,0,0:0:0:0:
179,192,65677,1,0,0:0:0:0:
76,192,65996,1,0,0:0:0:0:
230,192,66315,1,0,0:0:0:0:
486,192,66635,1,0,0:0:0:0:
384,192,66794,1,0,0:0:0:0:
230,192,67113,1,0,0:0:0:0:
25,192,67432,1,0,0:0:0:0:
179,192,67592,1,0,0:0:0:0:
435,192,67911,1,0,0:0:0:0:
332,192,68071,1,0,0:0:0:0:
230,192,68230,1,0,0:0:0:0:
128,192,68390,1,0,0:0:0:0:
281,192,68549,1,0,0:0:0:0:
25,192,68869,1,0,0:0:0:0:
230,192,69028,1,0,0:0:0:0:
486,192,69188,1,0,0:0:0:0:
332,192,69347,1,0,0:0:0:0:
230,192,69667,1,0,0:0:0:0:
435,192,69986,1,0,0:0:0:0:
332,192,70145,1,0,0:0:0:0:
230,192,70305,1,0,0:0:0:0:
76,192,70624,1,0,0:0:0:0:
179,192,70784,1,0,0:0:0:0:
281,192,71103,1,0,0:0:0:0:
332,192,71422,1,0,0:0:0:0:
128,192,71741,1,0,0:0:0:0:
230,192,71901,1,0,0:0:0:0:
281,192,72220,1,0,0:0:0:0:
25,192,72539,1,0,0:0:0:0:
128,192,72698,1,0,0:0:0:0:
435,192,73018,1,0,0:0:0:0:
332,192,73337,1,0,0:0:0:0:
230,192,73656,1,0,0:0:0:0:
25,192,73975,1,0,0:0:0:0:
179,192,74135,1,0,0:0:0:0:
332,192,74294,1,0,0:0:0:0:
486,192,74454,1,0,0:0:0:0:
230,192,74773,1,0,0:0:0:0:
435,192,75092,1,0,0:0:0:0:
332,192,75252,1,0,0:0:0:0:
230,192,75411,1,0,0:0:0:0:
76,192,75730,1,0,0:0:0:0:
179,192,75890,1,0,0:0:0:0:
281,192,76209,1,0,0:0:0:0:
332,192,76528,1,0,0:0:0:0:
25,192,76847,1,0,0:0:0:0:
179,192,77007,1,0,0:0:0:0:
281,192,77326,128,0,77645:0:0:0:0:
128,192,77645,1,0,0:0:0:0:
435,192,77645,1,0,0:0:0:0:
384,192,77964,1,0,0:0:0:0:
332,192,77964,1,0,0:0:0:0:
179,192,78284,1,0,0:0:0:0:
332,192,78603,1,0,0:0:0:0:
384,192,78603,1,0,0:0:0:0:
76,192,78922,1,0,0:0:0:0:
332,192,79241,1,0,0:0:0:0:
281,192,79241,1,0,0:0:0:0:
76,192,79560,1,0,0:0:0:0:
281,192,79879,1,0,0:0:0:0:
332,192,79879,1,0,0:0:0:0:
230,192,80198,1,0,0:0:0:0:
384,192,80518,1,0,0:0:0:0:
435,192,80518,1,0,0:0:0:0:
230,192,80837,1,0,0:0:0:0:
128,192,81156,1,0,0:0:0:0:
128,192,81315,1,0,0:0:0:0:
281,192,81475,1,0,0:0:0:0:
128,192,81794,1,0,0:0:0:0:
76,192,81794,1,0,0:0:0:0:
281,192,82113,1,0,0:0:0:0:
128,192,82432,1,0,0:0:0:0:
76,192,82432,1,0,0:0:0:0:
179,192,82752,1,0,0:0:0:0:
384,192,83071,1,0,0:0:0:0:
332,192,83071,1,0,0:0:0:0:
179,192,83390,1,0,0:0:0:0:
332,192,83709,1,0,0:0:0:0:
384,192,83709,1,0,0:0:0:0:
76,192,84028,1,0,0:0:0:0:
332,192,84347,1,0,0:0:0:0:
281,192,84347,1,0,0:0:0:0:
76,192,84667,1,0,0:0:0:0:
332,192,84986,1,0,0:0:0:0:
332,192,85145,1,0,0:0:0:0:
230,192,85305,1,0,0:0:0:0:
384,192,85624,1,0,0:0:0:0:
435,192,85624,1,0,0:0:0:0:
230,192,85943,1,0,0:0:0:0:
384,192,86262,1,0,0:0:0:0:
435,192,86262,1,0,0:0:0:0:
281,192,86581,1,0,0:0:0:0:
128,192,86901,1,0,0:0:0:0:
76,192,86901,1,0,0:0:0:0:
281,192,87220,1,0,0:0:0:0:
384,192,87539,1,0,0:0:0:0:
384,192,87698,1,0,0:0:0:0:
230,192,87858,1,0,0:0:0:0:
435,192,88177,1,0,0:0:0:0:
332,192,88337,1,0,0:0:0:0:
230,192,88815,1,0,0:0:0:0:
179,192,89135,1,0,0:0:0:0:
128,192,89454,1,0,0:0:0:0:
384,192,89773,1,0,0:0:0:0:
281,192,89932,1,0,0:0:0:0:
179,192,90252,1,0,0:0:0:0:
486,192,90571,1,0,0:0:0:0:
384,192,90730,1,0,0:0:0:0:
230,192,91049,1,0,0:0:0:0:
76,192,91369,1,0,0:0:0:0:
179,192,91528,1,0,0:0:0:0:
281,192,91847,1,0,0:0:0:0:
332,192,92167,1,0,0:0:0:0:
435,192,92326,1,0,0:0:0:0:
230,192,92645,1,0,0:0:0:0:
281,192,92964,1,0,0:0:0:0:
435,192,93284,1,0,0:0:0:0:
332,192,93443,1,0,0:0:0:0:
230,192,93922,1,0,0:0:0:0:
179,192,94241,1,0,0:0:0:0:
128,192,94560,1,0,0:0:0:0:
384,192,94879,1,0,0:0:0:0:
281,192,95039,1,0,0:0:0:0:
179,192,95358,1,0,0:0:0:0:
486,192,95677,1,0,0:0:0:0:
384,192,95837,1,0,0:0:0:0:
230,192,96156,1,0,0:0:0:0:
76,192,96475,1,0,0:0:0:0:
179,192,96635,1,0,0:0:0:0:
281,192,96954,1,0,0:0:0:0:
332,192,97273,1,0,0:0:0:0:
435,192,97432,1,0,0:0:0:0:
230,192,97752,1,0,0:0:0:0:
281,192,98071,1,0,0:0:0:0:
76,192,98390,1,0,0:0:0:0:
179,192,98549,1,0,0:0:0:0:
281,192,99028,1,0,0:0:0:0:
332,192,99347,1,0,0:0:0:0:
384,192,99667,1,0,0:0:0:0:
128,192,99986,1,0,0:0:0:0:
230,192,100145,1,0,0:0:0:0:
332,192,100464,1,0,0:0:0:0:
25,192,100784,1,0,0:0:0:0:
128,192,100943,1,0,0:0:0:0:
281,192,101262,1,0,0:0:0:0:
435,192,101581,1,0,0:0:0:0:
332,192,101741,1,0,0:0:0:0:
230,192,102060,1,0,0:0:0:0:
179,192,102379,1,0,0:0:0:0:
76,192,102539,1,0,0:0:0:0:
384,192,102858,128,0,103177:0:0:0:0:
281,192,103177,128,0,103496:0:0:0:0:
25,192,103496,1,0,0:0:0:0:
179,192,103656,1,0,0:0:0:0:
128,192,103975,1,0,0:0:0:0:
281,192,104135,1,0,0:0:0:0:
435,192,104454,1,0,0:0:0:0:
332,192,104613,1,0,0:0:0:0:
435,192,104773,1,0,0:0:0:0:
230,192,104932,1,0,0:0:0:0:
128,192,105252,1,0,0:0:0:0:
384,192,105571,1,0,0:0:0:0:
281,192,105730,1,0,0:0:0:0:
179,192,106049,1,0,0:0:0:0:
76,192,106369,1,0,0:0:0:0:
486,192,106688,1,0,0:0:0:0:
384,192,106847,1,0,0:0:0:0:
230,192,107167,1,0,0:0:0:0:
230,192,107486,1,0,0:0:0:0:
230,192,107805,1,0,0:0:0:0:
230,192,108124,1,0,0:0:0:0:
486,192,108284,1,0,0:0:0:0:
25,192,108284,1,0,0:0:0:0:
179,192,108443,1,0,0:0:0:0:
435,192,108762,1,0,0:0:0:0:
281,192,109081,1,0,0:0:0:0:
128,192,109401,1,0,0:0:0:0:
76,192,109720,1,0,0:0:0:0:
179,192,109879,1,0,0:0:0:0:
281,192,110039,1,0,0:0:0:0:
384,192,110198,1,0,0:0:0:0:
332,192,110518,1,0,0:0:0:0:
25,192,110837,1,0,0:0:0:0:
179,192,110996,1,0,0:0:0:0:
332,192,111156,1,0,0:0:0:0:
179,192,111475,1,0,0:0:0:0:
332,192,111635,1,0,0:0:0:0:
435,192,111954,1,0,0:0:0:0:
281,192,112273,1,0,0:0:0:0:
25,192,112592,1,0,0:0:0:0:
128,192,112752,1,0,0:0:0:0:
281,192,113071,1,0,0:0:0:0:
486,192,113390,1,0,0:0:0:0:
332,192,113549,1,0,0:0:0:0:
76,192,113869,1,0,0:0:0:0:
179,192,114028,1,0,0:0:0:0:
281,192,114188,1,0,0:0:0:0:
384,192,114347,1,0,0:0:0:0:
230,192,114507,1,0,0:0:0:0:
486,192,114826,1,0,0:0:0:0:
332,192,114986,1,0,0:0:0:0:
179,192,115145,1,0,0:0:0:0:
25,192,115305,1,0,0:0:0:0:
281,192,115624,1,0,0:0:0:0:
76,192,115943,1,0,0:0:0:0:
179,192,116103,1,0,0:0:0:0:
281,192,116262,1,0,0:0:0:0:
435,192,116581,1,0,0:0:0:0:
332,192,116741,1,0,0:0:0:0:
230,192,117060,1,0,0:0:0:0:
179,192,117379,1,0,0:0:0:0:
384,192,117698,1,0,0:0:0:0:
281,192,117858,1,0,0:0:0:0:
230,192,118177,128,0,118496:0:0:0:0:
486,192,118496,1,0,0:0:0:0:
25,192,118496,1,0,0:0:0:0:
332,192,118815,1,0,0:0:0:0:
384,192,118815,1,0,0:0:0:0:
25,192,119135,1,0,0:0:0:0:
384,192,119454,1,0,0:0:0:0:
332,192,119454,1,0,0:0:0:0:
128,192,119773,1,0,0:0:0:0:
281,192,120092,1,0,0:0:0:0:
332,192,120092,1,0,0:0:0:0:
128,192,120411,1,0,0:0:0:0:
332,192,120730,1,0,0:0:0:0:
332,192,120890,1,0,0:0:0:0:
230,192,121049,1,0,0:0:0:0:
486,192,121369,1,0,0:0:0:0:
435,192,121369,1,0,0:0:0:0:
230,192,121688,1,0,0:0:0:0:
435,192,122007,1,0,0:0:0:0:
486,192,122007,1,0,0:0:0:0:
281,192,122326,1,0,0:0:0:0:
76,192,122645,1,0,0:0:0:0:
128,192,122645,1,0,0:0:0:0:
281,192,122964,1,0,0:0:0:0:
179,192,123284,1,0,0:0:0:0:
179,192,123443,1,0,0:0:0:0:
281,192,123603,1,0,0:0:0:0:
76,192,123922,1,0,0:0:0:0:
25,192,123922,1,0,0:0:0:0:
281,192,124241,1,0,0:0:0:0:
25,192,124560,1,0,0:0:0:0:
76,192,124560,1,0,0:0:0:0:
384,192,124879,1,0,0:0:0:0:
179,192,125198,1,0,0:0:0:0:
128,192,125198,1,0,0:0:0:0:
384,192,125518,1,0,0:0:0:0:
332,192,125837,1,0,0:0:0:0:
332,192,125996,1,0,0:0:0:0:
76,192,126156,1,0,0:0:0:0:
332,192,126475,1,0,0:0:0:0:
281,192,126475,1,0,0:0:0:0:
76,192,126794,1,0,0:0:0:0:
332,192,127113,1,0,0:0:0:0:
281,192,127113,1,0,0:0:0:0:
179,192,127432,1,0,0:0:0:0:
384,192,127752,1,0,0:0:0:0:
435,192,127752,1,0,0:0:0:0:
179,192,128071,1,0,0:0:0:0:
384,192,128390,128,0,128709:0:0:0:0:
128,192,128709,1,0,0:0:0:0:
332,192,129028,1,0,0:0:0:0:
179,192,129347,1,0,0:0:0:0:
384,192,129667,1,0,0:0:0:0:
230,192,129986,1,0,0:0:0:0:
384,192,130305,1,0,0:0:0:0:
128,192,130624,1,0,0:0:0:0:
332,192,130943,1,0,0:0:0:0:
76,192,131262,1,0,0:0:0:0:
384,192,131581,1,0,0:0:0:0:
128,192,131901,1,0,0:0:0:0:
435,192,132220,1,0,0:0:0:0:
179,192,132539,1,0,0:0:0:0:
486,192,132858,1,0,0:0:0:0:
128,192,133177,1,0,0:0:0:0:
384,192,133496,1,0,0:0:0:0:
76,192,133815,5,0,0:0:0:0:
281,192,134135,1,0,0:0:0:0:
128,192,134454,1,0,0:0:0:0:
332,192,134773,1,0,0:0:0:0:
179,192,135092,1,0,0:0:0:0:
384,192,135411,1,0,0:0:0:0:
128,192,135730,1,0,0:0:0:0:
332,192,136049,1,0,0:0:0:0:
76,192,136369,1,0,0:0:0:0:
384,192,136688,1,0,0:0:0:0:
128,192,137007,1,0,0:0:0:0:
435,192,137326,1,0,0:0:0:0:
179,192,137645,1,0,0:0:0:0:
486,192,137964,1,0,0:0:0:0:
128,192,138284,1,0,0:0:0:0:
384,192,138603,1,0,0:0:0:0:
25,192,138922,5,0,0:0:0:0:
281,192,138922,1,0,0:0:0:0:
