osu file format v14

[General]
AudioFilename: audio.mp3
AudioLeadIn: 0
PreviewTime: -1
Countdown: 1
SampleSet: None
StackLeniency: 0.7
Mode: 0
LetterboxInBreaks: 0
WidescreenStoryboard: 0

[Editor]
DistanceSpacing: 1
BeatDivisor: 4
GridSize: 4
TimelineZoom: 0.3999999

[Metadata]
Title:Wii Background Theme Song
TitleUnicode:Wii Background Theme Song
Artist:Wii Music Studios
ArtistUnicode:Wii Music Studios
Creator:KonnerPlayz
Version:Hard
Source:
Tags:wii
BeatmapID:1745935
BeatmapSetID:833507

[Difficulty]
HPDrainRate:5
CircleSize:5
OverallDifficulty:5
ApproachRate:5
SliderMultiplier:1.4
SliderTickRate:1

[Events]
//Background and Video events
//Break Periods
//Storyboard Layer 0 (Background)
//Storyboard Layer 1 (Fail)
//Storyboard Layer 2 (Pass)
//Storyboard Layer 3 (Foreground)
//Storyboard Sound Samples

[TimingPoints]
0,434.782608695652,4,1,0,100,1,0
15434,1500,4,1,0,100,1,0
17684,434.782608695652,4,1,0,100,1,0

[HitObjects]
122,152,126,6,0,P|171:126|171:123,1,70
154,59,819,2,0,P|92:85|97:103,1,105
202,59,1575,2,0,L|274:73,1,70
427,88,2282,1,0,0:0:0:0:
414,120,2391,1,0,0:0:0:0:
396,150,2500,1,0,0:0:0:0:
371,174,2608,1,0,0:0:0:0:
338,188,2717,1,0,0:0:0:0:
275,219,2934,1,0,0:0:0:0:
92,165,4239,2,0,L|173:110,1,70
213,97,4673,1,0,0:0:0:0:
247,93,4782,1,0,0:0:0:0:
282,94,4891,1,0,0:0:0:0:
375,140,5217,1,0,0:0:0:0:
280,243,5652,1,0,0:0:0:0:
454,243,6195,1,0,0:0:0:0:
323,192,6630,2,0,B|13:19|13:19,1,350
80,258,8586,1,0,0:0:0:0:
238,331,9130,2,0,P|288:313|289:310,1,35
325,286,9456,1,0,0:0:0:0:
302,147,9891,1,0,0:0:0:0:
505,199,10543,1,0,0:0:0:0:
479,97,10869,2,0,L|440:93,1,35
269,102,11521,2,0,B|122:94|122:94|182:161,1,210
187,166,12282,2,0,L|209:192,1,35
118,299,12826,1,0,0:0:0:0:
140,272,12934,1,0,0:0:0:0:
160,300,13043,1,0,0:0:0:0:
229,301,13260,1,0,0:0:0:0:
248,272,13369,1,0,0:0:0:0:
265,302,13478,1,0,0:0:0:0:
421,113,14239,1,0,0:0:0:0:
386,114,14347,1,0,0:0:0:0:
402,82,14456,1,0,0:0:0:0:
332,81,14673,1,0,0:0:0:0:
309,108,14782,1,0,0:0:0:0:
343,110,14891,1,0,0:0:0:0:
64,82,15760,2,0,B|62:225|62:225|62:226,1,140
197,201,17792,1,0,0:0:0:0:
307,115,18227,1,0,0:0:0:0:
251,280,18770,2,0,L|373:250,1,105
271,140,19531,1,0,0:0:0:0:
305,134,19640,1,0,0:0:0:0:
285,104,19749,1,0,0:0:0:0:
348,132,19966,1,0,0:0:0:0:
382,134,20075,1,0,0:0:0:0:
368,101,20184,1,0,0:0:0:0:
472,104,20510,1,0,0:0:0:0:
459,136,20618,1,0,0:0:0:0:
479,164,20727,1,0,0:0:0:0:
455,189,20836,1,0,0:0:0:0:
457,258,20944,1,0,0:0:0:0:
317,263,21379,2,0,P|170:214|170:217,1,280
356,198,23227,2,0,B|311:91|311:91|236:94|278:172|278:172|423:74,1,385
54,81,25510,2,0,L|53:131,1,35
79,180,25836,2,0,L|98:212,1,35
126,229,26053,2,0,L|166:246,1,35
316,103,26814,2,0,B|341:142|341:142|279:145|279:145|318:102,1,140
315,51,27466,1,0,0:0:0:0:
193,120,27901,1,0,0:0:0:0:
243,168,28118,1,0,0:0:0:0:
