osu file format v14

[General]
AudioFilename: FACTION.mp3
AudioLeadIn: 0
PreviewTime: 20679
Countdown: 0
SampleSet: Soft
StackLeniency: 0.7
Mode: 0
LetterboxInBreaks: 0
WidescreenStoryboard: 0

[Editor]
DistanceSpacing: 1
BeatDivisor: 2
GridSize: 32
TimelineZoom: 1.7

[Metadata]
Title:FACTION (TV Size)
TitleUnicode:FACTION (TV Size)
Artist:Wienners
ArtistUnicode:Wienners
Creator:Hazu-
Version:Normal
Source:デジモンゴーストゲーム
Tags:digimon ghost game digital monsters opening op anime japanese pop jpop 玉屋2060% TAMAYA2060 アサミサエ Asamisae ∴560∵ KOZO
BeatmapID:3254182
BeatmapSetID:1592825

[Difficulty]
HPDrainRate:3
CircleSize:3.5
OverallDifficulty:4
ApproachRate:5.5
SliderMultiplier:1.2
SliderTickRate:1

[Events]
//Background and Video events
0,0,"3.jpg",0,0
//Break Periods
2,51274,55001
//Storyboard Layer 0 (Background)
//Storyboard Layer 1 (Fail)
//Storyboard Layer 2 (Pass)
//Storyboard Layer 3 (Foreground)
//Storyboard Layer 4 (Overlay)
//Storyboard Sound Samples

[TimingPoints]
548,315.78947368421,4,2,1,60,1,0
548,-100,4,2,1,60,0,0
3074,-100,4,2,1,60,0,0
8600,-100,4,2,1,60,0,0
8837,-100,4,2,1,5,0,0
8916,-100,4,2,1,60,0,0
9153,-100,4,2,1,5,0,0
9232,-100,4,2,1,60,0,0
9469,-100,4,2,1,5,0,0
9547,-100,4,2,1,60,0,0
9784,-100,4,2,1,5,0,0
9863,-100,4,2,1,60,0,0
10337,-100,4,2,1,60,0,0
10653,-100,4,2,1,70,0,0
10890,-100,4,2,1,5,0,0
10969,-100,4,2,1,70,0,0
20758,-100,4,2,1,60,0,0
40969,-100,4,2,1,50,0,0
51074,-100,4,2,1,45,0,0
56126,-100,4,2,1,60,0,0
62442,-100,4,2,1,80,0,1
82653,-100,4,2,1,80,0,0

[Colours]
Combo1 : 129,104,242
Combo2 : 255,128,192
Combo3 : 83,169,255

[HitObjects]
44,53,548,6,0,P|104:45|169:35,1,120,14|2,0:3|0:0,0:0:0:0:
260,105,1179,2,0,P|253:157|240:245,1,120,2|2,0:0|0:0,0:0:0:0:
340,295,1811,2,0,P|374:270|429:281,2,89.9999999999999,14|2|10,0:3|0:0|0:3,0:0:0:0:
320,332,2442,1,10,0:3:0:0:
207,373,2758,1,10,0:3:0:0:
116,293,3074,6,0,P|100:235|131:170,1,120,14|8,0:3|0:0,0:0:0:0:
158,161,3547,2,0,P|219:169|296:178,1,120,14|8,0:3|0:0,0:0:0:0:
298,212,4021,2,0,P|359:220|436:229,1,120,14|8,0:3|0:0,0:0:0:0:
455,208,4495,2,0,P|475:152|459:95,1,120,14|8,0:3|0:3,0:0:0:0:
433,62,4969,1,10,0:0:0:0:
325,9,5284,1,10,0:0:0:0:
250,103,5600,5,14,0:3:0:0:
250,103,7653,6,0,L|258:176,2,60,8|8|8,0:0|0:0|0:0,0:0:0:0:
249,65,8126,1,14,0:0:0:0:
249,65,8284,1,10,0:0:0:0:
362,101,8599,1,10,0:0:0:0:
386,217,8915,1,10,0:0:0:0:
298,298,9232,1,10,0:0:0:0:
184,261,9547,1,10,0:0:0:0:
159,144,9863,1,14,0:0:0:0:
249,65,10179,2,0,L|331:53,1,60,8|14,0:3|0:0,0:0:0:0:
417,107,10653,6,0,P|408:166|398:225,1,120,14|10,0:3|0:0,0:0:0:0:
316,313,11284,2,0,L|327:392,2,60,10|2|10,0:3|0:0|0:0,0:0:0:0:
279,291,11758,2,0,P|222:283|139:271,1,120,2|2,0:0|0:0,0:0:0:0:
121,256,12232,2,0,L|112:196,1,60,10|2,0:0|0:0,0:0:0:0:
149,175,12547,2,0,L|140:115,1,60,10|2,0:3|0:0,0:0:0:0:
98,112,12863,2,0,L|89:52,1,60,10|2,0:0|0:0,0:0:0:0:
120,23,13179,5,10,0:3:0:0:
238,43,13495,1,10,0:0:0:0:
356,60,13811,2,0,L|423:47,2,60,10|2|10,0:3|0:0|0:0,0:0:0:0:
330,93,14284,2,0,P|321:156|308:231,1,120,2|2,0:0|0:0,0:0:0:0:
278,238,14759,2,0,L|219:249,1,60,10|2,0:0|0:0,0:0:0:0:
198,286,15074,1,10,0:3:0:0:
303,342,15390,1,10,0:0:0:0:
409,286,15705,6,0,P|417:234|431:148,1,120,14|10,0:3|0:0,0:0:0:0:
354,72,16337,2,0,L|365:-7,2,60,10|2|10,0:3|0:0|0:0,0:0:0:0:
323,101,16811,2,0,P|261:117|194:76,1,120,2|2,0:0|0:0,0:0:0:0:
191,58,17284,2,0,B|163:43|163:43|111:54,1,60,10|2,0:0|0:0,0:0:0:0:
103,76,17600,2,0,L|91:160,1,60,10|2,0:3|0:0,0:0:0:0:
122,166,17916,2,0,L|110:250,1,60,10|2,0:0|0:0,0:0:0:0:
75,243,18232,5,10,0:3:0:0:
167,318,18547,1,10,0:0:0:0:
279,275,18863,2,0,L|346:288,2,60,10|2|10,0:3|0:0|0:0,0:0:0:0:
243,251,19337,2,0,P|232:196|265:128,1,120,14|10,0:3|0:0,0:0:0:0:
296,127,19811,2,0,L|363:140,1,60,10|10,0:0|0:3,0:0:0:0:
378,173,20126,1,10,0:3:0:0:
486,122,20442,1,10,0:0:0:0:
392,47,20758,6,0,P|304:32|193:12,1,180,2|2,0:0|0:0,0:0:0:0:
175,32,21390,1,2,0:0:0:0:
70,163,22021,2,0,P|158:148|269:128,1,180,10|10,0:3|0:3,0:0:0:0:
287,148,22654,1,2,0:0:0:0:
378,70,22969,1,14,0:0:0:0:
475,148,23284,5,12,0:3:0:0:
476,147,23442,2,0,P|495:218|466:267,1,120,2|2,0:0|0:0,0:0:0:0:
380,330,24074,1,2,0:0:0:0:
276,269,24390,2,0,P|216:276|139:284,1,120,2|2,0:0|0:0,0:0:0:0:
127,312,24863,1,10,0:0:0:0:
127,312,25021,1,2,0:0:0:0:
25,247,25337,1,2,0:0:0:0:
29,251,25495,2,0,L|39:181,1,60,10|2,0:0|0:0,0:0:0:0:
22,152,25811,1,10,0:3:0:0:
119,82,26126,5,12,0:0:0:0:
226,134,26442,2,0,P|234:208|243:279,1,120,10|8,0:3|0:0,0:0:0:0:
217,289,26916,1,2,0:0:0:0:
221,293,27074,1,10,0:3:0:0:
324,353,27390,1,10,0:0:0:0:
436,307,27705,1,10,0:3:0:0:
436,307,27863,2,0,L|445:236,1,60,2|10,0:0|0:0,0:0:0:0:
417,214,28179,6,0,P|425:140|434:69,1,120,10|2,0:3|0:0,0:0:0:0:
468,73,28653,1,10,0:0:0:0:
468,73,28811,1,2,0:0:0:0:
360,19,29126,2,0,B|328:15|328:15|292:35,1,60,2|10,0:0|0:0,0:0:0:0:
272,56,29442,2,0,L|188:43,1,60,14|8,0:0|0:0,0:0:0:0:
178,71,29758,1,10,0:3:0:0:
182,75,29916,2,0,L|193:141,1,60,10|10,0:3|0:3,0:0:0:0:
172,173,30232,1,10,0:0:0:0:
172,173,30390,1,2,0:0:0:0:
52,171,30705,5,2,0:0:0:0:
52,171,30863,2,0,P|41:106|30:36,1,120,14|10,0:3|0:0,0:0:0:0:
151,33,31495,2,0,P|162:98|173:168,1,120,10|10,0:3|0:0,0:0:0:0:
268,221,32126,2,0,P|262:266|253:335,2,90,10|2|2,0:3|0:0|0:0,0:0:0:0:
277,179,32758,1,10,0:3:0:0:
388,133,33074,1,10,0:0:0:0:
465,224,33390,6,0,P|456:290|446:365,1,120,10|10,0:3|0:0,0:0:0:0:
329,328,34021,2,0,P|338:262|348:187,1,120,10|10,0:3|0:0,0:0:0:0:
251,132,34653,2,0,P|257:87|266:18,2,90,10|2|2,0:3|0:0|0:0,0:0:0:0:
242,174,35285,1,10,0:3:0:0:
130,217,35600,1,8,0:0:0:0:
54,124,35916,6,0,P|65:59|76:-11,1,120,10|10,0:3|0:0,0:0:0:0:
192,21,36548,2,0,P|181:86|170:156,1,120,10|10,0:3|0:0,0:0:0:0:
256,224,37179,2,0,P|305:219|352:259,2,90,10|2|2,0:3|0:0|0:0,0:0:0:0:
219,244,37811,1,10,0:3:0:0:
114,302,38126,1,10,0:0:0:0:
58,195,38442,6,0,L|-9:181,2,60,14|8|10,0:3|0:3|0:0,0:0:0:0:
98,177,38916,1,8,0:3:0:0:
98,177,39074,2,0,L|156:189,1,60,10|8,0:3|0:3,0:0:0:0:
194,170,39390,2,0,L|252:182,1,60,10|8,0:0|0:3,0:0:0:0:
277,215,39705,1,14,0:3:0:0:
370,290,40021,1,12,0:3:0:0:
469,224,40337,1,14,0:3:0:0:
439,110,40653,1,8,0:3:0:0:
320,104,40969,6,0,P|223:119|135:130,1,180,14|10,0:3|0:3,0:0:0:0:
104,110,41600,1,8,0:0:0:0:
12,187,41916,2,0,P|-1:246|34:315,1,120,2|8,0:0|0:3,0:0:0:0:
55,323,42390,2,0,P|113:314|178:305,1,120,2|8,0:0|0:3,0:0:0:0:
207,330,42863,1,10,0:0:0:0:
343,212,43337,6,0,P|332:140|314:17,1,180,10|10,0:3|0:3,0:0:0:0:
436,8,44126,1,8,0:0:0:0:
436,8,44284,2,0,P|447:80|458:148,1,120,10|2,0:3|0:0,0:0:0:0:
483,157,44758,2,0,P|510:207|438:313,1,180,10|10,0:3|0:3,0:0:0:0:
415,314,45390,1,10,0:0:0:0:
273,202,45863,5,2,0:0:0:0:
273,202,46021,2,0,B|216:184|216:184|154:211,1,120,10|2,0:3|0:0,0:0:0:0:
128,234,46495,1,10,0:3:0:0:
128,234,46653,1,8,0:0:0:0:
27,168,46969,1,2,0:0:0:0:
92,69,47284,1,8,0:3:0:0:
92,69,47442,2,0,P|154:62|208:101,1,120,10|10,0:0|0:3,0:0:0:0:
223,127,47916,2,0,P|280:120|352:111,1,120,10|2,0:0|0:0,0:0:0:0:
406,10,48547,6,0,P|466:76|448:170,1,180,10|8,0:3|0:3,0:0:0:0:
421,187,49179,1,10,0:0:0:0:
309,231,49495,1,2,0:0:0:0:
202,175,49811,2,0,P|210:114|219:37,1,120,14|0,0:3|0:0,0:0:0:0:
102,18,50442,2,0,L|94:77,1,60,10|8,0:0|0:3,0:0:0:0:
60,102,50758,1,8,0:3:0:0:
82,219,51074,5,14,0:3:0:0:
82,219,56126,5,14,0:3:0:0:
421,97,57074,1,14,0:3:0:0:
314,42,57390,2,0,P|324:112|335:186,1,120,14|8,0:3|0:0,0:0:0:0:
353,196,57863,2,0,P|287:176|211:252,1,180,14|14,0:3|0:3,0:0:0:0:
132,335,58653,1,10,0:0:0:0:
132,335,58811,2,0,P|77:317|5:312,2,120,10|10|10,0:0|0:0|0:3,0:0:0:0:
159,366,59600,1,14,0:3:0:0:
272,325,59916,6,0,P|294:274|268:210,1,120,14|8,0:3|0:0,0:0:0:0:
241,197,60390,1,10,0:3:0:0:
241,197,60547,2,0,P|220:142|242:87,1,120,10|8,0:3|0:0,0:0:0:0:
280,68,61021,1,14,0:3:0:0:
394,25,61337,1,10,0:0:0:0:
394,25,61495,2,0,B|427:22|427:22|464:44,1,60,10|10,0:0|0:0,0:0:0:0:
478,67,61811,2,0,L|470:132,1,60,10|10,0:0|0:0,0:0:0:0:
432,144,62126,2,0,L|424:209,1,60,10|8,0:0|0:0,0:0:0:0:
450,237,62442,5,14,0:3:0:0:
367,324,62758,1,10,0:0:0:0:
367,324,62916,1,2,0:0:0:0:
367,324,63074,2,0,P|281:312|226:305,1,120,10|10,0:3|0:0,0:0:0:0:
212,325,63547,1,2,0:0:0:0:
212,325,63705,2,0,L|223:396,2,60,10|2|10,0:3|0:0|0:0,0:0:0:0:
177,301,64179,1,2,0:0:0:0:
74,249,64495,1,2,0:0:0:0:
74,249,64653,2,0,L|64:189,1,60,10|2,0:0|0:0,0:0:0:0:
92,158,64969,5,10,0:3:0:0:
92,158,65126,1,2,0:0:0:0:
215,154,65442,1,2,0:0:0:0:
215,154,65600,2,0,P|224:215|236:291,1,120,10|10,0:3|0:0,0:0:0:0:
333,338,66232,2,0,P|342:277|354:201,1,120,10|8,0:3|0:0,0:0:0:0:
389,198,66705,1,2,0:0:0:0:
389,198,66863,2,0,L|398:138,1,60,10|2,0:3|0:0,0:0:0:0:
432,113,67179,1,10,0:0:0:0:
338,38,67495,5,10,0:3:0:0:
227,66,67811,1,10,0:0:0:0:
227,66,67969,1,2,0:0:0:0:
227,66,68126,2,0,P|218:127|206:203,1,120,10|10,0:3|0:0,0:0:0:0:
172,200,68600,1,2,0:0:0:0:
172,200,68758,2,0,L|161:272,2,60,10|2|10,0:3|0:0|0:0,0:0:0:0:
135,178,69232,1,2,0:0:0:0:
19,177,69547,1,2,0:0:0:0:
19,177,69705,2,0,L|8:249,1,60,10|2,0:0|0:0,0:0:0:0:
32,278,70021,5,10,0:3:0:0:
32,278,70179,1,2,0:0:0:0:
136,348,70495,1,2,0:0:0:0:
136,348,70653,2,0,P|198:352|250:318,1,120,10|10,0:3|0:0,0:0:0:0:
298,215,71284,2,0,P|348:185|407:189,1,120,10|8,0:3|0:0,0:0:0:0:
441,215,71758,1,2,0:0:0:0:
441,215,71916,2,0,L|432:280,1,60,10|10,0:3|0:0,0:0:0:0:
471,291,72232,2,0,L|462:356,1,60,10|8,0:0|0:0,0:0:0:0:
426,371,72547,5,14,0:3:0:0:
318,317,72863,2,0,P|256:326|183:337,1,120,10|10,0:0|0:3,0:0:0:0:
183,215,73495,2,0,P|242:206|301:197,1,120,10|10,0:0|0:3,0:0:0:0:
338,177,73969,2,0,P|350:115|321:60,1,120,2|2,0:0|0:0,0:0:0:0:
288,47,74442,2,0,L|202:58,1,60,10|2,0:3|0:0,0:0:0:0:
190,36,74758,2,0,L|104:47,1,60,10|2,0:0|0:0,0:0:0:0:
92,25,75074,5,10,0:3:0:0:
8,111,75390,2,0,B|-1:143|-1:143|13:178,1,60,10|2,0:0|0:0,0:0:0:0:
38,197,75705,2,0,P|97:188|156:179,1,120,10|10,0:3|0:0,0:0:0:0:
194,208,76179,1,2,0:0:0:0:
194,208,76337,2,0,L|183:285,1,60,10|2,0:3|0:0,0:0:0:0:
209,302,76653,1,10,0:0:0:0:
326,278,76969,2,0,P|333:224|343:144,1,120,10|8,0:3|0:0,0:0:0:0:
438,89,77600,5,14,0:3:0:0:
510,184,77916,2,0,P|502:243|494:303,1,120,10|10,0:0|0:3,0:0:0:0:
376,320,78547,2,0,P|383:260|391:200,1,120,10|10,0:0|0:3,0:0:0:0:
369,164,79021,2,0,P|315:139|255:158,1,120,2|2,0:0|0:0,0:0:0:0:
225,180,79495,2,0,L|214:257,1,60,10|10,0:0|0:0,0:0:0:0:
244,271,79811,2,0,L|233:348,1,60,10|10,0:0|0:0,0:0:0:0:
199,352,80126,5,14,0:3:0:0:
95,315,80442,1,10,0:0:0:0:
95,315,80600,1,2,0:0:0:0:
95,315,80758,2,0,L|103:255,1,60,10|10,0:0|0:3,0:0:0:0:
68,231,81074,2,0,L|76:171,1,60,8|10,0:0|0:3,0:0:0:0:
118,169,81390,2,0,L|126:109,1,60,10|10,0:0|0:3,0:0:0:0:
91,85,81706,2,0,L|99:25,1,60,8|10,0:0|0:3,0:0:0:0:
139,14,82021,1,10,0:0:0:0:
233,88,82337,1,2,0:0:0:0:
344,43,82653,6,0,P|442:21|322:139,1,480,14|8,0:3|0:3,0:0:0:0:
