osu file format v14

[General]
AudioFilename: FACTION.mp3
AudioLeadIn: 0
PreviewTime: 20679
Countdown: 0
SampleSet: Soft
StackLeniency: 0.7
Mode: 0
LetterboxInBreaks: 0
WidescreenStoryboard: 1

[Editor]
DistanceSpacing: 1.2
BeatDivisor: 4
GridSize: 32
TimelineZoom: 1.7

[Metadata]
Title:FACTION (TV Size)
TitleUnicode:FACTION (TV Size)
Artist:Wienners
ArtistUnicode:Wienners
Creator:Hazu-
Version:Insane
Source:デジモンゴーストゲーム
Tags:digimon ghost game digital monsters opening op anime japanese pop jpop 玉屋2060% TAMAYA2060 アサミサエ Asamisae ∴560∵ KOZO
BeatmapID:3276895
BeatmapSetID:1592825

[Difficulty]
HPDrainRate:5
CircleSize:4
OverallDifficulty:7
ApproachRate:9
SliderMultiplier:1.6
SliderTickRate:1

[Events]
//Background and Video events
0,0,"2.jpg",0,0
//Break Periods
2,51274,55526
//Storyboard Layer 0 (Background)
//Storyboard Layer 1 (Fail)
//Storyboard Layer 2 (Pass)
//Storyboard Layer 3 (Foreground)
//Storyboard Layer 4 (Overlay)
//Storyboard Sound Samples

[TimingPoints]
548,315.78947368421,4,2,1,60,1,0
548,-125,4,2,1,60,0,0
3074,-111.111111111111,4,2,1,60,0,0
5521,-111.111111111111,4,2,1,5,0,0
5600,-111.111111111111,4,2,1,60,0,0
8600,-111.111111111111,4,2,1,60,0,0
8837,-111.111111111111,4,2,1,5,0,0
8916,-111.111111111111,4,2,1,60,0,0
9153,-111.111111111111,4,2,1,5,0,0
9232,-111.111111111111,4,2,1,60,0,0
9469,-111.111111111111,4,2,1,5,0,0
9547,-111.111111111111,4,2,1,60,0,0
9784,-111.111111111111,4,2,1,5,0,0
9863,-111.111111111111,4,2,1,60,0,0
10337,-111.111111111111,4,2,1,60,0,0
10574,-111.111111111111,4,2,1,5,0,0
10653,-100,4,2,1,70,0,0
10890,-100,4,2,1,5,0,0
10969,-100,4,2,1,70,0,0
15626,-100,4,2,1,5,0,0
15705,-100,4,2,1,70,0,0
20679,-100,4,2,1,5,0,0
20758,-111.111111111111,4,2,1,60,0,0
23205,-111.111111111111,4,2,1,5,0,0
23284,-111.111111111111,4,2,1,60,0,0
31100,-111.111111111111,4,2,1,5,0,0
31179,-111.111111111111,4,2,1,60,0,0
31732,-111.111111111111,4,2,1,5,0,0
31811,-111.111111111111,4,2,1,60,0,0
33626,-111.111111111111,4,2,1,5,0,0
33705,-111.111111111111,4,2,1,60,0,0
34258,-111.111111111111,4,2,1,5,0,0
34337,-111.111111111111,4,2,1,60,0,0
36153,-111.111111111111,4,2,1,5,0,0
36232,-111.111111111111,4,2,1,60,0,0
36784,-111.111111111111,4,2,1,5,0,0
36863,-111.111111111111,4,2,1,60,0,0
40969,-125,4,2,1,50,0,0
51074,-125,4,2,1,45,0,0
56126,-111.111111111111,4,2,1,60,0,0
57311,-111.111111111111,4,2,1,5,0,0
57390,-111.111111111111,4,2,1,60,0,0
59837,-111.111111111111,4,2,1,5,0,0
59916,-111.111111111111,4,2,1,60,0,0
62442,-100,4,2,1,80,0,1
73100,-100,4,2,1,5,0,1
73179,-100,4,2,1,80,0,1
73732,-100,4,2,1,5,0,1
73811,-100,4,2,1,80,0,1
78153,-100,4,2,1,5,0,1
78232,-100,4,2,1,80,0,1
78784,-100,4,2,1,5,0,1
78863,-100,4,2,1,80,0,1
82653,-100,4,2,1,80,0,0

[Colours]
Combo1 : 255,164,119
Combo2 : 197,230,96
Combo3 : 145,235,118

[HitObjects]
344,52,390,5,8,0:3:0:0:
344,52,469,1,8,0:3:0:0:
344,52,548,2,0,P|335:103|320:187,1,128,14|2,0:3|0:0,0:0:0:0:
433,69,1179,2,0,P|424:120|409:204,1,128,2|2,0:0|0:0,0:0:0:0:
259,314,1811,6,0,P|295:287|355:301,2,96,14|2|10,0:3|0:0|0:3,0:0:0:0:
236,342,2363,1,8,0:3:0:0:
236,342,2442,2,0,P|205:319|167:320,1,64,10|8,0:3|0:3,0:0:0:0:
67,283,2759,2,0,P|98:278|122:257,1,64,10|8,0:3|0:3,0:0:0:0:
229,94,3074,6,0,P|215:165|199:266,1,143.999995605469,14|8,0:3|0:0,0:0:0:0:
139,376,3547,2,0,P|200:317|258:332,1,143.999995605469,14|8,0:3|0:0,0:0:0:0:
430,256,4021,6,0,B|375:249|375:249|358:258|358:258|279:247,1,143.999995605469,14|8,0:3|0:0,0:0:0:0:
267,81,4495,2,0,P|323:95|317:182,1,143.999995605469,14|8,0:3|0:3,0:0:0:0:
166,186,4969,2,0,B|197:165|197:165|237:175,1,71.9999978027344,10|8,0:0|0:3,0:0:0:0:
346,281,5284,2,0,P|280:267|223:255,1,107.999996704102,10|0,0:0|0:0,0:0:0:0:
229,262,5600,5,14,0:3:0:0:
229,262,7653,5,8,0:0:0:0:
229,262,7732,1,8,0:0:0:0:
229,262,7811,2,0,L|237:311,3,35.9999989013672,8|8|8|8,0:0|0:0|0:0|0:0,0:0:0:0:
251,375,8126,5,14,0:0:0:0:
251,375,8284,1,10,0:0:0:0:
314,186,8600,5,10,0:0:0:0:
122,212,8916,5,10,0:0:0:0:
343,311,9232,5,10,0:0:0:0:
132,348,9547,5,10,0:0:0:0:
221,152,9863,5,14,0:0:0:0:
310,282,10179,5,8,0:3:0:0:
303,277,10258,1,8,0:3:0:0:
296,272,10337,2,0,P|229:265|166:258,1,107.999996704102,14|0,0:0|0:0,0:0:0:0:
138,190,10653,6,0,P|102:238|139:338,2,160,14|10|10,0:3|0:0|0:3,0:0:0:0:
304,109,11442,1,2,0:0:0:0:
223,262,11600,1,10,0:0:0:0:
193,15,11758,6,0,P|203:70|229:208,1,160,2|2,0:0|0:0,0:0:0:0:
381,237,12232,2,0,P|335:212|302:218,1,80,10|2,0:0|0:0,0:0:0:0:
174,299,12547,2,0,P|220:274|253:280,1,80,10|2,0:3|0:0,0:0:0:0:
319,344,12863,1,10,0:0:0:0:
319,344,13021,1,2,0:0:0:0:
229,183,13179,6,0,P|146:173|59:162,2,160,10|10|10,0:3|0:0|0:3,0:0:0:0:
417,132,13969,1,2,0:0:0:0:
320,292,14126,1,10,0:0:0:0:
308,41,14284,6,0,P|320:114|339:226,1,160,2|2,0:0|0:0,0:0:0:0:
410,321,14758,2,0,P|417:277|424:222,1,80,10|2,0:0|0:0,0:0:0:0:
311,358,15074,1,10,0:3:0:0:
311,358,15390,2,0,P|271:312|199:318,1,120,10|0,0:0|0:0,0:0:0:0:
158,373,15705,6,0,P|103:363|-4:350,2,160,14|10|10,0:3|0:0|0:3,0:0:0:0:
345,270,16495,1,2,0:0:0:0:
159,198,16653,1,10,0:0:0:0:
268,360,16811,6,0,P|254:281|241:202,1,160,2|2,0:0|0:0,0:0:0:0:
346,88,17284,2,0,P|337:131|326:182,1,80,10|2,0:0|0:0,0:0:0:0:
264,17,17600,2,0,P|255:60|244:111,1,80,10|2,0:3|0:0,0:0:0:0:
369,11,17916,1,10,0:0:0:0:
369,11,18074,1,2,0:0:0:0:
163,72,18232,6,0,P|103:63|-7:47,2,160,10|10|10,0:3|0:0|0:3,0:0:0:0:
371,110,19021,1,2,0:0:0:0:
179,186,19179,1,10,0:0:0:0:
258,18,19337,6,0,P|271:96|284:175,1,160,14|10,0:3|0:0,0:0:0:0:
315,205,19732,1,8,0:0:0:0:
315,205,19811,1,10,0:0:0:0:
174,108,19969,1,10,0:3:0:0:
370,40,20126,2,0,P|363:83|352:145,1,80,10|8,0:3|0:3,0:0:0:0:
227,242,20442,2,0,P|176:194|118:198,1,120,10|0,0:0|0:0,0:0:0:0:
113,204,20758,5,2,0:0:0:0:
393,133,21074,1,8,0:3:0:0:
393,133,21232,1,2,0:0:0:0:
307,176,21390,2,0,P|317:96|328:6,1,143.999995605469,2|8,0:0|0:0,0:0:0:0:
324,33,21863,1,2,0:0:0:0:
486,56,22021,6,0,P|476:136|465:226,1,143.999995605469,10|0,0:3|0:0,0:0:0:0:
512,280,22495,1,10,0:3:0:0:
512,280,22653,1,2,0:0:0:0:
199,204,22969,2,0,P|140:214|59:226,1,107.999996704102,14|0,0:0|0:0,0:0:0:0:
86,232,23284,5,12,0:3:0:0:
279,238,23442,2,0,P|289:205|272:152,1,71.9999978027344,2|8,0:0|0:0,0:0:0:0:
193,48,23758,2,0,P|198:90|204:143,1,71.9999978027344,2|8,0:0|0:3,0:0:0:0:
104,51,24074,2,0,P|109:93|115:146,1,71.9999978027344,2|8,0:0|0:0,0:0:0:0:
193,266,24390,6,0,P|143:217|74:228,1,143.999995605469,2|2,0:0|0:0,0:0:0:0:
74,227,24863,1,10,0:0:0:0:
237,168,25021,2,0,P|288:177|332:184,1,71.9999978027344,2|0,0:0|0:0,0:0:0:0:
476,96,25337,5,2,0:0:0:0:
380,112,25494,1,10,0:0:0:0:
397,208,25652,1,2,0:0:0:0:
492,191,25810,1,10,0:3:0:0:
492,191,26126,6,0,P|488:226|479:297,1,71.9999978027344,12|2,0:0|0:0,0:0:0:0:
322,356,26442,2,0,P|330:292|341:198,1,143.999995605469,10|8,0:3|0:0,0:0:0:0:
408,297,26916,1,2,0:0:0:0:
241,345,27074,6,0,P|249:281|260:187,1,143.999995605469,10|10,0:3|0:0,0:0:0:0:
339,213,27547,1,2,0:0:0:0:
172,246,27705,2,0,P|176:212|182:156,1,71.9999978027344,10|2,0:3|0:0,0:0:0:0:
255,42,28022,2,0,P|251:76|245:132,1,71.9999978027344,10|10,0:0|0:3,0:0:0:0:
265,146,28258,1,8,0:3:0:0:
265,146,28337,5,8,0:3:0:0:
158,81,28495,2,0,P|115:88|68:95,1,71.9999978027344,2|10,0:0|0:0,0:0:0:0:
0,171,28811,2,0,P|62:179|161:196,1,143.999995605469,2|2,0:0|0:0,0:0:0:0:
213,253,29284,1,10,0:0:0:0:
105,347,29442,6,0,P|113:302|120:261,1,71.9999978027344,14|8,0:0|0:0,0:0:0:0:
13,162,29759,2,0,P|21:207|28:248,1,71.9999978027344,10|10,0:3|0:3,0:0:0:0:
27,242,29995,1,8,0:3:0:0:
29,251,30074,1,10,0:3:0:0:
134,92,30232,1,10,0:0:0:0:
57,49,30390,1,2,0:0:0:0:
165,255,30705,5,2,0:0:0:0:
165,255,30863,2,0,P|234:248|297:242,1,107.999996704102,14|0,0:3|0:0,0:0:0:0:
287,256,31179,2,0,P|278:321|272:361,1,71.9999978027344,10|0,0:0|0:0,0:0:0:0:
343,155,31495,2,0,P|412:148|475:142,1,107.999996704102,10|0,0:3|0:0,0:0:0:0:
465,156,31811,2,0,P|456:221|450:261,1,71.9999978027344,10|0,0:0|0:0,0:0:0:0:
501,360,32126,6,0,P|465:327|405:329,1,107.999996704102,10|2,0:3|0:0,0:0:0:0:
399,336,32442,1,8,0:0:0:0:
272,284,32600,1,2,0:0:0:0:
380,178,32758,2,0,P|375:214|370:249,1,71.9999978027344,10|0,0:3|0:0,0:0:0:0:
299,108,33074,2,0,P|294:144|289:179,1,71.9999978027344,10|0,0:0|0:0,0:0:0:0:
488,97,33390,6,0,P|449:65|371:83,1,107.999996704102,10|0,0:3|0:0,0:0:0:0:
380,81,33705,2,0,P|375:117|370:152,1,71.9999978027344,10|0,0:0|0:0,0:0:0:0:
163,169,34021,2,0,P|202:137|280:155,1,107.999996704102,10|0,0:3|0:0,0:0:0:0:
271,153,34337,2,0,P|276:189|281:224,1,71.9999978027344,10|0,0:0|0:0,0:0:0:0:
475,286,34653,6,0,P|419:279|350:269,1,107.999996704102,10|2,0:3|0:0,0:0:0:0:
359,262,34969,1,8,0:0:0:0:
415,365,35126,1,2,0:0:0:0:
458,199,35284,2,0,P|453:159|448:121,1,71.9999978027344,10|0,0:3|0:0,0:0:0:0:
371,24,35600,2,0,P|366:64|361:102,1,71.9999978027344,8|0,0:0|0:0,0:0:0:0:
206,208,35916,6,0,P|241:172|301:170,1,107.999996704102,10|0,0:3|0:0,0:0:0:0:
310,181,36232,2,0,P|276:204|232:190,1,71.9999978027344,10|0,0:0|0:0,0:0:0:0:
128,282,36547,2,0,P|93:246|33:244,1,107.999996704102,10|0,0:3|0:0,0:0:0:0:
24,255,36863,2,0,P|58:278|102:264,1,71.9999978027344,10|0,0:0|0:0,0:0:0:0:
167,149,37179,6,0,P|159:91|150:22,1,107.999996704102,10|2,0:3|0:0,0:0:0:0:
161,33,37495,1,8,0:0:0:0:
79,131,37653,1,2,0:0:0:0:
246,77,37811,2,0,P|288:84|340:93,1,71.9999978027344,10|0,0:3|0:0,0:0:0:0:
432,155,38126,2,0,P|390:162|338:171,1,71.9999978027344,10|0,0:0|0:0,0:0:0:0:
232,333,38442,5,14,0:3:0:0:
392,263,38600,1,8,0:3:0:0:
262,146,38758,2,0,P|269:189|277:239,1,71.9999978027344,10|8,0:0|0:3,0:0:0:0:
285,262,38995,1,8,0:3:0:0:
285,262,39074,1,10,0:3:0:0:
349,113,39232,1,8,0:3:0:0:
185,171,39390,2,0,P|133:164|88:157,1,71.9999978027344,10|8,0:0|0:3,0:0:0:0:
15,258,39705,5,14,0:3:0:0:
284,162,40021,5,12,0:3:0:0:
95,19,40337,5,14,0:3:0:0:
148,161,40653,5,8,0:3:0:0:
234,78,40969,6,0,P|307:69|447:50,1,192,14|10,0:3|0:3,0:0:0:0:
502,96,41600,1,8,0:0:0:0:
384,263,41916,6,0,P|348:212|365:149,1,128,2|8,0:0|0:3,0:0:0:0:
417,85,42390,2,0,P|452:135|436:199,1,128,2|8,0:0|0:3,0:0:0:0:
384,263,42863,2,0,P|289:246|180:231,2,192,10|10|10,0:0|0:3|0:3,0:0:0:0:
512,154,44126,5,8,0:0:0:0:
512,154,44284,2,0,P|495:240|487:290,1,128,10|2,0:3|0:0,0:0:0:0:
439,356,44758,2,0,P|396:298|278:320,1,192,10|10,0:3|0:3,0:0:0:0:
226,372,45390,1,10,0:0:0:0:
73,179,45863,5,2,0:0:0:0:
73,179,46021,2,0,P|139:189|215:200,1,128,10|2,0:3|0:0,0:0:0:0:
284,230,46495,2,0,P|280:194|275:154,1,64,10|8,0:3|0:0,0:0:0:0:
369,234,46811,1,2,0:0:0:0:
369,234,46968,2,0,P|365:198|360:158,1,64,2|2,0:0|0:0,0:0:0:0:
344,82,47284,5,8,0:3:0:0:
344,82,47442,2,0,P|312:48|226:54,1,128,10|10,0:0|0:3,0:0:0:0:
159,91,47916,2,0,P|119:84|82:79,1,64,10|2,0:0|0:0,0:0:0:0:
22,123,48232,1,2,0:0:0:0:
204,234,48547,6,0,P|241:180|359:201,1,192,10|8,0:3|0:3,0:0:0:0:
409,259,49179,1,10,0:0:0:0:
273,358,49495,1,2,0:0:0:0:
141,175,49811,6,0,P|66:166|-12:156,1,128,14|0,0:3|0:0,0:0:0:0:
287,69,50442,1,10,0:0:0:0:
264,154,50600,1,8,0:3:0:0:
243,237,50758,1,8,0:3:0:0:
147,44,51074,5,14,0:3:0:0:
147,44,56126,5,14,0:3:0:0:
147,44,57074,2,0,P|213:35|282:25,1,107.999996704102,14|0,0:3|0:0,0:0:0:0:
264,34,57390,5,14,0:3:0:0:
351,132,57547,2,0,P|312:125|273:119,1,71.9999978027344,2|8,0:0|0:0,0:0:0:0:
458,26,57863,2,0,P|448:83|431:190,1,143.999995605469,14|8,0:3|0:3,0:0:0:0:
451,199,58258,1,8,0:3:0:0:
451,199,58337,2,0,P|457:246|462:283,1,71.9999978027344,14|0,0:3|0:0,0:0:0:0:
512,364,58653,5,10,0:0:0:0:
293,293,58811,1,10,0:0:0:0:
386,379,59126,5,10,0:0:0:0:
464,191,59442,5,10,0:3:0:0:
464,191,59521,1,8,0:3:0:0:
464,191,59600,2,0,P|413:151|358:167,1,107.999996704102,14|0,0:3|0:0,0:0:0:0:
359,173,59916,6,0,P|285:161|188:145,1,143.999995605469,14|8,0:3|0:0,0:0:0:0:
267,241,60390,1,10,0:3:0:0:
377,91,60547,2,0,P|303:79|206:63,1,143.999995605469,10|8,0:3|0:0,0:0:0:0:
63,182,61021,6,0,P|110:130|188:151,1,143.999995605469,14|10,0:3|0:0,0:0:0:0:
240,200,61416,1,0,0:0:0:0:
240,200,61495,2,0,L|247:257,3,35.9999989013672,10|8|10|8,0:0|0:0|0:0|0:0,0:0:0:0:
184,290,61811,2,0,L|191:347,3,35.9999989013672,10|8|10|8,0:0|0:0|0:0|0:0,0:0:0:0:
257,375,62126,1,10,0:0:0:0:
270,354,62204,1,8,0:0:0:0:
291,339,62283,1,8,0:0:0:0:
315,334,62362,1,8,0:0:0:0:
340,339,62442,6,0,P|389:289|354:187,1,160,14|10,0:3|0:0,0:0:0:0:
268,90,62916,1,2,0:0:0:0:
118,216,63074,2,0,P|191:206|302:192,1,160,10|10,0:3|0:0,0:0:0:0:
463,167,63547,1,2,0:0:0:0:
318,287,63705,5,10,0:3:0:0:
372,114,63863,1,2,0:0:0:0:
482,266,64021,1,10,0:0:0:0:
290,170,64179,2,0,P|239:164|186:157,1,80,2|8,0:0|0:3,0:0:0:0:
43,209,64495,1,2,0:0:0:0:
43,209,64653,2,0,P|94:215|147:222,1,80,10|2,0:0|0:0,0:0:0:0:
260,312,64969,5,10,0:3:0:0:
216,148,65126,2,0,P|206:201|197:246,1,80,2|8,0:0|0:0,0:0:0:0:
170,361,65442,1,2,0:0:0:0:
308,203,65600,2,0,P|355:197|420:189,1,80,10|0,0:3|0:0,0:0:0:0:
498,302,65916,2,0,P|451:296|386:288,1,80,10|0,0:0|0:0,0:0:0:0:
210,157,66232,6,0,P|222:231|238:333,1,160,10|8,0:3|0:0,0:0:0:0:
297,159,66705,1,2,0:0:0:0:
141,277,66863,1,10,0:3:0:0:
321,180,67021,1,2,0:0:0:0:
110,107,67179,2,0,P|117:157|124:204,1,80,10|0,0:0|0:0,0:0:0:0:
289,337,67495,6,0,P|236:280|155:297,1,160,10|10,0:3|0:0,0:0:0:0:
66,375,67969,1,2,0:0:0:0:
104,229,68126,2,0,P|97:179|77:44,1,160,10|10,0:3|0:0,0:0:0:0:
187,198,68600,1,2,0:0:0:0:
7,145,68758,5,10,0:3:0:0:
172,50,68916,1,2,0:0:0:0:
25,164,69074,1,10,0:0:0:0:
237,121,69232,2,0,P|308:132|348:138,1,80,2|8,0:0|0:3,0:0:0:0:
166,255,69547,1,2,0:0:0:0:
166,255,69705,2,0,P|161:219|153:164,1,80,10|2,0:0|0:0,0:0:0:0:
99,337,70021,5,10,0:3:0:0:
254,280,70179,2,0,P|298:286|361:294,1,80,2|8,0:0|0:0,0:0:0:0:
484,234,70495,1,2,0:0:0:0:
341,115,70653,2,0,P|348:154|357:211,1,80,10|0,0:3|0:0,0:0:0:0:
404,350,70969,2,0,P|410:310|417:271,1,80,10|0,0:0|0:0,0:0:0:0:
416,72,71284,6,0,P|378:34|270:60,1,160,10|8,0:3|0:0,0:0:0:0:
144,210,71758,1,2,0:0:0:0:
315,136,71916,1,10,0:3:0:0:
173,35,72074,1,10,0:0:0:0:
173,35,72153,1,8,0:0:0:0:
173,35,72232,2,0,L|163:94,1,40,10|8,0:0|0:0,0:0:0:0:
92,20,72390,2,0,L|82:79,1,40,8|8,0:0|0:0,0:0:0:0:
70,186,72547,6,0,P|111:155|153:163,1,80,14|0,0:3|0:0,0:0:0:0:
326,269,72863,2,0,P|266:263|185:254,1,120,10|0,0:0|0:0,0:0:0:0:
191,263,73179,2,0,P|199:312|205:362,1,80,10|0,0:3|0:0,0:0:0:0:
275,185,73495,2,0,P|285:118|299:30,1,120,10|0,0:0|0:0,0:0:0:0:
284,57,73811,1,10,0:3:0:0:
362,186,73969,6,0,P|406:179|462:171,1,80,2|8,0:0|0:0,0:0:0:0:
396,97,74284,1,2,0:0:0:0:
438,263,74442,2,0,P|430:307|417:370,1,80,10|2,0:3|0:0,0:0:0:0:
512,217,74758,1,10,0:0:0:0:
512,217,74916,1,2,0:0:0:0:
346,266,75074,6,0,P|269:255|168:241,1,160,10|10,0:3|0:0,0:0:0:0:
107,290,75547,1,2,0:0:0:0:
184,150,75705,2,0,P|253:141|362:125,1,160,10|10,0:3|0:0,0:0:0:0:
439,168,76179,1,2,0:0:0:0:
324,230,76337,5,10,0:3:0:0:
493,100,76495,1,2,0:0:0:0:
293,31,76653,2,0,P|299:69|308:130,1,80,10|0,0:0|0:0,0:0:0:0:
404,255,76969,2,0,P|409:219|416:175,1,80,10|0,0:3|0:0,0:0:0:0:
314,275,77284,2,0,P|320:236|326:195,1,80,8|0,0:0|0:0,0:0:0:0:
442,366,77600,6,0,P|410:340|354:345,1,80,14|0,0:3|0:0,0:0:0:0:
161,367,77916,2,0,P|225:363|257:295,1,120,10|0,0:0|0:0,0:0:0:0:
258,304,78232,2,0,P|251:258|244:213,1,80,10|0,0:3|0:0,0:0:0:0:
436,187,78547,2,0,P|372:191|340:259,1,120,10|0,0:0|0:0,0:0:0:0:
346,248,78863,5,10,0:3:0:0:
233,109,79021,2,0,P|291:118|330:124,1,80,2|8,0:0|0:0,0:0:0:0:
202,203,79337,1,2,0:0:0:0:
140,53,79495,1,10,0:0:0:0:
101,42,79573,1,8,0:0:0:0:
62,51,79652,1,10,0:0:0:0:
32,75,79731,1,8,0:0:0:0:
15,111,79811,2,0,L|23:158,3,40,10|8|10|8,0:0|0:0|0:0|0:0,0:0:0:0:
94,203,80126,6,0,P|84:272|66:382,1,160,14|10,0:3|0:0,0:0:0:0:
174,212,80600,1,2,0:0:0:0:
0,304,80758,1,10,0:0:0:0:
191,380,80916,2,0,P|185:339|178:290,1,80,10|8,0:3|0:0,0:0:0:0:
80,120,81232,5,10,0:3:0:0:
269,198,81390,1,10,0:0:0:0:
87,295,81547,2,0,P|93:254|100:205,1,80,10|8,0:3|0:0,0:0:0:0:
246,76,81863,1,10,0:3:0:0:
186,243,82021,1,10,0:0:0:0:
75,63,82337,1,2,0:0:0:0:
449,153,82653,6,0,P|503:220|373:140,1,640,14|8,0:3|0:3,0:0:0:0:
