osu file format v14

[General]
AudioFilename: FACTION.mp3
AudioLeadIn: 0
PreviewTime: 20679
Countdown: 0
SampleSet: Soft
StackLeniency: 0.7
Mode: 0
LetterboxInBreaks: 0
WidescreenStoryboard: 1

[Editor]
DistanceSpacing: 1.2
BeatDivisor: 4
GridSize: 32
TimelineZoom: 1.7

[Metadata]
Title:FACTION (TV Size)
TitleUnicode:FACTION (TV Size)
Artist:Wienners
ArtistUnicode:Wienners
Creator:Hazu-
Version:Hologram
Source:デジモンゴーストゲーム
Tags:digimon ghost game digital monsters opening op anime japanese pop jpop 玉屋2060% TAMAYA2060 アサミサエ Asamisae ∴560∵ KOZO
BeatmapID:3253101
BeatmapSetID:1592825

[Difficulty]
HPDrainRate:6
CircleSize:4.2
OverallDifficulty:8.5
ApproachRate:9.3
SliderMultiplier:1.9
SliderTickRate:1

[Events]
//Background and Video events
0,0,"1.jpg",0,0
//Break Periods
2,51274,55572
//Storyboard Layer 0 (Background)
//Storyboard Layer 1 (Fail)
//Storyboard Layer 2 (Pass)
//Storyboard Layer 3 (Foreground)
//Storyboard Layer 4 (Overlay)
//Storyboard Sound Samples

[TimingPoints]
548,315.78947368421,4,2,1,60,1,0
548,-125,4,2,1,60,0,0
3074,-100,4,2,1,60,0,0
5521,-100,4,2,1,5,0,0
5600,-111.111111111111,4,2,1,60,0,0
8600,-86.9565217391304,4,2,1,60,0,0
8837,-86.9565217391304,4,2,1,5,0,0
8916,-76.9230769230769,4,2,1,60,0,0
9153,-76.9230769230769,4,2,1,5,0,0
9232,-68.9655172413793,4,2,1,60,0,0
9469,-68.9655172413793,4,2,1,5,0,0
9547,-62.5,4,2,1,60,0,0
9784,-62.5,4,2,1,5,0,0
9863,-111.111111111111,4,2,1,60,0,0
10337,-76.9230769230769,4,2,1,60,0,0
10574,-111.111111111111,4,2,1,5,0,0
10653,-86.9565217391304,4,2,1,70,0,0
10890,-86.9565217391304,4,2,1,5,0,0
10969,-86.9565217391304,4,2,1,70,0,0
13416,-86.9565217391304,4,2,1,5,0,0
13495,-86.9565217391304,4,2,1,70,0,0
15626,-86.9565217391304,4,2,1,5,0,0
15705,-86.9565217391304,4,2,1,70,0,0
15942,-86.9565217391304,4,2,1,5,0,0
16021,-86.9565217391304,4,2,1,70,0,0
18469,-86.9565217391304,4,2,1,5,0,0
18547,-86.9565217391304,4,2,1,70,0,0
20679,-86.9565217391304,4,2,1,5,0,0
20758,-111.111111111111,4,2,1,60,0,0
23205,-111.111111111111,4,2,1,5,0,0
23284,-100,4,2,1,60,0,0
25258,-100,4,2,1,5,0,0
25337,-100,4,2,1,60,0,0
25416,-100,4,2,1,5,0,0
25495,-100,4,2,1,60,0,0
25574,-100,4,2,1,5,0,0
25653,-100,4,2,1,60,0,0
25732,-100,4,2,1,5,0,0
25811,-100,4,2,1,60,0,0
25890,-100,4,2,1,5,0,0
26126,-100,4,2,1,60,0,0
31100,-100,4,2,1,5,0,0
31179,-100,4,2,1,60,0,0
31732,-100,4,2,1,5,0,0
31811,-100,4,2,1,60,0,0
33626,-100,4,2,1,5,0,0
33705,-100,4,2,1,60,0,0
34258,-100,4,2,1,5,0,0
34337,-100,4,2,1,60,0,0
36153,-100,4,2,1,5,0,0
36232,-100,4,2,1,60,0,0
36784,-100,4,2,1,5,0,0
36863,-100,4,2,1,60,0,0
40969,-125,4,2,1,50,0,0
51074,-125,4,2,1,45,0,0
56126,-100,4,2,1,60,0,0
57311,-100,4,2,1,5,0,0
57390,-100,4,2,1,60,0,0
58574,-100,4,2,1,5,0,0
58653,-100,4,2,1,60,0,0
59837,-100,4,2,1,5,0,0
59916,-100,4,2,1,60,0,0
62442,-86.9565217391304,4,2,1,80,0,1
62679,-86.9565217391304,4,2,1,5,0,1
62758,-86.9565217391304,4,2,1,80,0,1
62837,-86.9565217391304,4,2,1,5,0,1
62916,-86.9565217391304,4,2,1,80,0,1
63311,-86.9565217391304,4,2,1,5,0,1
63390,-86.9565217391304,4,2,1,80,0,1
63469,-86.9565217391304,4,2,1,5,0,1
63547,-86.9565217391304,4,2,1,80,0,1
64574,-86.9565217391304,4,2,1,5,0,1
64653,-86.9565217391304,4,2,1,80,0,1
64732,-86.9565217391304,4,2,1,5,0,1
64811,-86.9565217391304,4,2,1,80,0,1
67732,-86.9565217391304,4,2,1,5,0,1
67811,-86.9565217391304,4,2,1,80,0,1
67890,-86.9565217391304,4,2,1,5,0,1
67969,-86.9565217391304,4,2,1,80,0,1
68363,-86.9565217391304,4,2,1,5,0,1
68442,-86.9565217391304,4,2,1,80,0,1
68521,-86.9565217391304,4,2,1,5,0,1
68600,-86.9565217391304,4,2,1,80,0,1
69626,-86.9565217391304,4,2,1,5,0,1
69705,-86.9565217391304,4,2,1,80,0,1
69784,-86.9565217391304,4,2,1,5,0,1
69863,-86.9565217391304,4,2,1,80,0,1
73100,-86.9565217391304,4,2,1,5,0,1
73179,-86.9565217391304,4,2,1,80,0,1
73732,-86.9565217391304,4,2,1,5,0,1
73811,-86.9565217391304,4,2,1,80,0,1
78153,-86.9565217391304,4,2,1,5,0,1
78232,-86.9565217391304,4,2,1,80,0,1
78784,-86.9565217391304,4,2,1,5,0,1
78863,-86.9565217391304,4,2,1,80,0,1
80363,-86.9565217391304,4,2,1,5,0,1
80442,-86.9565217391304,4,2,1,80,0,1
82653,-100,4,2,1,80,0,0
83811,-133.333333333333,4,2,1,80,0,0

[Colours]
Combo1 : 145,34,255
Combo2 : 255,62,62
Combo3 : 0,128,255

[HitObjects]
38,27,390,5,8,0:3:0:0:
38,27,469,1,8,0:3:0:0:
38,27,548,2,0,P|116:44|208:58,1,152,14|2,0:3|0:0,0:0:0:0:
219,163,1179,2,0,P|264:108|353:121,1,152,2|2,0:0|0:0,0:0:0:0:
438,177,1811,6,0,P|430:125|419:52,2,114,14|2|10,0:3|0:0|0:3,0:0:0:0:
459,196,2363,1,8,0:3:0:0:
459,196,2442,1,10,0:3:0:0:
363,356,2600,1,8,0:3:0:0:
323,247,2758,1,10,0:3:0:0:
419,271,2916,1,8,0:3:0:0:
251,352,3074,6,0,P|182:336|42:316,1,190,14|8,0:3|0:0,0:0:0:0:
102,95,3547,6,0,P|177:163|134:256,1,190,14|8,0:3|0:0,0:0:0:0:
0,355,4021,6,0,B|72:323|135:321|135:321|149:349|187:369,1,190,14|8,0:3|0:0,0:0:0:0:
255,181,4495,6,0,P|201:152|128:239,1,190,14|8,0:3|0:3,0:0:0:0:
304,368,4969,5,10,0:0:0:0:
461,263,5126,1,8,0:3:0:0:
346,144,5284,2,0,P|355:218|365:306,1,142.5,10|0,0:0|0:0,0:0:0:0:
354,298,5600,5,14,0:3:0:0:
156,162,7653,5,8,0:0:0:0:
153,183,7731,1,8,0:0:0:0:
150,204,7810,1,8,0:0:0:0:
147,225,7889,1,8,0:0:0:0:
144,246,7968,1,8,0:0:0:0:
141,267,8047,1,8,0:0:0:0:
138,289,8126,5,14,0:0:0:0:
362,232,8284,1,10,0:0:0:0:
362,232,8442,1,8,0:3:0:0:
185,43,8600,6,0,P|199:119|217:223,1,163.875003125668,10|0,0:0|0:0,0:0:0:0:
265,292,8916,6,0,P|251:216|232:106,1,185.249991519928,10|0,0:0|0:0,0:0:0:0:
83,22,9232,6,0,P|97:98|123:241,1,206.625006305695,10|0,0:0|0:0,0:0:0:0:
183,347,9547,6,0,P|169:271|139:108,1,228,10|0,0:0|0:0,0:0:0:0:
68,335,9863,5,14,0:0:0:0:
317,50,10179,5,8,0:3:0:0:
317,50,10258,1,8,0:3:0:0:
317,50,10337,2,0,P|392:51|368:137,1,185.249991519928,14|0,0:0|0:0,0:0:0:0:
290,159,10653,6,0,P|221:144|107:124,1,163.875003125668,14|0,0:3|0:0,0:0:0:0:
116,113,10969,2,0,P|126:182|136:260,1,109.250002083778,10|0,0:0|0:0,0:0:0:0:
292,374,11284,1,10,0:3:0:0:
49,268,11442,1,2,0:0:0:0:
290,159,11600,1,10,0:0:0:0:
149,378,11758,6,0,P|162:287|178:157,1,218.500004167557,2|2,0:0|0:0,0:0:0:0:
411,99,12232,1,10,0:0:0:0:
285,279,12390,1,2,0:0:0:0:
196,59,12547,1,10,0:3:0:0:
389,203,12705,1,2,0:0:0:0:
137,263,12864,1,10,0:0:0:0:
249,147,13022,1,2,0:0:0:0:
398,321,13179,6,0,P|352:265|254:270,1,163.875003125668,10|0,0:3|0:0,0:0:0:0:
251,273,13495,2,0,P|244:322|232:410,1,109.250002083778,10|0,0:0|0:0,0:0:0:0:
363,122,13811,1,10,0:3:0:0:
133,214,13969,1,2,0:0:0:0:
369,317,14126,1,10,0:0:0:0:
221,56,14284,6,0,P|228:105|252:287,1,218.500004167557,2|2,0:0|0:0,0:0:0:0:
110,368,14758,1,10,0:0:0:0:
354,254,14916,1,2,0:0:0:0:
117,147,15074,1,10,0:3:0:0:
117,147,15390,2,0,P|60:188|91:296,1,163.875003125668,10|0,0:0|0:0,0:0:0:0:
141,320,15705,6,0,P|229:302|311:289,1,163.875003125668,14|0,0:3|0:0,0:0:0:0:
313,276,16021,2,0,P|305:333|297:391,1,109.250002083778,10|0,0:0|0:0,0:0:0:0:
197,115,16337,1,10,0:3:0:0:
421,242,16495,1,2,0:0:0:0:
189,344,16653,1,10,0:0:0:0:
289,132,16811,6,0,P|392:116|513:94,1,218.500004167557,2|2,0:0|0:0,0:0:0:0:
301,231,17284,1,10,0:0:0:0:
387,15,17442,1,2,0:0:0:0:
326,266,17600,1,10,0:3:0:0:
207,31,17758,1,2,0:0:0:0:
465,121,17916,1,10,0:0:0:0:
298,186,18074,1,2,0:0:0:0:
363,13,18232,6,0,P|372:90|388:223,1,163.875003125668,10|0,0:3|0:0,0:0:0:0:
396,184,18547,2,0,P|402:236|411:309,1,109.250002083778,10|0,0:0|0:0,0:0:0:0:
488,72,18863,1,10,0:3:0:0:
282,195,19021,1,2,0:0:0:0:
512,277,19179,1,10,0:0:0:0:
355,73,19337,6,0,P|277:86|121:104,1,218.500004167557,14|10,0:3|0:0,0:0:0:0:
61,69,19732,1,8,0:0:0:0:
61,69,19811,1,10,0:0:0:0:
292,183,19969,1,10,0:3:0:0:
41,297,20126,5,10,0:3:0:0:
114,192,20284,1,8,0:3:0:0:
303,363,20442,6,0,P|241:294|162:325,1,163.875003125668,10|0,0:0|0:0,0:0:0:0:
170,321,20758,5,2,0:0:0:0:
417,193,21074,1,8,0:3:0:0:
361,124,21232,1,2,0:0:0:0:
361,124,21390,2,0,P|329:187|389:279,1,170.999994781494,2|8,0:0|0:0,0:0:0:0:
371,270,21863,1,2,0:0:0:0:
453,105,22021,6,0,P|414:45|304:51,1,170.999994781494,10|0,0:3|0:0,0:0:0:0:
201,176,22495,1,10,0:3:0:0:
288,146,22653,1,2,0:0:0:0:
46,25,22969,2,0,P|57:92|70:182,1,128.249996086121,14|0,0:0|0:0,0:0:0:0:
56,165,23285,5,12,0:3:0:0:
202,31,23442,2,0,P|256:39|319:47,1,95,2|8,0:0|0:0,0:0:0:0:
178,131,23758,2,0,P|232:139|295:147,1,95,2|8,0:0|0:3,0:0:0:0:
448,84,24074,2,0,P|399:79|361:104,1,95,2|8,0:0|0:0,0:0:0:0:
368,341,24390,6,0,P|402:273|319:184,1,190,2|2,0:0|0:0,0:0:0:0:
204,140,24863,1,10,0:0:0:0:
90,274,25021,2,0,P|174:259|256:246,1,142.5,2|0,0:0|0:0,0:0:0:0:
248,263,25337,6,0,L|256:204,1,47.5,2|0,0:0|0:0,0:0:0:0:
277,84,25495,2,0,L|269:143,1,47.5,10|0,0:0|0:0,0:0:0:0:
274,294,25653,6,0,L|266:235,1,47.5,2|0,0:0|0:0,0:0:0:0:
238,54,25811,2,0,L|246:113,1,47.5,10|0,0:3|0:0,0:0:0:0:
258,37,26126,5,12,0:0:0:0:
184,217,26284,1,2,0:0:0:0:
392,146,26442,2,0,P|321:137|186:117,1,190,10|8,0:3|0:0,0:0:0:0:
63,192,26916,1,2,0:0:0:0:
180,378,27074,6,0,P|170:310|152:174,1,190,10|10,0:3|0:0,0:0:0:0:
72,321,27547,1,2,0:0:0:0:
254,186,27705,1,10,0:3:0:0:
35,81,27863,1,2,0:0:0:0:
89,156,28021,1,10,0:0:0:0:
151,43,28179,5,10,0:3:0:0:
151,43,28258,1,8,0:3:0:0:
151,43,28337,2,0,P|221:27|267:54,1,95,8|2,0:3|0:0,0:0:0:0:
390,106,28653,1,10,0:0:0:0:
248,218,28811,2,0,P|253:167|259:107,1,95,2|8,0:0|0:3,0:0:0:0:
336,289,29126,1,2,0:0:0:0:
336,289,29284,1,10,0:0:0:0:
175,32,29442,5,14,0:0:0:0:
343,114,29600,1,8,0:0:0:0:
192,186,29758,1,10,0:3:0:0:
295,257,29916,1,10,0:3:0:0:
295,257,29995,1,8,0:3:0:0:
295,257,30074,1,10,0:3:0:0:
226,354,30232,5,10,0:0:0:0:
226,354,30390,1,2,0:0:0:0:
449,86,30705,5,2,0:0:0:0:
449,86,30863,2,0,P|379:77|279:62,1,142.5,14|0,0:3|0:0,0:0:0:0:
220,23,31179,2,0,P|233:80|242:136,1,95,10|0,0:0|0:0,0:0:0:0:
80,223,31495,6,0,P|150:214|250:199,1,142.5,10|0,0:3|0:0,0:0:0:0:
307,162,31811,2,0,P|294:219|285:273,1,95,10|0,0:0|0:0,0:0:0:0:
194,380,32126,6,0,P|245:330|327:350,1,142.5,10|2,0:3|0:0,0:0:0:0:
379,378,32442,1,8,0:0:0:0:
512,280,32600,1,2,0:0:0:0:
373,173,32758,2,0,P|382:227|390:284,1,95,10|0,0:3|0:0,0:0:0:0:
458,103,33074,2,0,P|467:157|475:214,1,95,10|0,0:0|0:0,0:0:0:0:
199,95,33390,6,0,P|252:45|332:62,1,142.5,10|0,0:3|0:0,0:0:0:0:
372,147,33705,2,0,P|318:138|254:129,1,95,10|0,0:0|0:0,0:0:0:0:
79,235,34021,6,0,P|128:186|197:191,1,142.5,10|0,0:3|0:0,0:0:0:0:
253,286,34337,2,0,P|206:278|159:271,1,95,10|0,0:0|0:0,0:0:0:0:
318,134,34653,6,0,P|327:212|339:301,1,142.5,10|2,0:3|0:0,0:0:0:0:
388,335,34969,1,8,0:0:0:0:
238,202,35126,1,2,0:0:0:0:
457,134,35284,2,0,P|448:202|441:250,1,95,10|0,0:3|0:0,0:0:0:0:
361,112,35600,2,0,P|352:180|345:228,1,95,8|0,0:0|0:0,0:0:0:0:
494,345,35916,6,0,P|417:329|337:317,1,142.5,10|0,0:3|0:0,0:0:0:0:
290,377,36232,2,0,P|268:331|279:280,1,95,10|0,0:0|0:0,0:0:0:0:
119,173,36547,6,0,P|196:189|276:201,1,142.5,10|0,0:3|0:0,0:0:0:0:
323,141,36863,2,0,P|345:187|334:238,1,95,10|0,0:0|0:0,0:0:0:0:
219,367,37179,6,0,P|171:315|83:331,1,142.5,10|2,0:3|0:0,0:0:0:0:
35,372,37495,1,8,0:0:0:0:
222,251,37653,1,2,0:0:0:0:
23,153,37811,2,0,P|32:199|44:268,1,95,10|0,0:3|0:0,0:0:0:0:
106,384,38126,2,0,P|114:337|123:290,1,95,10|0,0:0|0:0,0:0:0:0:
256,67,38442,5,14,0:3:0:0:
345,319,38600,1,8,0:3:0:0:
102,183,38758,1,10,0:0:0:0:
379,97,38916,5,8,0:3:0:0:
379,97,38995,1,8,0:3:0:0:
379,97,39074,1,10,0:3:0:0:
224,269,39232,1,8,0:3:0:0:
257,130,39390,5,10,0:0:0:0:
317,216,39547,1,8,0:3:0:0:
127,345,39705,5,14,0:3:0:0:
405,207,40021,5,12,0:3:0:0:
152,58,40337,5,14,0:3:0:0:
243,199,40653,5,8,0:3:0:0:
416,26,40969,6,0,P|348:53|357:200,1,228,14|10,0:3|0:3,0:0:0:0:
416,233,41600,1,8,0:0:0:0:
236,99,41916,6,0,P|187:107|76:122,1,152,2|8,0:0|0:3,0:0:0:0:
37,54,42390,2,0,P|6:95|34:192,1,152,2|8,0:0|0:3,0:0:0:0:
113,157,42863,2,0,P|101:219|70:388,2,228,10|10|10,0:0|0:3|0:3,0:0:0:0:
336,149,44126,5,8,0:0:0:0:
336,149,44284,2,0,P|264:164|222:92,1,152,10|2,0:3|0:0,0:0:0:0:
176,23,44758,2,0,P|196:123|219:266,1,228,10|10,0:3|0:3,0:0:0:0:
173,320,45390,1,10,0:0:0:0:
298,88,45863,5,2,0:0:0:0:
298,88,46021,2,0,P|354:77|419:155,1,152,10|2,0:3|0:0,0:0:0:0:
509,212,46495,1,10,0:3:0:0:
509,212,46653,2,0,P|453:209|432:232,1,76,8|2,0:0|0:0,0:0:0:0:
382,278,46969,2,0,P|347:273|297:266,1,76,2|2,0:0|0:0,0:0:0:0:
212,188,47284,5,8,0:3:0:0:
212,188,47442,2,0,P|222:242|240:349,1,152,10|10,0:0|0:3,0:0:0:0:
310,384,47916,2,0,P|316:335|321:291,1,76,10|2,0:0|0:0,0:0:0:0:
391,250,48232,1,2,0:0:0:0:
265,98,48547,6,0,B|211:76|147:119|195:160|119:204|53:170,1,228,10|8,0:3|0:3,0:0:0:0:
21,64,49179,2,0,P|53:28|79:105,1,152,10|2,0:0|0:0,0:0:0:0:
24,299,49811,6,0,P|75:243|157:262,1,152,14|0,0:3|0:0,0:0:0:0:
373,359,50442,1,10,0:0:0:0:
361,276,50600,1,8,0:3:0:0:
351,193,50758,1,8,0:3:0:0:
245,379,51074,5,14,0:3:0:0:
314,45,56126,5,14,0:3:0:0:
198,339,57074,2,0,P|251:291|333:311,1,142.5,14|0,0:3|0:0,0:0:0:0:
331,314,57390,5,14,0:3:0:0:
420,178,57547,2,0,P|372:172|326:216,1,95,2|8,0:0|0:0,0:0:0:0:
477,370,57863,2,0,P|485:313|505:176,1,190,14|8,0:3|0:3,0:0:0:0:
464,102,58258,1,8,0:3:0:0:
464,102,58337,2,0,P|472:159|486:271,1,142.5,14|0,0:3|0:0,0:0:0:0:
410,301,58653,5,10,0:0:0:0:
95,211,58811,1,10,0:0:0:0:
296,117,59126,5,10,0:0:0:0:
235,341,59442,5,10,0:3:0:0:
235,341,59521,1,8,0:3:0:0:
235,341,59600,2,0,P|228:292|214:188,1,142.5,14|0,0:3|0:0,0:0:0:0:
244,121,59916,6,0,P|235:183|217:318,1,190,14|8,0:3|0:0,0:0:0:0:
146,90,60390,1,10,0:3:0:0:
311,246,60547,2,0,P|392:234|515:217,1,190,10|8,0:3|0:0,0:0:0:0:
318,30,61021,6,0,P|254:63|269:184,1,190,14|10,0:3|0:0,0:0:0:0:
418,307,61495,5,10,0:0:0:0:
399,264,61573,1,8,0:0:0:0:
361,237,61652,1,10,0:0:0:0:
314,233,61731,1,8,0:0:0:0:
272,253,61811,5,10,0:0:0:0:
238,249,61889,1,8,0:0:0:0:
205,245,61968,1,10,0:0:0:0:
172,241,62047,1,8,0:0:0:0:
139,238,62126,6,0,L|148:298,1,47.5,10|8,0:0|0:0,0:0:0:0:
205,375,62284,2,0,L|214:315,1,47.5,8|8,0:0|0:0,0:0:0:0:
232,93,62442,6,0,P|154:106|37:124,1,163.875003125668,14|0,0:3|0:0,0:0:0:0:
55,133,62758,2,0,L|64:59,1,54.6250010418892,10|0,0:0|0:0,0:0:0:0:
10,10,62916,1,2,0:0:0:0:
184,180,63074,2,0,P|194:265|207:371,1,163.875003125668,10|0,0:3|0:0,0:0:0:0:
216,362,63390,2,0,L|146:348,1,54.6250010418892,10|0,0:0|0:0,0:0:0:0:
80,375,63547,1,2,0:0:0:0:
307,218,63705,5,10,0:3:0:0:
63,107,63863,1,2,0:0:0:0:
332,205,64021,1,10,0:0:0:0:
101,301,64179,2,0,P|109:238|116:173,1,109.250002083778,2|8,0:0|0:3,0:0:0:0:
314,23,64495,2,0,L|306:93,1,54.6250010418892,2|0,0:0|0:0,0:0:0:0:
233,180,64653,2,0,L|241:110,1,54.6250010418892,10|0,0:0|0:0,0:0:0:0:
207,47,64811,5,2,0:0:0:0:
334,220,64969,1,10,0:3:0:0:
135,129,65126,2,0,P|85:137|11:148,1,109.250002083778,2|8,0:0|0:0,0:0:0:0:
203,252,65442,1,2,0:0:0:0:
304,38,65600,2,0,P|311:100|319:166,1,109.250002083778,10|0,0:3|0:0,0:0:0:0:
174,16,65916,2,0,P|181:78|189:144,1,109.250002083778,10|0,0:0|0:0,0:0:0:0:
86,317,66232,6,0,P|133:236|263:253,1,218.500004167557,10|8,0:3|0:0,0:0:0:0:
437,359,66705,1,2,0:0:0:0:
366,138,66863,1,10,0:3:0:0:
259,350,67021,1,2,0:0:0:0:
493,242,67179,2,0,P|433:233|368:222,1,109.250002083778,10|0,0:0|0:0,0:0:0:0:
214,59,67495,6,0,P|225:139|240:253,1,163.875003125668,10|0,0:3|0:0,0:0:0:0:
252,245,67811,2,0,P|216:240|182:234,1,54.6250010418892,10|0,0:0|0:0,0:0:0:0:
127,284,67969,1,2,0:0:0:0:
304,70,68126,2,0,P|387:82|483:95,1,163.875003125668,10|0,0:3|0:0,0:0:0:0:
484,108,68442,2,0,P|478:70|472:34,1,54.6250010418892,10|0,0:0|0:0,0:0:0:0:
407,4,68600,1,2,0:0:0:0:
287,261,68758,5,10,0:3:0:0:
512,192,68916,1,2,0:0:0:0:
309,94,69074,1,10,0:0:0:0:
378,328,69232,2,0,P|386:265|393:200,1,109.250002083778,2|8,0:0|0:3,0:0:0:0:
242,28,69548,2,0,L|234:98,1,54.6250010418892,2|0,0:0|0:0,0:0:0:0:
305,176,69706,2,0,L|313:106,1,54.6250010418892,10|0,0:0|0:0,0:0:0:0:
373,62,69864,5,2,0:0:0:0:
211,200,70021,1,10,0:3:0:0:
398,166,70180,2,0,P|442:173|531:186,1,109.250002083778,2|8,0:0|0:0,0:0:0:0:
232,348,70495,1,2,0:0:0:0:
285,109,70653,2,0,P|291:148|306:240,1,109.250002083778,10|0,0:3|0:0,0:0:0:0:
156,164,70969,2,0,P|162:203|177:295,1,109.250002083778,10|0,0:0|0:0,0:0:0:0:
50,14,71284,6,0,P|40:116|24:258,1,218.500004167557,10|8,0:3|0:0,0:0:0:0:
270,359,71758,1,2,0:0:0:0:
162,135,71916,1,10,0:3:0:0:
53,355,72074,1,10,0:0:0:0:
53,355,72153,1,8,0:0:0:0:
53,355,72232,2,0,P|77:337|120:338,1,54.6250010418892,10|8,0:0|0:0,0:0:0:0:
223,293,72390,2,0,P|196:288|175:271,1,54.6250010418892,8|8,0:0|0:0,0:0:0:0:
71,129,72547,6,0,P|83:185|93:264,1,109.250002083778,14|0,0:3|0:0,0:0:0:0:
292,365,72863,2,0,P|339:309|430:323,1,163.875003125668,10|0,0:0|0:0,0:0:0:0:
507,350,73179,2,0,P|497:294|486:233,1,109.250002083778,10|0,0:3|0:0,0:0:0:0:
276,31,73495,6,0,P|221:91|256:182,1,163.875003125668,10|0,0:0|0:0,0:0:0:0:
303,226,73811,1,10,0:3:0:0:
25,147,73969,6,0,P|74:140|153:122,1,109.250002083778,2|8,0:0|0:0,0:0:0:0:
385,175,74284,1,2,0:0:0:0:
160,291,74442,1,10,0:3:0:0:
266,73,74600,1,2,0:0:0:0:
359,311,74758,1,10,0:0:0:0:
123,161,74916,1,2,0:0:0:0:
402,50,75074,6,0,P|386:129|376:190,1,109.250002083778,10|0,0:3|0:0,0:0:0:0:
231,346,75390,1,10,0:0:0:0:
464,253,75547,1,2,0:0:0:0:
233,103,75705,2,0,P|249:182|259:243,1,109.250002083778,10|0,0:3|0:0,0:0:0:0:
367,308,76021,1,10,0:0:0:0:
367,308,76179,1,2,0:0:0:0:
129,226,76337,5,10,0:3:0:0:
372,131,76495,1,2,0:0:0:0:
174,27,76653,2,0,P|190:106|200:167,1,109.250002083778,10|0,0:0|0:0,0:0:0:0:
353,256,76969,2,0,P|308:219|239:243,1,109.250002083778,10|0,0:3|0:0,0:0:0:0:
106,338,77284,2,0,P|158:329|232:316,1,109.250002083778,8|0,0:0|0:0,0:0:0:0:
46,140,77600,6,0,P|38:200|28:278,1,109.250002083778,14|0,0:3|0:0,0:0:0:0:
338,133,77916,2,0,P|286:71|192:84,1,163.875003125668,10|0,0:0|0:0,0:0:0:0:
134,120,78232,2,0,P|126:180|116:258,1,109.250002083778,10|0,0:3|0:0,0:0:0:0:
347,270,78547,6,0,P|399:208|493:221,1,163.875003125668,10|0,0:0|0:0,0:0:0:0:
512,292,78863,1,10,0:3:0:0:
338,133,79021,6,0,P|289:126|210:108,1,109.250002083778,2|8,0:0|0:0,0:0:0:0:
4,210,79337,1,2,0:0:0:0:
81,21,79495,1,10,0:0:0:0:
81,21,79574,1,8,0:0:0:0:
81,21,79653,2,0,P|88:58|95:100,1,54.6250010418892,10|8,0:0|0:0,0:0:0:0:
135,202,79811,1,10,0:0:0:0:
135,202,79890,1,8,0:0:0:0:
135,202,79969,2,0,P|139:175|144:148,1,54.6250010418892,10|8,0:0|0:0,0:0:0:0:
215,95,80126,6,0,P|299:86|417:72,1,163.875003125668,14|0,0:3|0:0,0:0:0:0:
451,36,80442,1,10,0:0:0:0:
259,239,80600,1,2,0:0:0:0:
501,133,80758,1,10,0:0:0:0:
253,14,80916,1,10,0:3:0:0:
387,266,81074,1,8,0:0:0:0:
512,22,81232,1,10,0:3:0:0:
222,134,81390,5,10,0:0:0:0:
446,204,81547,1,10,0:3:0:0:
446,204,81626,1,8,0:3:0:0:
446,204,81705,2,0,P|438:146|429:83,1,109.250002083778,8|10,0:0|0:3,0:0:0:0:
354,296,82021,1,10,0:0:0:0:
273,206,82337,1,2,0:0:0:0:
369,131,82653,6,0,P|395:207|315:90,1,696.666666666667,14|8,0:3|0:3,0:0:0:0:
300,74,83916,2,0,L|292:117,1,35.625001358986,8|8,0:3|0:3,0:0:0:0:
