osu file format v14

[General]
AudioFilename: FACTION.mp3
AudioLeadIn: 0
PreviewTime: 20679
Countdown: 0
SampleSet: Soft
StackLeniency: 0.7
Mode: 0
LetterboxInBreaks: 0
WidescreenStoryboard: 0

[Editor]
DistanceSpacing: 1.3
BeatDivisor: 4
GridSize: 32
TimelineZoom: 1.7

[Metadata]
Title:FACTION (TV Size)
TitleUnicode:FACTION (TV Size)
Artist:Wienners
ArtistUnicode:Wienners
Creator:Hazu-
Version:Hard
Source:デジモンゴーストゲーム
Tags:digimon ghost game digital monsters opening op anime japanese pop jpop 玉屋2060% TAMAYA2060 アサミサエ Asamisae ∴560∵ KOZO
BeatmapID:3254951
BeatmapSetID:1592825

[Difficulty]
HPDrainRate:4
CircleSize:4
OverallDifficulty:6
ApproachRate:8
SliderMultiplier:1.4
SliderTickRate:1

[Events]
//Background and Video events
0,0,"2.jpg",0,0
//Break Periods
2,51274,55376
//Storyboard Layer 0 (Background)
//Storyboard Layer 1 (Fail)
//Storyboard Layer 2 (Pass)
//Storyboard Layer 3 (Foreground)
//Storyboard Layer 4 (Overlay)
//Storyboard Sound Samples

[TimingPoints]
548,315.78947368421,4,2,1,60,1,0
548,-125,4,2,1,60,0,0
3074,-111.111111111111,4,2,1,60,0,0
8600,-111.111111111111,4,2,1,60,0,0
8837,-111.111111111111,4,2,1,5,0,0
8916,-111.111111111111,4,2,1,60,0,0
9153,-111.111111111111,4,2,1,5,0,0
9232,-111.111111111111,4,2,1,60,0,0
9469,-111.111111111111,4,2,1,5,0,0
9547,-111.111111111111,4,2,1,60,0,0
9784,-111.111111111111,4,2,1,5,0,0
9863,-111.111111111111,4,2,1,60,0,0
10337,-111.111111111111,4,2,1,60,0,0
10574,-111.111111111111,4,2,1,5,0,0
10653,-100,4,2,1,70,0,0
10890,-100,4,2,1,5,0,0
10969,-100,4,2,1,70,0,0
15626,-100,4,2,1,5,0,0
15705,-100,4,2,1,70,0,0
20679,-100,4,2,1,5,0,0
20758,-111.111111111111,4,2,1,60,0,0
31100,-111.111111111111,4,2,1,5,0,0
31179,-111.111111111111,4,2,1,60,0,0
31732,-111.111111111111,4,2,1,5,0,0
31811,-111.111111111111,4,2,1,60,0,0
33626,-111.111111111111,4,2,1,5,0,0
33705,-111.111111111111,4,2,1,60,0,0
34258,-111.111111111111,4,2,1,5,0,0
34337,-111.111111111111,4,2,1,60,0,0
36153,-111.111111111111,4,2,1,5,0,0
36232,-111.111111111111,4,2,1,60,0,0
36784,-111.111111111111,4,2,1,5,0,0
36863,-111.111111111111,4,2,1,60,0,0
40969,-125,4,2,1,50,0,0
51074,-125,4,2,1,45,0,0
56126,-111.111111111111,4,2,1,60,0,0
57311,-111.111111111111,4,2,1,5,0,0
57390,-111.111111111111,4,2,1,60,0,0
59837,-111.111111111111,4,2,1,5,0,0
59916,-111.111111111111,4,2,1,60,0,0
62442,-100,4,2,1,80,0,1
73100,-100,4,2,1,5,0,1
73179,-100,4,2,1,80,0,1
73732,-100,4,2,1,5,0,1
73811,-100,4,2,1,80,0,1
78153,-100,4,2,1,5,0,1
78232,-100,4,2,1,80,0,1
78784,-100,4,2,1,5,0,1
78863,-100,4,2,1,80,0,1
82653,-100,4,2,1,80,0,0

[Colours]
Combo1 : 255,164,119
Combo2 : 197,230,96
Combo3 : 145,235,118

[HitObjects]
23,167,390,5,8,0:3:0:0:
23,167,469,1,8,0:3:0:0:
23,167,548,2,0,P|69:142|140:173,1,112,14|2,0:3|0:0,0:0:0:0:
249,251,1179,2,0,P|301:265|350:240,1,112,2|2,0:0|0:0,0:0:0:0:
451,119,1811,6,0,P|459:66|466:18,2,84,14|2|10,0:3|0:0|0:3,0:0:0:0:
458,129,2363,1,8,0:3:0:0:
465,139,2442,2,0,P|460:180|456:218,1,56,10|8,0:3|0:3,0:0:0:0:
384,223,2758,2,0,P|380:250|377:278,1,56,10|8,0:3|0:3,0:0:0:0:
417,372,3074,6,0,P|368:328|302:344,1,125.999996154785,14|8,0:3|0:0,0:0:0:0:
219,375,3547,2,0,P|169:364|89:351,1,125.999996154785,14|8,0:3|0:0,0:0:0:0:
24,277,4022,6,0,P|86:267|147:253,1,125.999996154785,14|8,0:3|0:0,0:0:0:0:
219,182,4495,2,0,P|279:175|323:217,1,125.999996154785,14|8,0:3|0:3,0:0:0:0:
391,265,4969,2,0,P|384:316|379:349,1,62.9999980773926,10|8,0:0|0:3,0:0:0:0:
446,378,5284,1,10,0:0:0:0:
501,223,5600,5,14,0:3:0:0:
501,223,7653,5,8,0:0:0:0:
501,223,7732,1,8,0:0:0:0:
501,223,7811,2,0,L|459:217,3,31.4999990386963,8|8|8|8,0:0|0:0|0:0|0:0,0:0:0:0:
436,242,8126,5,14,0:0:0:0:
368,167,8284,1,10,0:0:0:0:
197,275,8600,5,10,0:0:0:0:
376,366,8916,5,10,0:0:0:0:
283,186,9232,5,10,0:0:0:0:
202,370,9547,5,10,0:0:0:0:
369,257,9863,5,14,0:0:0:0:
182,180,10179,5,8,0:3:0:0:
182,180,10258,1,8,0:3:0:0:
182,180,10337,2,0,P|172:219|210:284,1,94.499997116089,14|0,0:0|0:0,0:0:0:0:
230,283,10653,6,0,P|304:271|382:260,2,140,14|10|10,0:3|0:0|0:3,0:0:0:0:
171,342,11442,2,0,P|130:342|88:311,1,70,2|10,0:0|0:0,0:0:0:0:
48,265,11758,6,0,P|57:208|70:121,1,140,2|2,0:0|0:0,0:0:0:0:
139,79,12232,1,10,0:0:0:0:
139,79,12390,2,0,P|145:121|151:171,1,70,2|10,0:0|0:3,0:0:0:0:
226,191,12705,1,2,0:0:0:0:
226,191,12863,2,0,P|232:149|238:99,1,70,10|2,0:0|0:0,0:0:0:0:
303,71,13179,6,0,B|364:65|364:65|385:75|385:75|457:67,2,140,10|10|10,0:3|0:0|0:3,0:0:0:0:
229,29,13969,2,0,B|194:19|194:19|151:41,1,70,2|10,0:0|0:0,0:0:0:0:
108,97,14284,6,0,P|117:143|134:244,1,140,2|2,0:0|0:0,0:0:0:0:
200,285,14758,2,0,P|207:248|217:197,1,70,10|2,0:0|0:0,0:0:0:0:
231,133,15074,1,10,0:3:0:0:
387,72,15390,2,0,P|380:109|363:190,1,105,10|0,0:0|0:0,0:0:0:0:
382,213,15705,6,0,B|452:195|447:277|529:245,2,140,14|10|10,0:3|0:0|0:3,0:0:0:0:
319,270,16495,2,0,P|279:272|247:253,1,70,2|10,0:0|0:0,0:0:0:0:
187,205,16811,6,0,P|125:216|28:232,1,140,2|2,0:0|0:0,0:0:0:0:
23,153,17284,1,10,0:0:0:0:
23,153,17442,2,0,P|58:147|92:141,1,70,2|10,0:0|0:3,0:0:0:0:
136,71,17757,1,2,0:0:0:0:
136,71,17916,2,0,P|171:65|205:59,1,70,10|2,0:0|0:0,0:0:0:0:
278,102,18232,6,0,P|266:170|250:258,2,140,10|10|10,0:3|0:0|0:3,0:0:0:0:
361,91,19021,2,0,P|354:134|346:186,1,70,2|10,0:0|0:0,0:0:0:0:
431,227,19337,6,0,P|458:292|424:355,1,140,14|10,0:3|0:0,0:0:0:0:
420,355,19732,1,8,0:0:0:0:
411,359,19811,1,10,0:0:0:0:
328,375,19969,1,10,0:3:0:0:
266,318,20126,2,0,P|220:311|181:305,1,70,10|8,0:3|0:3,0:0:0:0:
154,234,20442,2,0,P|200:227|270:215,1,105,10|0,0:0|0:0,0:0:0:0:
296,232,20758,6,0,P|323:176|286:105,1,125.999996154785,2|8,0:0|0:3,0:0:0:0:
229,80,21232,1,2,0:0:0:0:
229,80,21390,2,0,P|183:87|86:101,1,125.999996154785,2|8,0:0|0:0,0:0:0:0:
41,151,21864,1,2,0:0:0:0:
112,191,22022,6,0,P|158:184|255:170,1,125.999996154785,10|0,0:3|0:0,0:0:0:0:
314,212,22495,1,10,0:3:0:0:
314,212,22653,1,2,0:0:0:0:
422,88,22969,2,0,P|416:48|411:15,1,62.9999980773926,14|0,0:0|0:0,0:0:0:0:
315,20,23284,5,12,0:3:0:0:
315,20,23442,2,0,P|321:60|326:93,1,62.9999980773926,2|8,0:0|0:0,0:0:0:0:
242,92,23758,2,0,P|237:60|232:29,1,62.9999980773926,2|8,0:0|0:3,0:0:0:0:
151,41,24074,2,0,P|155:72|160:103,1,62.9999980773926,2|8,0:0|0:0,0:0:0:0:
102,161,24390,6,0,P|87:210|139:284,1,125.999996154785,2|2,0:0|0:0,0:0:0:0:
199,293,24863,1,10,0:0:0:0:
258,236,25021,2,0,P|325:246|389:256,1,125.999996154785,2|2,0:0|0:0,0:0:0:0:
461,231,25495,1,10,0:0:0:0:
480,310,25653,1,2,0:0:0:0:
401,332,25811,1,10,0:3:0:0:
354,175,26126,6,0,P|358:145|364:102,1,62.9999980773926,12|2,0:0|0:0,0:0:0:0:
309,49,26442,2,0,P|248:57|171:67,1,125.999996154785,10|8,0:3|0:0,0:0:0:0:
111,26,26916,1,2,0:0:0:0:
40,67,27074,6,0,P|21:124|56:192,1,125.999996154785,10|10,0:3|0:0,0:0:0:0:
121,211,27547,1,2,0:0:0:0:
187,162,27705,2,0,B|221:155|221:155|261:181,1,62.9999980773926,10|2,0:3|0:0,0:0:0:0:
305,225,28021,2,0,B|339:232|339:232|379:206,1,62.9999980773926,10|10,0:0|0:3,0:0:0:0:
369,209,28258,1,8,0:3:0:0:
375,202,28337,5,8,0:3:0:0:
442,248,28495,2,0,P|437:287|431:331,1,62.9999980773926,2|10,0:0|0:0,0:0:0:0:
369,362,28811,2,0,P|324:323|248:337,1,125.999996154785,2|2,0:0|0:0,0:0:0:0:
192,374,29285,1,10,0:0:0:0:
117,307,29442,6,0,P|123:265|128:231,1,62.9999980773926,14|8,0:0|0:0,0:0:0:0:
136,162,29758,1,10,0:3:0:0:
214,186,29916,2,0,P|220:228|225:262,1,62.9999980773926,10|10,0:3|0:3,0:0:0:0:
296,296,30232,1,10,0:0:0:0:
296,296,30390,1,2,0:0:0:0:
359,147,30705,5,2,0:0:0:0:
359,147,30863,2,0,P|415:139|469:131,1,94.499997116089,14|0,0:3|0:0,0:0:0:0:
483,106,31179,2,0,P|489:72|496:28,1,62.9999980773926,10|0,0:0|0:0,0:0:0:0:
422,1,31495,2,0,P|366:9|312:17,1,94.499997116089,10|0,0:3|0:0,0:0:0:0:
298,42,31811,2,0,P|292:76|285:120,1,62.9999980773926,10|0,0:0|0:0,0:0:0:0:
218,149,32126,6,0,P|158:142|120:172,1,94.499997116089,10|2,0:3|0:0,0:0:0:0:
105,191,32442,1,8,0:0:0:0:
79,268,32600,1,2,0:0:0:0:
141,320,32758,2,0,P|171:316|224:307,1,62.9999980773926,10|0,0:3|0:0,0:0:0:0:
279,343,33074,2,0,P|309:339|362:330,1,62.9999980773926,10|0,0:0|0:0,0:0:0:0:
416,299,33390,6,0,P|434:244|410:195,1,94.499997116089,10|0,0:3|0:0,0:0:0:0:
387,190,33705,2,0,P|355:195|324:199,1,62.9999980773926,10|0,0:0|0:0,0:0:0:0:
250,234,34021,2,0,P|232:289|256:338,1,94.499997116089,10|0,0:3|0:0,0:0:0:0:
279,343,34337,2,0,P|310:337|341:333,1,62.9999980773926,10|0,0:0|0:0,0:0:0:0:
416,299,34653,6,0,P|424:247|433:184,1,94.499997116089,10|2,0:3|0:0,0:0:0:0:
467,186,34969,1,8,0:0:0:0:
445,107,35126,1,2,0:0:0:0:
368,137,35284,2,0,P|321:131|236:119,1,125.999996154785,10|8,0:3|0:0,0:0:0:0:
82,153,35916,6,0,P|90:205|99:268,1,94.499997116089,10|0,0:3|0:0,0:0:0:0:
127,273,36232,2,0,P|133:314|140:356,1,62.9999980773926,10|0,0:0|0:0,0:0:0:0:
216,319,36547,2,0,P|208:267|199:204,1,94.499997116089,10|0,0:3|0:0,0:0:0:0:
171,199,36863,2,0,P|165:158|158:116,1,62.9999980773926,10|0,0:0|0:0,0:0:0:0:
212,71,37179,6,0,P|253:54|321:84,1,94.499997116089,10|2,0:3|0:0,0:0:0:0:
333,89,37495,1,8,0:0:0:0:
404,49,37653,1,2,0:0:0:0:
471,95,37811,2,0,P|465:137|460:177,1,62.9999980773926,10|0,0:3|0:0,0:0:0:0:
397,207,38126,2,0,P|367:213|330:200,1,62.9999980773926,10|0,0:0|0:0,0:0:0:0:
277,121,38442,5,14,0:3:0:0:
197,102,38600,1,8,0:3:0:0:
117,83,38758,2,0,P|123:131|129:175,1,62.9999980773926,10|8,0:0|0:3,0:0:0:0:
119,157,38995,1,8,0:3:0:0:
113,168,39074,2,0,P|119:216|125:260,1,62.9999980773926,10|8,0:3|0:3,0:0:0:0:
46,265,39390,2,0,P|52:313|58:357,1,62.9999980773926,10|8,0:0|0:3,0:0:0:0:
142,376,39705,5,14,0:3:0:0:
313,269,40021,1,12,0:3:0:0:
136,170,40337,1,14,0:3:0:0:
201,268,40653,1,8,0:3:0:0:
292,140,40969,6,0,P|310:86|231:10,1,168,14|10,0:3|0:3,0:0:0:0:
230,89,41600,1,8,0:0:0:0:
311,223,41916,6,0,P|374:209|433:194,1,112,2|8,0:0|0:3,0:0:0:0:
438,274,42390,2,0,P|383:287|328:299,1,112,2|8,0:0|0:3,0:0:0:0:
276,358,42863,1,10,0:0:0:0:
69,244,43337,6,0,P|36:189|71:92,1,168,10|10,0:3|0:3,0:0:0:0:
215,41,44126,1,8,0:0:0:0:
215,41,44284,2,0,P|207:99|198:161,1,112,10|2,0:3|0:0,0:0:0:0:
259,202,44758,6,0,P|311:150|411:175,1,168,10|10,0:3|0:3,0:0:0:0:
448,223,45390,1,10,0:0:0:0:
248,344,45863,5,2,0:0:0:0:
248,344,46021,2,0,P|191:333|126:323,1,112,10|2,0:3|0:0,0:0:0:0:
65,356,46495,1,10,0:3:0:0:
1,309,46653,2,0,P|7:275|14:234,1,56,8|2,0:0|0:0,0:0:0:0:
83,223,46969,2,0,P|89:185|94:146,1,56,2|2,0:0|0:0,0:0:0:0:
162,127,47284,5,8,0:3:0:0:
162,127,47442,2,0,P|216:124|255:163,1,112,10|10,0:0|0:3,0:0:0:0:
280,237,47916,2,0,P|274:275|269:314,2,56,10|2|2,0:0|0:0|0:0,0:0:0:0:
433,204,48547,6,0,P|466:154|432:51,1,168,10|8,0:3|0:3,0:0:0:0:
365,24,49179,2,0,P|319:31|251:40,1,112,10|2,0:0|0:0,0:0:0:0:
115,114,49811,6,0,P|170:121|225:129,1,112,14|0,0:3|0:0,0:0:0:0:
369,193,50442,2,0,P|363:242|359:272,1,56,10|8,0:0|0:3,0:0:0:0:
310,308,50758,1,8,0:3:0:0:
454,368,51074,5,14,0:3:0:0:
365,366,56126,5,14,0:3:0:0:
147,18,57074,2,0,P|124:57|140:118,1,94.499997116089,14|0,0:3|0:0,0:0:0:0:
161,131,57390,5,14,0:3:0:0:
229,175,57547,2,0,P|277:169|318:164,1,62.9999980773926,2|8,0:0|0:0,0:0:0:0:
369,139,57863,2,0,P|359:203|348:270,1,125.999996154785,14|8,0:3|0:3,0:0:0:0:
355,273,58258,1,8,0:3:0:0:
362,281,58337,2,0,P|355:333|350:363,1,62.9999980773926,14|0,0:3|0:0,0:0:0:0:
257,368,58653,5,10,0:0:0:0:
176,307,58811,1,10,0:0:0:0:
335,184,59126,5,10,0:0:0:0:
155,72,59442,5,10,0:3:0:0:
155,72,59521,1,8,0:3:0:0:
155,72,59600,2,0,P|94:66|56:99,1,94.499997116089,14|0,0:3|0:0,0:0:0:0:
47,118,59916,6,0,P|58:178|70:258,1,125.999996154785,14|8,0:3|0:0,0:0:0:0:
31,316,60390,1,10,0:3:0:0:
105,349,60547,2,0,P|152:306|218:318,1,125.999996154785,10|8,0:3|0:0,0:0:0:0:
299,362,61021,6,0,P|346:352|429:341,1,125.999996154785,14|10,0:3|0:0,0:0:0:0:
433,335,61416,1,0,0:0:0:0:
442,328,61495,2,0,L|447:291,3,31.4999990386963,10|8|10|8,0:0|0:0|0:0|0:0,0:0:0:0:
418,266,61811,2,0,L|423:229,3,31.4999990386963,10|8|10|8,0:0|0:0|0:0|0:0,0:0:0:0:
458,214,62127,2,0,L|463:177,3,31.4999990386963,10|8|8|8,0:0|0:0|0:0|0:0,0:0:0:0:
438,148,62442,6,0,B|377:142|377:142|356:152|356:152|284:144,1,140,14|10,0:3|0:0,0:0:0:0:
238,89,62916,1,2,0:0:0:0:
166,133,63074,2,0,P|175:195|187:275,1,140,10|10,0:3|0:0,0:0:0:0:
128,332,63547,1,2,0:0:0:0:
52,295,63705,6,0,P|47:262|39:220,1,70,10|2,0:3|0:0,0:0:0:0:
74,150,64021,1,10,0:0:0:0:
74,150,64179,2,0,P|69:117|61:75,1,70,2|8,0:0|0:3,0:0:0:0:
128,28,64495,1,2,0:0:0:0:
207,55,64653,2,0,P|212:88|220:130,1,70,10|2,0:0|0:0,0:0:0:0:
299,161,64969,5,10,0:3:0:0:
299,161,65126,2,0,P|333:140|382:152,1,70,2|8,0:0|0:0,0:0:0:0:
435,182,65442,1,2,0:0:0:0:
376,241,65600,2,0,P|367:303|355:383,1,140,10|10,0:3|0:0,0:0:0:0:
244,252,66232,6,0,P|210:231|119:276,1,140,10|8,0:3|0:0,0:0:0:0:
95,344,66705,1,2,0:0:0:0:
34,286,66863,2,0,P|40:253|47:209,1,70,10|2,0:3|0:0,0:0:0:0:
111,163,67179,2,0,P|117:130|124:86,1,70,10|0,0:0|0:0,0:0:0:0:
197,55,67495,6,0,P|202:93|216:206,1,140,10|10,0:3|0:0,0:0:0:0:
291,229,67969,1,2,0:0:0:0:
335,158,68126,2,0,P|383:137|473:192,1,140,10|10,0:3|0:0,0:0:0:0:
501,242,68600,1,2,0:0:0:0:
443,302,68758,6,0,B|409:311|409:311|374:294,1,70,10|2,0:3|0:0,0:0:0:0:
312,249,69074,1,10,0:0:0:0:
312,249,69232,2,0,B|280:233|280:233|246:242,1,70,2|8,0:0|0:3,0:0:0:0:
197,311,69547,1,2,0:0:0:0:
125,266,69705,2,0,P|130:231|136:186,1,70,10|2,0:0|0:0,0:0:0:0:
211,158,70021,5,10,0:3:0:0:
211,158,70179,2,0,P|216:123|222:78,1,70,2|8,0:0|0:0,0:0:0:0:
153,36,70495,1,2,0:0:0:0:
71,55,70653,2,0,P|66:89|49:214,1,140,10|10,0:3|0:0,0:0:0:0:
112,350,71284,6,0,P|159:300|234:319,1,140,10|8,0:3|0:0,0:0:0:0:
292,359,71758,1,2,0:0:0:0:
366,319,71916,2,0,P|373:268|376:240,1,70,10|10,0:3|0:0,0:0:0:0:
383,243,72153,1,8,0:0:0:0:
391,235,72232,2,0,L|398:184,3,35,10|8|8|8,0:0|0:0|0:0|0:0,0:0:0:0:
434,182,72547,6,0,P|447:145|442:113,1,70,14|0,0:3|0:0,0:0:0:0:
368,74,72863,2,0,P|297:84|238:91,1,105,10|0,0:0|0:0,0:0:0:0:
227,65,73179,2,0,P|191:61|154:82,1,70,10|0,0:3|0:0,0:0:0:0:
113,144,73495,2,0,P|121:185|135:261,1,105,10|0,0:0|0:0,0:0:0:0:
119,287,73811,1,10,0:3:0:0:
191,329,73969,6,0,P|236:320|269:315,1,70,2|8,0:0|0:0,0:0:0:0:
312,251,74284,1,2,0:0:0:0:
312,251,74442,2,0,P|277:245|243:238,1,70,10|2,0:3|0:0,0:0:0:0:
183,177,74758,1,10,0:0:0:0:
246,122,74916,1,2,0:0:0:0:
189,60,75074,6,0,P|123:52|35:41,1,140,10|10,0:3|0:0,0:0:0:0:
0,111,75547,1,2,0:0:0:0:
31,189,75705,2,0,P|97:197|185:208,1,140,10|10,0:3|0:0,0:0:0:0:
234,260,76179,1,2,0:0:0:0:
297,204,76337,6,0,P|291:161|285:121,1,70,10|2,0:3|0:0,0:0:0:0:
362,95,76653,2,0,P|368:138|374:178,1,70,10|0,0:0|0:0,0:0:0:0:
449,197,76969,2,0,P|488:258|461:331,1,140,10|8,0:3|0:0,0:0:0:0:
311,370,77600,6,0,B|283:347|283:347|240:353,1,70,14|0,0:3|0:0,0:0:0:0:
167,370,77916,2,0,P|103:359|43:351,1,105,10|0,0:0|0:0,0:0:0:0:
21,361,78232,2,0,P|1:321|11:289,1,70,10|0,0:3|0:0,0:0:0:0:
61,235,78547,2,0,P|106:228|185:216,1,105,10|0,0:0|0:0,0:0:0:0:
198,245,78863,1,10,0:3:0:0:
255,183,79022,6,0,B|289:173|289:173|326:192,1,70,2|8,0:0|0:0,0:0:0:0:
368,263,79337,1,2,0:0:0:0:
449,242,79495,2,0,P|456:199|464:156,1,70,10|10,0:0|0:0,0:0:0:0:
457,163,79732,1,8,0:0:0:0:
453,153,79811,2,0,L|460:110,3,35,10|8|10|8,0:0|0:0|0:0|0:0,0:0:0:0:
430,87,80126,6,0,P|372:95|286:105,1,140,14|10,0:3|0:0,0:0:0:0:
232,165,80600,1,2,0:0:0:0:
157,125,80758,2,0,P|163:90|172:39,1,70,10|10,0:0|0:3,0:0:0:0:
85,42,81074,2,0,P|78:76|73:110,1,70,8|10,0:0|0:3,0:0:0:0:
9,166,81390,5,10,0:0:0:0:
62,229,81547,2,0,P|101:225|157:219,1,70,10|8,0:3|0:0,0:0:0:0:
209,255,81863,1,10,0:3:0:0:
161,324,82021,1,10,0:0:0:0:
323,367,82337,1,2,0:0:0:0:
461,208,82653,6,0,P|481:143|395:249,1,560,14|8,0:3|0:3,0:0:0:0:
