osu file format v14

[General]
AudioFilename: audio.mp3
AudioLeadIn: 0
PreviewTime: 16800
Countdown: 0
SampleSet: Normal
StackLeniency: 0.7
Mode: 3
LetterboxInBreaks: 0
SpecialStyle: 0
WidescreenStoryboard: 0

[Editor]
DistanceSpacing: 1.4
BeatDivisor: 4
GridSize: 16
TimelineZoom: 2

[Metadata]
Title:Brokentooth March
TitleUnicode:Brokentooth March
Artist:Widdly 2 Diddly
ArtistUnicode:Widdly 2 Diddly
Creator:Sebbern
Version:Normal
Source:LISA the Joyful
Tags:Widdly 2 Diddly, Austin Jorgensen, Lisa The Joyful, Lisa the Painful RPG, Video Game, Dr Yado,
BeatmapID:1724353
BeatmapSetID:607989

[Difficulty]
HPDrainRate:7
CircleSize:4
OverallDifficulty:8
ApproachRate:5
SliderMultiplier:1.4
SliderTickRate:1

[Events]
//Background and Video events
0,0,"background.png",0,0
//Break Periods
//Storyboard Layer 0 (Background)
//Storyboard Layer 1 (Fail)
//Storyboard Layer 2 (Pass)
//Storyboard Layer 3 (Foreground)
//Storyboard Sound Samples

[TimingPoints]
20,600,4,1,0,30,1,0
28820,-100,4,1,0,30,0,1
37820,-100,4,1,0,30,0,0
67220,-100,4,1,0,30,0,1
76220,-100,4,1,0,30,0,0
96020,-100,4,1,0,30,0,1
105020,-100,4,1,0,30,0,0

[HitObjects]
64,192,20,128,0,620:0:0:0:0:
448,192,620,128,0,1220:0:0:0:0:
320,192,1220,1,0,0:0:0:0:
192,192,1520,1,0,0:0:0:0:
64,192,1820,128,0,2420:0:0:0:0:
448,192,2420,1,0,0:0:0:0:
320,192,3020,1,0,0:0:0:0:
64,192,3620,1,0,0:0:0:0:
192,192,3920,1,0,0:0:0:0:
320,192,4220,128,0,4820:0:0:0:0:
64,192,4820,128,0,5420:0:0:0:0:
448,192,5420,128,0,6020:0:0:0:0:
64,192,6020,1,0,0:0:0:0:
192,192,6320,1,0,0:0:0:0:
320,192,6620,128,0,7220:0:0:0:0:
64,192,7220,128,0,7820:0:0:0:0:
448,192,7820,128,0,8420:0:0:0:0:
320,192,8420,1,0,0:0:0:0:
192,192,8720,1,0,0:0:0:0:
64,192,9020,128,0,9620:0:0:0:0:
448,192,9620,128,0,10220:0:0:0:0:
320,192,9620,1,0,0:0:0:0:
64,192,10220,128,0,10820:0:0:0:0:
320,192,10520,1,0,0:0:0:0:
192,192,10820,1,0,0:0:0:0:
448,192,11120,1,0,0:0:0:0:
64,192,11120,1,0,0:0:0:0:
192,192,11420,128,0,12020:0:0:0:0:
64,192,12020,128,0,12620:0:0:0:0:
448,192,12020,1,0,0:0:0:0:
448,192,12620,128,0,13220:0:0:0:0:
192,192,12920,1,0,0:0:0:0:
320,192,13220,1,0,0:0:0:0:
64,192,13520,1,0,0:0:0:0:
448,192,13520,1,0,0:0:0:0:
192,192,13820,128,0,14420:0:0:0:0:
320,192,13970,1,0,0:0:0:0:
64,192,14420,1,0,0:0:0:0:
448,192,14420,128,0,15020:0:0:0:0:
64,192,15020,128,0,15620:0:0:0:0:
320,192,15320,1,0,0:0:0:0:
192,192,15620,1,0,0:0:0:0:
64,192,15920,1,0,0:0:0:0:
448,192,15920,1,0,0:0:0:0:
320,192,16220,128,0,16820:0:0:0:0:
64,192,16820,128,0,17420:0:0:0:0:
192,192,16820,1,0,0:0:0:0:
448,192,17420,128,0,18020:0:0:0:0:
192,192,17720,1,0,0:0:0:0:
320,192,18020,1,0,0:0:0:0:
64,192,18320,1,0,0:0:0:0:
448,192,18320,1,0,0:0:0:0:
192,192,18620,128,0,19220:0:0:0:0:
320,192,18770,1,0,0:0:0:0:
448,192,19070,1,0,0:0:0:0:
64,192,19220,1,0,0:0:0:0:
320,192,19220,1,0,0:0:0:0:
192,192,19520,1,0,0:0:0:0:
448,192,19820,1,8,0:0:0:0:
320,192,20120,1,0,0:0:0:0:
64,192,20420,1,8,0:0:0:0:
192,192,20720,1,0,0:0:0:0:
320,192,20720,1,0,0:0:0:0:
448,192,21020,1,8,0:0:0:0:
64,192,21320,1,0,0:0:0:0:
192,192,21470,1,0,0:0:0:0:
320,192,21620,1,8,0:0:0:0:
448,192,21620,1,0,0:0:0:0:
192,192,21920,1,0,0:0:0:0:
64,192,22220,1,8,0:0:0:0:
320,192,22520,1,0,0:0:0:0:
448,192,22820,1,8,0:0:0:0:
320,192,22970,1,0,0:0:0:0:
192,192,23120,1,0,0:0:0:0:
64,192,23120,1,0,0:0:0:0:
320,192,23420,1,0,0:0:0:0:
448,192,23420,1,0,0:0:0:0:
192,192,23570,1,0,0:0:0:0:
64,192,23720,1,0,0:0:0:0:
192,192,23870,1,0,0:0:0:0:
320,192,24020,1,8,0:0:0:0:
448,192,24020,1,0,0:0:0:0:
192,192,24320,1,0,0:0:0:0:
320,192,24620,1,8,0:0:0:0:
64,192,24920,1,0,0:0:0:0:
448,192,25220,1,8,0:0:0:0:
320,192,25520,1,0,0:0:0:0:
192,192,25520,1,0,0:0:0:0:
64,192,25820,1,8,0:0:0:0:
192,192,26120,1,0,0:0:0:0:
320,192,26270,1,0,0:0:0:0:
448,192,26420,1,8,0:0:0:0:
64,192,26420,1,0,0:0:0:0:
192,192,26720,1,0,0:0:0:0:
448,192,27020,1,8,0:0:0:0:
64,192,27320,1,0,0:0:0:0:
320,192,27620,1,0,0:0:0:0:
192,192,27920,1,0,0:0:0:0:
64,192,28220,1,0,0:0:0:0:
448,192,28220,1,0,0:0:0:0:
320,192,28520,1,0,0:0:0:0:
192,192,28670,1,0,0:0:0:0:
64,192,28820,1,0,0:0:0:0:
448,192,28820,1,0,0:0:0:0:
320,192,28970,1,0,0:0:0:0:
64,192,29120,1,0,0:0:0:0:
192,192,29270,1,0,0:0:0:0:
320,192,29420,1,8,0:0:0:0:
448,192,29570,1,0,0:0:0:0:
192,192,29720,1,0,0:0:0:0:
64,192,29870,1,0,0:0:0:0:
448,192,30020,1,8,0:0:0:0:
320,192,30170,1,0,0:0:0:0:
64,192,30320,1,0,0:0:0:0:
192,192,30320,1,0,0:0:0:0:
448,192,30470,1,0,0:0:0:0:
320,192,30620,1,8,0:0:0:0:
192,192,30770,1,0,0:0:0:0:
64,192,30920,1,0,0:0:0:0:
192,192,31070,1,0,0:0:0:0:
320,192,31220,1,8,0:0:0:0:
448,192,31220,1,0,0:0:0:0:
64,192,31370,1,0,0:0:0:0:
192,192,31520,1,0,0:0:0:0:
320,192,31670,1,0,0:0:0:0:
448,192,31820,1,8,0:0:0:0:
64,192,31970,1,0,0:0:0:0:
192,192,32120,1,0,0:0:0:0:
448,192,32270,1,0,0:0:0:0:
320,192,32420,1,8,0:0:0:0:
192,192,32570,1,0,0:0:0:0:
64,192,32720,1,0,0:0:0:0:
448,192,32720,1,0,0:0:0:0:
320,192,32870,1,0,0:0:0:0:
448,192,33020,1,0,0:0:0:0:
64,192,33020,1,0,0:0:0:0:
192,192,33170,1,0,0:0:0:0:
320,192,33320,1,0,0:0:0:0:
192,192,33470,1,0,0:0:0:0:
64,192,33620,1,8,0:0:0:0:
448,192,33620,1,0,0:0:0:0:
320,192,33770,1,0,0:0:0:0:
64,192,33920,1,0,0:0:0:0:
192,192,34070,1,0,0:0:0:0:
320,192,34220,1,8,0:0:0:0:
448,192,34370,1,0,0:0:0:0:
64,192,34520,1,0,0:0:0:0:
192,192,34670,1,0,0:0:0:0:
448,192,34820,1,8,0:0:0:0:
320,192,34970,1,0,0:0:0:0:
192,192,35120,1,0,0:0:0:0:
64,192,35120,1,0,0:0:0:0:
320,192,35270,1,0,0:0:0:0:
448,192,35420,1,8,0:0:0:0:
320,192,35570,1,0,0:0:0:0:
64,192,35720,1,0,0:0:0:0:
192,192,35870,1,0,0:0:0:0:
448,192,36020,1,0,0:0:0:0:
64,192,36020,1,0,0:0:0:0:
320,192,36170,1,0,0:0:0:0:
64,192,36320,1,0,0:0:0:0:
192,192,36320,1,0,0:0:0:0:
320,192,36470,1,0,0:0:0:0:
448,192,36620,1,0,0:0:0:0:
192,192,36620,1,0,0:0:0:0:
64,192,36770,1,0,0:0:0:0:
192,192,36920,1,0,0:0:0:0:
320,192,36920,1,0,0:0:0:0:
448,192,37070,1,0,0:0:0:0:
64,192,37220,1,0,0:0:0:0:
192,192,37220,1,0,0:0:0:0:
320,192,37370,1,0,0:0:0:0:
64,192,37520,1,0,0:0:0:0:
448,192,37520,1,0,0:0:0:0:
192,192,37670,1,0,0:0:0:0:
448,192,37820,1,0,0:0:0:0:
320,192,37820,1,0,0:0:0:0:
64,192,38120,1,0,0:0:0:0:
192,192,38270,1,0,0:0:0:0:
320,192,38420,1,0,0:0:0:0:
448,192,38420,1,0,0:0:0:0:
192,192,38720,1,0,0:0:0:0:
320,192,38870,1,0,0:0:0:0:
448,192,39020,1,0,0:0:0:0:
64,192,39020,1,0,0:0:0:0:
192,192,39320,1,0,0:0:0:0:
320,192,39620,1,0,0:0:0:0:
64,192,39920,1,0,0:0:0:0:
448,192,39920,1,0,0:0:0:0:
192,192,40220,1,0,0:0:0:0:
320,192,40220,1,0,0:0:0:0:
448,192,40520,1,0,0:0:0:0:
64,192,40820,1,0,0:0:0:0:
192,192,40820,1,0,0:0:0:0:
448,192,41120,1,0,0:0:0:0:
320,192,41270,1,0,0:0:0:0:
64,192,41420,1,0,0:0:0:0:
192,192,41420,1,0,0:0:0:0:
448,192,41720,1,0,0:0:0:0:
320,192,42020,1,0,0:0:0:0:
64,192,42320,1,0,0:0:0:0:
192,192,42320,1,0,0:0:0:0:
320,192,42620,1,0,0:0:0:0:
448,192,42620,1,0,0:0:0:0:
192,192,42770,1,0,0:0:0:0:
64,192,42920,1,0,0:0:0:0:
192,192,43220,1,0,0:0:0:0:
320,192,43220,1,0,0:0:0:0:
64,192,43520,1,0,0:0:0:0:
192,192,43670,1,0,0:0:0:0:
320,192,43820,1,0,0:0:0:0:
448,192,43820,1,0,0:0:0:0:
64,192,44120,1,0,0:0:0:0:
448,192,44420,1,0,0:0:0:0:
64,192,44720,1,0,0:0:0:0:
320,192,44720,1,0,0:0:0:0:
192,192,45020,1,0,0:0:0:0:
448,192,45020,1,0,0:0:0:0:
320,192,45320,1,0,0:0:0:0:
64,192,45620,1,0,0:0:0:0:
192,192,45620,1,0,0:0:0:0:
320,192,45920,1,0,0:0:0:0:
192,192,46070,1,0,0:0:0:0:
64,192,46220,1,0,0:0:0:0:
448,192,46220,1,0,0:0:0:0:
320,192,46520,1,0,0:0:0:0:
192,192,46520,1,0,0:0:0:0:
448,192,46820,1,0,0:0:0:0:
64,192,47120,1,0,0:0:0:0:
192,192,47120,1,0,0:0:0:0:
320,192,47420,1,0,0:0:0:0:
448,192,47420,1,0,0:0:0:0:
192,192,47720,1,0,0:0:0:0:
64,192,48020,1,0,0:0:0:0:
448,192,48020,1,0,0:0:0:0:
192,192,48170,1,0,0:0:0:0:
448,192,48320,1,0,0:0:0:0:
320,192,48470,1,0,0:0:0:0:
64,192,48620,1,0,0:0:0:0:
192,192,48770,1,0,0:0:0:0:
320,192,48920,1,0,0:0:0:0:
448,192,48920,1,0,0:0:0:0:
192,192,49070,1,0,0:0:0:0:
64,192,49220,1,0,0:0:0:0:
448,192,49370,1,0,0:0:0:0:
320,192,49520,1,0,0:0:0:0:
64,192,49670,1,0,0:0:0:0:
192,192,49820,1,0,0:0:0:0:
320,192,49970,1,0,0:0:0:0:
448,192,50120,1,0,0:0:0:0:
320,192,50270,1,0,0:0:0:0:
192,192,50420,1,0,0:0:0:0:
64,192,50420,1,0,0:0:0:0:
448,192,50570,1,0,0:0:0:0:
320,192,50720,1,0,0:0:0:0:
64,192,50870,1,0,0:0:0:0:
192,192,51020,1,0,0:0:0:0:
448,192,51170,1,0,0:0:0:0:
320,192,51320,1,0,0:0:0:0:
192,192,51320,1,0,0:0:0:0:
64,192,51470,1,0,0:0:0:0:
192,192,51620,1,0,0:0:0:0:
320,192,51770,1,0,0:0:0:0:
448,192,51920,1,0,0:0:0:0:
192,192,52070,1,0,0:0:0:0:
64,192,52220,1,0,0:0:0:0:
320,192,52370,1,0,0:0:0:0:
448,192,52520,1,0,0:0:0:0:
320,192,52670,1,0,0:0:0:0:
192,192,52820,1,0,0:0:0:0:
64,192,52820,1,0,0:0:0:0:
448,192,52970,1,0,0:0:0:0:
320,192,53120,1,0,0:0:0:0:
64,192,53270,1,0,0:0:0:0:
192,192,53420,1,0,0:0:0:0:
320,192,53570,1,0,0:0:0:0:
448,192,53720,1,0,0:0:0:0:
64,192,53720,1,0,0:0:0:0:
192,192,53870,1,0,0:0:0:0:
64,192,54020,1,0,0:0:0:0:
448,192,54170,1,0,0:0:0:0:
320,192,54320,1,0,0:0:0:0:
192,192,54470,1,0,0:0:0:0:
64,192,54620,1,0,0:0:0:0:
320,192,54770,1,0,0:0:0:0:
448,192,54920,1,0,0:0:0:0:
64,192,55070,1,0,0:0:0:0:
192,192,55220,1,0,0:0:0:0:
320,192,55220,1,0,0:0:0:0:
448,192,55370,1,0,0:0:0:0:
320,192,55520,1,0,0:0:0:0:
64,192,55670,1,0,0:0:0:0:
192,192,55820,1,0,0:0:0:0:
448,192,55970,1,0,0:0:0:0:
320,192,56120,1,0,0:0:0:0:
192,192,56120,1,0,0:0:0:0:
64,192,56270,1,0,0:0:0:0:
192,192,56420,1,0,0:0:0:0:
448,192,56570,1,0,0:0:0:0:
320,192,56720,1,0,0:0:0:0:
192,192,56870,1,0,0:0:0:0:
64,192,57020,1,0,0:0:0:0:
448,192,57020,1,0,0:0:0:0:
192,192,57320,1,0,0:0:0:0:
320,192,57320,1,0,0:0:0:0:
64,192,57620,1,0,0:0:0:0:
448,192,57620,1,0,0:0:0:0:
320,192,57920,1,0,0:0:0:0:
192,192,58220,1,8,0:0:0:0:
448,192,58520,1,0,0:0:0:0:
64,192,58820,1,8,0:0:0:0:
192,192,59120,1,0,0:0:0:0:
320,192,59120,1,0,0:0:0:0:
448,192,59420,1,8,0:0:0:0:
64,192,59720,1,0,0:0:0:0:
192,192,59870,1,0,0:0:0:0:
320,192,60020,1,8,0:0:0:0:
448,192,60020,1,0,0:0:0:0:
64,192,60320,1,0,0:0:0:0:
448,192,60620,1,8,0:0:0:0:
192,192,60920,1,0,0:0:0:0:
320,192,61220,1,8,0:0:0:0:
192,192,61370,1,0,0:0:0:0:
64,192,61520,1,0,0:0:0:0:
448,192,61520,1,0,0:0:0:0:
64,192,61820,1,0,0:0:0:0:
192,192,61820,1,0,0:0:0:0:
320,192,61970,1,0,0:0:0:0:
448,192,62120,1,0,0:0:0:0:
320,192,62270,1,0,0:0:0:0:
64,192,62420,1,0,0:0:0:0:
192,192,62420,1,8,0:0:0:0:
448,192,62720,1,0,0:0:0:0:
192,192,63020,1,8,0:0:0:0:
320,192,63320,1,0,0:0:0:0:
64,192,63620,1,8,0:0:0:0:
320,192,63920,1,0,0:0:0:0:
448,192,63920,1,0,0:0:0:0:
192,192,64220,1,8,0:0:0:0:
64,192,64520,1,0,0:0:0:0:
192,192,64670,1,0,0:0:0:0:
320,192,64820,1,8,0:0:0:0:
448,192,64820,1,0,0:0:0:0:
192,192,65120,1,0,0:0:0:0:
64,192,65420,1,8,0:0:0:0:
320,192,65720,1,0,0:0:0:0:
448,192,66020,1,0,0:0:0:0:
192,192,66320,1,0,0:0:0:0:
64,192,66620,1,0,0:0:0:0:
448,192,66620,1,0,0:0:0:0:
320,192,66920,1,0,0:0:0:0:
192,192,67070,1,0,0:0:0:0:
64,192,67220,1,0,0:0:0:0:
448,192,67220,1,0,0:0:0:0:
192,192,67370,1,0,0:0:0:0:
320,192,67520,1,0,0:0:0:0:
64,192,67670,1,0,0:0:0:0:
320,192,67820,1,8,0:0:0:0:
192,192,67970,1,0,0:0:0:0:
448,192,68120,1,0,0:0:0:0:
320,192,68270,1,0,0:0:0:0:
64,192,68420,1,8,0:0:0:0:
192,192,68570,1,0,0:0:0:0:
448,192,68720,1,0,0:0:0:0:
64,192,68720,1,0,0:0:0:0:
320,192,68870,1,0,0:0:0:0:
192,192,69020,1,0,0:0:0:0:
64,192,69170,1,0,0:0:0:0:
448,192,69320,1,0,0:0:0:0:
320,192,69470,1,0,0:0:0:0:
64,192,69620,1,0,0:0:0:0:
448,192,69620,1,0,0:0:0:0:
320,192,69770,1,0,0:0:0:0:
192,192,69920,1,0,0:0:0:0:
448,192,70070,1,0,0:0:0:0:
192,192,70220,1,8,0:0:0:0:
320,192,70370,1,0,0:0:0:0:
64,192,70520,1,0,0:0:0:0:
192,192,70670,1,0,0:0:0:0:
448,192,70820,1,8,0:0:0:0:
320,192,70970,1,0,0:0:0:0:
64,192,71120,1,0,0:0:0:0:
192,192,71120,1,0,0:0:0:0:
320,192,71270,1,0,0:0:0:0:
448,192,71420,1,0,0:0:0:0:
64,192,71420,1,0,0:0:0:0:
192,192,71570,1,0,0:0:0:0:
320,192,71720,1,0,0:0:0:0:
192,192,71870,1,0,0:0:0:0:
64,192,72020,1,0,0:0:0:0:
448,192,72020,1,0,0:0:0:0:
320,192,72170,1,0,0:0:0:0:
192,192,72320,1,0,0:0:0:0:
448,192,72470,1,0,0:0:0:0:
192,192,72620,1,8,0:0:0:0:
320,192,72770,1,0,0:0:0:0:
64,192,72920,1,0,0:0:0:0:
192,192,73070,1,0,0:0:0:0:
448,192,73220,1,8,0:0:0:0:
320,192,73370,1,0,0:0:0:0:
64,192,73520,1,0,0:0:0:0:
448,192,73520,1,0,0:0:0:0:
192,192,73670,1,0,0:0:0:0:
320,192,73820,1,0,0:0:0:0:
448,192,73970,1,0,0:0:0:0:
64,192,74120,1,0,0:0:0:0:
192,192,74270,1,0,0:0:0:0:
320,192,74420,1,0,0:0:0:0:
448,192,74420,1,0,0:0:0:0:
192,192,74570,1,0,0:0:0:0:
64,192,74720,1,0,0:0:0:0:
448,192,74720,1,0,0:0:0:0:
320,192,74870,1,0,0:0:0:0:
192,192,75020,1,0,0:0:0:0:
64,192,75020,1,0,0:0:0:0:
320,192,75170,1,0,0:0:0:0:
448,192,75320,1,0,0:0:0:0:
192,192,75320,1,0,0:0:0:0:
64,192,75470,1,0,0:0:0:0:
192,192,75620,1,0,0:0:0:0:
320,192,75620,1,0,0:0:0:0:
448,192,75770,1,0,0:0:0:0:
64,192,75920,1,0,0:0:0:0:
192,192,75920,1,0,0:0:0:0:
320,192,76070,1,0,0:0:0:0:
448,192,76220,1,0,0:0:0:0:
64,192,76220,1,0,0:0:0:0:
64,192,76520,1,0,0:0:0:0:
192,192,76670,1,0,0:0:0:0:
448,192,76820,1,0,0:0:0:0:
320,192,76820,1,0,0:0:0:0:
448,192,77120,1,0,0:0:0:0:
320,192,77270,1,0,0:0:0:0:
64,192,77420,1,0,0:0:0:0:
192,192,77420,1,0,0:0:0:0:
320,192,77720,1,0,0:0:0:0:
64,192,78020,1,0,0:0:0:0:
448,192,78320,1,0,0:0:0:0:
192,192,78320,1,0,0:0:0:0:
64,192,78620,1,0,0:0:0:0:
320,192,78620,1,0,0:0:0:0:
192,192,78920,1,0,0:0:0:0:
320,192,79220,1,0,0:0:0:0:
448,192,79220,1,0,0:0:0:0:
192,192,79520,1,0,0:0:0:0:
320,192,79670,1,0,0:0:0:0:
64,192,79820,1,0,0:0:0:0:
448,192,79820,1,0,0:0:0:0:
192,192,80120,1,0,0:0:0:0:
320,192,80120,1,0,0:0:0:0:
64,192,80420,1,0,0:0:0:0:
320,192,80720,1,0,0:0:0:0:
448,192,80720,1,0,0:0:0:0:
192,192,81020,1,0,0:0:0:0:
64,192,81020,1,0,0:0:0:0:
320,192,81170,1,0,0:0:0:0:
448,192,81320,1,0,0:0:0:0:
192,192,81620,1,0,0:0:0:0:
64,192,81620,1,0,0:0:0:0:
320,192,81920,1,0,0:0:0:0:
192,192,82070,1,0,0:0:0:0:
64,192,82220,1,0,0:0:0:0:
448,192,82220,1,0,0:0:0:0:
192,192,82520,1,0,0:0:0:0:
320,192,82820,1,0,0:0:0:0:
448,192,83120,1,0,0:0:0:0:
64,192,83120,1,0,0:0:0:0:
192,192,83420,1,0,0:0:0:0:
320,192,83420,1,0,0:0:0:0:
448,192,83720,1,0,0:0:0:0:
64,192,84020,1,0,0:0:0:0:
320,192,84020,1,0,0:0:0:0:
192,192,84320,1,0,0:0:0:0:
320,192,84470,1,0,0:0:0:0:
448,192,84620,1,0,0:0:0:0:
64,192,84620,1,0,0:0:0:0:
64,192,84920,1,0,0:0:0:0:
320,192,84920,1,0,0:0:0:0:
448,192,85220,1,0,0:0:0:0:
64,192,85520,1,0,0:0:0:0:
192,192,85520,1,0,0:0:0:0:
320,192,85820,1,0,0:0:0:0:
448,192,85820,1,0,0:0:0:0:
64,192,86120,1,0,0:0:0:0:
192,192,86420,1,0,0:0:0:0:
320,192,86420,1,0,0:0:0:0:
64,192,86720,1,0,0:0:0:0:
192,192,86870,1,0,0:0:0:0:
64,192,87020,1,0,0:0:0:0:
192,192,87320,1,0,0:0:0:0:
320,192,87320,1,0,0:0:0:0:
448,192,87620,1,0,0:0:0:0:
320,192,87770,1,0,0:0:0:0:
448,192,87920,1,0,0:0:0:0:
192,192,88220,1,0,0:0:0:0:
64,192,88520,1,0,0:0:0:0:
192,192,88670,1,0,0:0:0:0:
320,192,88820,1,0,0:0:0:0:
448,192,88820,1,0,0:0:0:0:
192,192,89120,1,0,0:0:0:0:
64,192,89270,1,0,0:0:0:0:
192,192,89420,1,0,0:0:0:0:
64,192,89720,1,0,0:0:0:0:
448,192,89720,1,0,0:0:0:0:
320,192,90020,1,0,0:0:0:0:
448,192,90170,1,0,0:0:0:0:
320,192,90320,1,0,0:0:0:0:
192,192,90620,1,0,0:0:0:0:
448,192,90920,1,0,0:0:0:0:
320,192,91070,1,0,0:0:0:0:
192,192,91220,1,0,0:0:0:0:
64,192,91220,1,0,0:0:0:0:
320,192,91520,1,0,0:0:0:0:
192,192,91670,1,0,0:0:0:0:
320,192,91820,1,0,0:0:0:0:
64,192,92120,1,0,0:0:0:0:
448,192,92120,1,0,0:0:0:0:
192,192,92420,1,0,0:0:0:0:
320,192,92570,1,0,0:0:0:0:
192,192,92720,1,0,0:0:0:0:
320,192,93020,1,0,0:0:0:0:
64,192,93320,1,0,0:0:0:0:
192,192,93470,1,0,0:0:0:0:
320,192,93620,1,0,0:0:0:0:
448,192,93620,1,0,0:0:0:0:
192,192,93920,1,0,0:0:0:0:
320,192,94070,1,0,0:0:0:0:
192,192,94220,1,0,0:0:0:0:
448,192,94520,1,0,0:0:0:0:
64,192,94520,1,0,0:0:0:0:
320,192,94820,1,0,0:0:0:0:
192,192,94970,1,0,0:0:0:0:
320,192,95120,1,0,0:0:0:0:
64,192,95420,1,0,0:0:0:0:
448,192,95420,1,0,0:0:0:0:
192,192,95720,1,0,0:0:0:0:
320,192,95720,1,0,0:0:0:0:
64,192,96020,1,0,0:0:0:0:
448,192,96020,1,0,0:0:0:0:
192,192,96170,1,0,0:0:0:0:
448,192,96320,1,0,0:0:0:0:
320,192,96470,1,0,0:0:0:0:
64,192,96620,1,0,0:0:0:0:
192,192,96620,1,0,0:0:0:0:
320,192,96770,1,0,0:0:0:0:
192,192,96920,1,0,0:0:0:0:
64,192,96920,1,0,0:0:0:0:
448,192,97070,1,0,0:0:0:0:
320,192,97220,1,0,0:0:0:0:
192,192,97370,1,0,0:0:0:0:
64,192,97520,1,0,0:0:0:0:
448,192,97520,1,0,0:0:0:0:
320,192,97670,1,0,0:0:0:0:
64,192,97820,1,0,0:0:0:0:
448,192,97820,1,0,0:0:0:0:
192,192,97970,1,0,0:0:0:0:
448,192,98120,1,0,0:0:0:0:
320,192,98270,1,0,0:0:0:0:
64,192,98420,1,0,0:0:0:0:
192,192,98420,1,0,0:0:0:0:
448,192,98570,1,0,0:0:0:0:
320,192,98720,1,0,0:0:0:0:
192,192,98870,1,0,0:0:0:0:
320,192,99020,1,0,0:0:0:0:
448,192,99020,1,0,0:0:0:0:
192,192,99170,1,0,0:0:0:0:
320,192,99320,1,0,0:0:0:0:
448,192,99320,1,0,0:0:0:0:
64,192,99470,1,0,0:0:0:0:
192,192,99620,1,0,0:0:0:0:
320,192,99770,1,0,0:0:0:0:
448,192,99920,1,0,0:0:0:0:
64,192,99920,1,0,0:0:0:0:
192,192,100070,1,0,0:0:0:0:
64,192,100220,1,0,0:0:0:0:
448,192,100220,1,0,0:0:0:0:
320,192,100370,1,0,0:0:0:0:
64,192,100520,1,0,0:0:0:0:
192,192,100670,1,0,0:0:0:0:
448,192,100820,1,0,0:0:0:0:
320,192,100820,1,0,0:0:0:0:
64,192,100970,1,0,0:0:0:0:
192,192,101120,1,0,0:0:0:0:
448,192,101270,1,0,0:0:0:0:
320,192,101420,1,0,0:0:0:0:
64,192,101420,1,0,0:0:0:0:
192,192,101570,1,0,0:0:0:0:
64,192,101720,1,0,0:0:0:0:
320,192,101720,1,0,0:0:0:0:
448,192,101870,1,0,0:0:0:0:
320,192,102020,1,0,0:0:0:0:
64,192,102170,1,0,0:0:0:0:
192,192,102320,1,0,0:0:0:0:
448,192,102320,1,0,0:0:0:0:
320,192,102470,1,0,0:0:0:0:
192,192,102620,1,0,0:0:0:0:
448,192,102620,1,0,0:0:0:0:
64,192,102770,1,0,0:0:0:0:
192,192,102920,1,0,0:0:0:0:
320,192,103070,1,0,0:0:0:0:
64,192,103220,1,0,0:0:0:0:
448,192,103220,1,0,0:0:0:0:
192,192,103370,1,0,0:0:0:0:
320,192,103520,1,0,0:0:0:0:
448,192,103520,1,0,0:0:0:0:
64,192,103670,1,0,0:0:0:0:
192,192,103820,1,0,0:0:0:0:
320,192,103820,1,0,0:0:0:0:
448,192,103970,1,0,0:0:0:0:
64,192,104120,1,0,0:0:0:0:
320,192,104120,1,0,0:0:0:0:
192,192,104270,1,0,0:0:0:0:
64,192,104420,1,0,0:0:0:0:
448,192,104420,1,0,0:0:0:0:
320,192,104570,1,0,0:0:0:0:
192,192,104720,1,0,0:0:0:0:
64,192,104720,1,0,0:0:0:0:
320,192,104870,1,0,0:0:0:0:
448,192,105020,1,0,0:0:0:0:
192,192,105020,1,0,0:0:0:0:
