osu file format v14

[General]
AudioFilename: audio.mp3
AudioLeadIn: 0
PreviewTime: 70018
Countdown: 0
SampleSet: None
StackLeniency: 0.7
Mode: 0
LetterboxInBreaks: 0
WidescreenStoryboard: 1

[Editor]
DistanceSpacing: 1.4
BeatDivisor: 4
GridSize: 4
TimelineZoom: 1

[Metadata]
Title:I Tether
TitleUnicode:I Tether
Artist:Wicca Phase Springs Eternal
ArtistUnicode:Wicca Phase Springs Eternal
Creator:- titan
Version:Normal
Source:
Tags:gothboiclique gbc jayyeah mike xanax yeah it's true alternative rock emo goth rap hip hop
BeatmapID:1632380
BeatmapSetID:776952

[Difficulty]
HPDrainRate:4.5
CircleSize:3
OverallDifficulty:5
ApproachRate:5
SliderMultiplier:1.3
SliderTickRate:2

[Events]
//Background and Video events
0,0,"tether.jpg",0,0
//Break Periods
//Storyboard Layer 0 (Background)
//Storyboard Layer 1 (Fail)
//Storyboard Layer 2 (Pass)
//Storyboard Layer 3 (Foreground)
//Storyboard Sound Samples

[TimingPoints]
200,545.454545454546,4,2,0,50,1,0
35109,-100,4,2,0,50,0,0
52563,-90.9090909090909,4,2,0,50,0,0
70018,-76.9230769230769,4,2,0,70,0,1
72200,-76.9230769230769,4,2,0,50,0,0
74381,-76.9230769230769,4,2,0,70,0,1
77109,-76.9230769230769,4,2,0,50,0,0
78745,-76.9230769230769,4,2,0,70,0,1
87472,-100,4,2,0,40,0,0

[Colours]
Combo1 : 109,109,61
Combo2 : 109,61,73

[HitObjects]
24,232,35109,6,0,P|84:220|144:252,1,130,0|0,1:0|0:0,0:0:0:0:
204,320,35927,1,0,1:0:0:0:
204,320,36200,2,0,B|284:308|252:336|336:324,1,130,8|0,0:0|0:0,0:0:0:0:
404,156,37290,6,0,L|400:92,2,65,0|0|0,0:0|1:0|1:0,0:0:0:0:
340,220,38109,1,0,0:0:0:0:
340,220,38382,2,0,B|260:208|292:236|208:224,1,130,8|0,0:0|1:0,0:0:0:0:
128,64,39472,6,0,P|68:52|8:84,1,130,0|0,1:0|0:0,0:0:0:0:
72,252,40563,2,0,P|128:282|190:270,1,130,8|0,0:0|1:0,0:0:0:0:
324,144,41654,6,0,L|388:148,2,65,0|0|0,0:0|1:0|1:0,0:0:0:0:
168,240,42745,2,0,B|156:320|184:288|172:372,1,130,8|0,0:0|0:0,0:0:0:0:
8,288,43836,6,0,P|-4:228|28:168,1,130,0|0,1:0|0:0,0:0:0:0:
116,188,44654,1,0,1:0:0:0:
116,188,44927,2,0,B|196:176|164:204|248:192,1,130,8|0,0:0|0:0,0:0:0:0:
412,116,46018,5,0,0:0:0:0:
412,116,46290,2,0,L|448:120,2,32.5,0|0|0,1:0|1:0|1:0,0:0:0:0:
236,156,47109,2,0,B|248:236|220:204|232:288,1,130,8|0,0:0|0:0,0:0:0:0:
404,340,48200,6,0,P|416:280|384:220,1,130,0|0,1:0|0:0,0:0:0:0:
220,200,49291,2,0,P|190:256|202:318,1,130,8|0,0:0|1:0,0:0:0:0:
376,372,50381,6,0,L|440:368,2,65,0|0|0,0:0|0:0|1:0,0:0:0:0:
252,236,51472,2,0,B|240:156|268:188|256:104,1,130,8|0,0:0|0:0,0:0:0:0:
180,60,52290,1,8,0:0:0:0:
180,60,52563,6,0,P|108:68|32:68,1,143.000004364014,0|0,1:0|0:0,0:0:0:0:
68,164,53381,1,0,1:0:0:0:
8,244,53654,2,0,P|20:312|80:360,1,143.000004364014,8|0,0:0|0:0,0:0:0:0:
256,272,54745,6,0,L|328:276,1,71.5000021820069,0|0,0:0|1:0,0:0:0:0:
360,372,55290,2,0,P|372:304|432:256,1,143.000004364014,0|8,1:0|0:0,0:0:0:0:
336,80,56381,1,0,0:0:0:0:
196,224,56927,6,0,P|124:232|48:232,1,143.000004364014,0|0,1:0|0:0,0:0:0:0:
0,144,57745,1,0,0:0:0:0:
68,68,58018,2,0,P|136:56|184:-4,1,143.000004364014,8|0,0:0|1:0,0:0:0:0:
376,56,59109,6,0,L|448:60,1,71.5000021820069
500,144,59654,1,0,0:0:0:0:
372,296,60200,2,0,P|304:308|256:368,1,143.000004364014,8|0,0:0|0:0,0:0:0:0:
68,304,61290,6,0,P|76:232|76:156,1,143.000004364014,0|0,1:0|0:0,0:0:0:0:
44,68,62108,1,0,1:0:0:0:
144,88,62381,2,0,P|212:76|260:16,1,143.000004364014,8|0,0:0|0:0,0:0:0:0:
384,176,63472,6,0,L|456:180,1,71.5000021820069,0|0,0:0|1:0,0:0:0:0:
508,268,64017,2,0,P|496:336|436:384,1,143.000004364014,0|8,1:0|0:0,0:0:0:0:
256,308,65108,1,0,0:0:0:0:
68,376,65654,6,0,P|60:304|60:228,1,143.000004364014,0|0,1:0|0:0,0:0:0:0:
120,156,66472,1,0,0:0:0:0:
216,192,66745,2,0,L|288:188,2,71.5000021820069,8|0|0,0:0|1:0|1:0,0:0:0:0:
104,360,67836,6,0,L|176:364,1,71.5000021820069
264,316,68381,1,0,0:0:0:0:
200,124,68927,2,0,B|188:92|188:92|192:52|220:28,2,107.25000327301,8|0|8,0:0|1:0|0:0,0:0:0:0:
296,192,70018,6,0,P|384:180|456:232,1,168.999992263794,0|0,1:0|0:0,0:0:0:0:
356,292,70836,1,0,1:0:0:0:
280,384,71109,6,0,L|196:380,1,84.4999961318971,8|0,0:0|0:0,0:0:0:0:
96,320,71654,2,0,L|12:316,2,84.4999961318971
96,320,74381,6,0,P|184:332|256:280,1,168.999992263794,0|0,1:0|0:0,0:0:0:0:
156,216,75199,1,0,0:0:0:0:
204,108,75472,6,0,L|288:104,1,84.4999961318971,8|0,0:0|0:0,0:0:0:0:
396,148,76017,2,0,L|480:152,1,84.4999961318971,0|0,1:0|0:0,0:0:0:0:
436,264,76563,6,0,B|332:280|372:240|268:260,1,168.999992263794
269,259,78745,6,0,P|181:247|109:299,1,168.999992263794,0|0,1:0|0:0,0:0:0:0:
8,244,79563,1,0,1:0:0:0:
52,132,79836,6,0,B|156:148|116:108|220:128,1,168.999992263794,8|0,0:0|0:0,0:0:0:0:
292,220,80654,1,0,0:0:0:0:
388,152,80927,6,0,L|472:156,1,84.4999961318971,0|0,0:0|1:0,0:0:0:0:
408,256,81472,2,0,L|324:260,1,84.4999961318971,0|0,1:0|0:0,0:0:0:0:
208,232,82018,6,0,B|104:216|144:256|40:236,1,168.999992263794,8|0,0:0|0:0,0:0:0:0:
84,128,82836,1,0,0:0:0:0:
192,84,83109,6,0,P|280:96|352:44,1,168.999992263794,0|0,1:0|0:0,0:0:0:0:
452,108,83927,1,0,0:0:0:0:
400,216,84200,6,0,L|404:300,1,84.4999961318971,8|0,0:0|1:0,0:0:0:0:
304,360,84745,2,0,L|220:356,1,84.4999961318971,0|0,1:0|0:0,0:0:0:0:
136,272,85290,6,0,B|152:168|112:208|132:104,1,168.999992263794
232,40,86109,1,0,0:0:0:0:
304,132,86381,2,0,B|344:144|344:144|388:136|416:104,2,126.749994197846,8|0|0,0:0|1:0|1:0,0:0:0:0:
232,40,87472,6,0,P|184:44|128:44,1,97.5
