osu file format v14

[General]
AudioFilename: audio.mp3
AudioLeadIn: 0
PreviewTime: -1
Countdown: 1
SampleSet: Normal
StackLeniency: 0.7
Mode: 0
LetterboxInBreaks: 0
WidescreenStoryboard: 0

[Editor]
DistanceSpacing: 3
BeatDivisor: 4
GridSize: 16
TimelineZoom: 1

[Metadata]
Title:These Few Presidents
TitleUnicode:These Few Presidents
Artist:Why?
ArtistUnicode:Why?
Creator:Kagam1neR1n
Version:?
Source:
Tags:
BeatmapID:1417766
BeatmapSetID:670357

[Difficulty]
HPDrainRate:5.7
CircleSize:3
OverallDifficulty:6.7
ApproachRate:7.3
SliderMultiplier:1.4
SliderTickRate:1

[Events]
//Background and Video events
0,0,"anime-scenery-rain-wallpapers-hd-resolution.jpg",0,0
//Break Periods
//Storyboard Layer 0 (Background)
//Storyboard Layer 1 (Fail)
//Storyboard Layer 2 (Pass)
//Storyboard Layer 3 (Foreground)
//Storyboard Sound Samples

[TimingPoints]
0,461.538461538462,4,1,0,45,1,0
57230,-100,4,1,0,45,0,1
86461,-100,4,1,0,45,0,0
121500,-50,4,1,0,45,0,0
123000,-100,4,1,0,45,0,0
133846,-100,4,1,0,45,0,1
163076,-100,4,1,0,45,0,0
181230,-100,4,1,0,5,0,0
182076,-66.6666666666667,4,1,0,5,0,0
183115,-50,4,1,0,15,0,0

[HitObjects]
96,160,0,5,0,0:0:0:0:
224,88,461,1,8,0:0:0:0:
392,184,923,1,0,0:0:0:0:
392,184,1153,1,0,0:0:0:0:
208,80,1384,1,8,0:0:0:0:
176,312,1846,6,0,P|208:288|224:256,1,70
232,224,2192,1,0,0:0:0:0:
240,192,2307,1,8,0:0:0:0:
280,32,2538,1,0,0:0:0:0:
336,200,2769,1,8,0:0:0:0:
248,56,3000,1,0,0:0:0:0:
376,168,3230,1,8,0:0:0:0:
232,104,3461,1,0,0:0:0:0:
224,144,3576,2,8,P|224:192|232:208,1,35
304,296,3923,5,0,0:0:0:0:
384,136,4153,1,8,0:0:0:0:
208,144,4384,1,0,0:0:0:0:
352,272,4615,1,8,0:0:0:0:
336,80,4846,1,0,0:0:0:0:
208,216,5076,1,8,0:0:0:0:
368,176,5307,5,0,0:0:0:0:
320,160,5423,1,0,0:0:0:0:
280,176,5538,6,8,B|288:192|296:208|296:224|288:240|280:264,1,70
232,328,6000,1,8,0:0:0:0:
112,192,6230,1,0,0:0:0:0:
192,40,6461,1,8,0:0:0:0:
88,184,6692,1,0,0:0:0:0:
232,272,6923,1,8,0:0:0:0:
160,128,7153,1,0,0:0:0:0:
160,128,7269,2,4,B|192:96|208:88|232:88|272:96,1,105
352,160,7846,5,8,0:0:0:0:
344,24,8076,1,0,0:0:0:0:
360,192,8307,1,8,0:0:0:0:
224,32,8538,1,0,0:0:0:0:
304,136,8769,1,8,0:0:0:0:
272,72,9000,1,0,0:0:0:0:
264,112,9115,1,0,0:0:0:0:
304,136,9230,6,8,B|352:120|400:128|432:152,1,105
368,200,9692,1,8,0:0:0:0:
208,272,9923,1,0,0:0:0:0:
392,304,10153,1,8,0:0:0:0:
264,160,10384,1,0,0:0:0:0:
288,360,10615,1,8,0:0:0:0:
280,264,10846,1,0,0:0:0:0:
272,232,10961,6,8,P|272:184|280:176,1,35
280,32,11307,1,0,0:0:0:0:
176,120,11538,1,8,0:0:0:0:
272,240,11769,1,0,0:0:0:0:
280,32,12000,1,8,0:0:0:0:
176,120,12230,1,0,0:0:0:0:
272,264,12461,1,8,0:0:0:0:
160,160,12692,1,0,0:0:0:0:
240,280,12923,6,8,P|208:256|144:256,1,105
176,344,13384,1,8,0:0:0:0:
240,280,13615,1,0,0:0:0:0:
176,344,13846,1,8,0:0:0:0:
240,256,14076,1,0,0:0:0:0:
176,320,14307,1,8,0:0:0:0:
432,144,14538,1,0,0:0:0:0:
384,240,14769,6,8,B|424:216|432:192|432:160,1,70
440,144,15230,1,8,0:0:0:0:
288,64,15461,1,0,0:0:0:0:
168,112,15692,1,8,0:0:0:0:
288,192,15923,1,0,0:0:0:0:
288,64,16153,1,8,0:0:0:0:
168,112,16384,1,0,0:0:0:0:
184,272,16615,6,4,P|192:224|208:192,1,70
272,336,17076,1,8,0:0:0:0:
176,208,17307,2,4,P|200:160|240:136,1,70
248,344,17769,1,0,0:0:0:0:
272,224,18000,1,8,0:0:0:0:
152,208,18230,1,0,0:0:0:0:
296,352,18461,1,8,0:0:0:0:
256,208,18692,1,0,0:0:0:0:
120,256,18923,5,8,0:0:0:0:
184,32,19153,2,2,L|168:80,1,35
280,72,19384,2,8,L|264:120,1,35
152,112,19615,2,0,L|168:80,1,35,2|0,0:0|0:0,0:0:0:0:
240,160,19846,2,8,L|264:112,1,35
328,208,20076,1,0,0:0:0:0:
416,272,20307,1,8,0:0:0:0:
408,240,20423,6,0,P|400:192|408:152,1,70
416,128,20769,2,8,P|384:160|344:176,1,70
328,80,21230,1,8,0:0:0:0:
272,200,21461,1,0,0:0:0:0:
104,304,21692,6,8,P|128:264|128:224,1,70
112,88,22153,1,8,0:0:0:0:
216,200,22384,1,0,0:0:0:0:
272,56,22615,1,8,0:0:0:0:
112,120,22846,1,0,0:0:0:0:
264,176,23076,1,8,0:0:0:0:
240,24,23307,1,0,0:0:0:0:
248,192,23538,1,8,0:0:0:0:
288,32,23769,1,0,0:0:0:0:
416,112,24000,6,4,P|384:128|344:200,1,105
320,128,24461,1,8,0:0:0:0:
448,208,24692,1,0,0:0:0:0:
320,280,24923,1,8,0:0:0:0:
400,88,25153,1,0,0:0:0:0:
304,168,25384,1,8,0:0:0:0:
336,0,25615,1,0,0:0:0:0:
192,72,25846,6,4,P|184:128|160:160,1,70
120,224,26307,1,8,0:0:0:0:
96,80,26538,1,0,0:0:0:0:
288,232,26769,1,8,0:0:0:0:
120,192,27000,1,0,0:0:0:0:
128,32,27230,1,8,0:0:0:0:
248,272,27461,1,0,0:0:0:0:
136,144,27692,5,8,0:0:0:0:
288,96,27923,2,2,P|320:128|344:136,2,70
368,40,28615,1,8,0:0:0:0:
280,112,28846,2,2,P|312:144|336:152,2,70
368,56,29538,1,8,0:0:0:0:
384,240,29769,2,0,L|400:208,1,35
416,160,30000,2,4,P|384:192|360:208,1,70
216,256,30461,5,8,0:0:0:0:
392,240,30692,1,0,0:0:0:0:
208,256,30923,1,8,0:0:0:0:
400,232,31153,1,0,0:0:0:0:
264,176,31384,2,8,P|208:160|168:176,1,70
128,40,31846,1,8,0:0:0:0:
64,224,32076,1,0,0:0:0:0:
64,224,32192,1,0,0:0:0:0:
64,224,32307,1,4,0:0:0:0:
240,296,32538,5,0,0:0:0:0:
64,208,32769,1,8,0:0:0:0:
112,32,33000,1,0,0:0:0:0:
200,280,33230,1,8,0:0:0:0:
72,160,33461,1,0,0:0:0:0:
160,24,33692,1,8,0:0:0:0:
101,165,33923,5,0,0:0:0:0:
175,51,34154,1,8,0:0:0:0:
159,175,34384,1,0,0:0:0:0:
205,104,34615,1,8,0:0:0:0:
248,184,34846,1,0,0:0:0:0:
280,272,35076,6,8,P|288:312|312:344,1,70
368,272,35538,1,8,0:0:0:0:
264,192,35769,1,0,0:0:0:0:
200,312,36000,1,8,0:0:0:0:
384,176,36230,1,0,0:0:0:0:
384,176,36346,1,0,0:0:0:0:
384,176,36461,1,2,0:0:0:0:
344,96,36692,6,8,P|304:128|288:160,1,70
384,184,37153,1,0,0:0:0:0:
344,96,37384,1,8,0:0:0:0:
360,216,37615,1,0,0:0:0:0:
384,104,37846,1,8,0:0:0:0:
312,224,38076,1,0,0:0:0:0:
416,344,38307,1,8,0:0:0:0:
288,248,38538,5,0,0:0:0:0:
176,352,38769,1,8,0:0:0:0:
80,240,39000,2,8,P|72:192|80:160,1,70
136,32,39461,1,0,0:0:0:0:
192,224,39692,1,8,0:0:0:0:
216,48,39923,1,0,0:0:0:0:
152,192,40153,1,8,0:0:0:0:
224,80,40384,1,0,0:0:0:0:
176,128,40615,5,0,0:0:0:0:
176,128,40730,1,0,0:0:0:0:
176,128,40846,1,2,0:0:0:0:
232,200,41076,1,8,0:0:0:0:
144,48,41307,1,0,0:0:0:0:
296,184,41538,1,8,0:0:0:0:
120,72,41769,1,0,0:0:0:0:
280,248,42000,1,8,0:0:0:0:
112,16,42230,1,0,0:0:0:0:
200,88,42461,6,8,P|224:128|256:152,1,70
328,208,42923,1,8,0:0:0:0:
296,64,43153,1,0,0:0:0:0:
288,248,43384,1,8,0:0:0:0:
264,40,43615,1,0,0:0:0:0:
240,248,43846,1,8,0:0:0:0:
64,240,44076,1,0,0:0:0:0:
256,200,44307,1,8,0:0:0:0:
216,32,44538,1,0,0:0:0:0:
152,96,44769,6,8,P|120:120|104:160,1,70
256,288,45230,2,8,P|208:304|176:296,1,70
96,248,45692,5,0,0:0:0:0:
96,248,45807,1,0,0:0:0:0:
96,248,45923,1,2,0:0:0:0:
256,136,46153,1,0,0:0:0:0:
432,152,46384,1,0,0:0:0:0:
336,264,46615,1,0,0:0:0:0:
168,264,46846,1,0,0:0:0:0:
280,128,47076,1,0,0:0:0:0:
432,200,47307,1,0,0:0:0:0:
312,296,47538,1,0,0:0:0:0:
176,96,47769,6,0,P|152:56|120:40,1,70
160,224,48230,1,0,0:0:0:0:
72,144,48461,1,0,0:0:0:0:
200,104,48692,1,0,0:0:0:0:
112,32,48923,1,0,0:0:0:0:
112,120,49153,1,0,0:0:0:0:
176,56,49384,1,0,0:0:0:0:
64,48,49615,1,0,0:0:0:0:
192,176,49846,6,0,P|248:128|320:128,1,140
280,216,50538,1,0,0:0:0:0:
400,152,50769,1,0,0:0:0:0:
224,184,51000,1,0,0:0:0:0:
352,128,51230,1,0,0:0:0:0:
160,176,51461,1,0,0:0:0:0:
280,56,51692,1,0,0:0:0:0:
184,32,51923,6,0,L|112:80,1,70
224,136,52384,2,0,L|144:200,1,70
48,128,52846,1,0,0:0:0:0:
96,248,53076,1,0,0:0:0:0:
48,128,53307,1,0,0:0:0:0:
96,248,53537,1,0,0:0:0:0:
176,152,53769,2,0,P|168:104|168:72,1,70
288,232,54230,1,0,0:0:0:0:
152,112,54461,2,0,P|168:72|200:48,1,70
256,192,54923,5,0,0:0:0:0:
320,248,55153,1,0,0:0:0:0:
256,152,55384,1,0,0:0:0:0:
200,48,55615,1,0,0:0:0:0:
240,168,55846,1,0,0:0:0:0:
200,304,56076,1,0,0:0:0:0:
208,112,56307,1,0,0:0:0:0:
80,80,56538,1,0,0:0:0:0:
32,224,56769,1,0,0:0:0:0:
112,336,57000,1,0,0:0:0:0:
368,144,57230,6,0,L|320:120,4,46.6666666666667
376,304,58000,2,0,L|368:248,5,46.6666666666667
240,208,58923,1,0,0:0:0:0:
296,360,59076,1,0,0:0:0:0:
184,272,59230,6,0,L|232:312,1,46.6666666666667
72,304,59538,2,0,L|152:320,1,46.6666666666667
192,288,59846,6,0,L|240:328,1,46.6666666666667
72,320,60154,2,0,L|152:336,1,46.6666666666667
160,376,60461,5,0,0:0:0:0:
88,328,60615,1,0,0:0:0:0:
120,352,60769,1,0,0:0:0:0:
168,152,60923,6,0,L|104:96,5,46.6666666666667
344,184,61846,2,0,L|272:176,5,46.6666666666667
368,100,62769,5,0,0:0:0:0:
298,114,62923,1,0,0:0:0:0:
333,114,63076,1,0,0:0:0:0:
256,93,63230,1,0,0:0:0:0:
340,74,63384,5,0,0:0:0:0:
276,106,63538,1,0,0:0:0:0:
310,97,63691,1,0,0:0:0:0:
230,96,63845,1,0,0:0:0:0:
306,56,64000,5,0,0:0:0:0:
253,103,64154,1,0,0:0:0:0:
284,85,64307,1,0,0:0:0:0:
206,106,64461,1,0,0:0:0:0:
216,0,64615,5,0,0:0:0:0:
360,232,64769,2,0,L|320:272,1,46.6666666666667
288,280,65076,1,0,0:0:0:0:
256,272,65230,1,0,0:0:0:0:
232,248,65384,1,0,0:0:0:0:
192,96,65538,2,0,L|160:144,1,46.6666666666667
168,168,65846,1,0,0:0:0:0:
176,208,66000,1,0,0:0:0:0:
160,192,66153,1,0,0:0:0:0:
128,176,66307,1,0,0:0:0:0:
96,192,66461,6,0,L|64:240,1,35
264,192,66769,2,0,L|208:192,1,46.6666666666667
384,280,67076,2,0,L|336:240,1,46.6666666666667
128,232,67384,6,0,P|104:232|80:252,1,46.6666666666667
264,219,67692,2,0,P|240:208|216:219,1,46.6666666666667
365,293,67999,2,0,P|352:264|324:259,1,46.6666666666667
344,88,68307,6,0,L|320:136,5,46.6666666666667
112,248,69230,2,0,L|184:224,5,46.6666666666667
353,119,70153,5,0,0:0:0:0:
416,200,70307,2,0,L|368:224,1,46.6666666666667
264,152,70615,2,0,L|224:176,1,46.6666666666667
288,272,70923,2,0,L|248:304,1,46.6666666666667
408,241,71230,2,0,L|355:251,1,46.6666666666667
274,155,71538,2,0,L|229:168,1,46.6666666666667
256,304,71846,1,0,0:0:0:0:
104,224,72000,6,0,L|64:272,5,46.6666666666667
144,48,72923,2,0,L|136:112,5,46.6666666666667
40,296,73846,1,0,0:0:0:0:
120,112,74000,1,0,0:0:0:0:
216,256,74153,6,0,L|272:272,1,46.6666666666667
144,320,74461,2,0,L|200:336,1,46.6666666666667
208,176,74769,2,0,L|264:192,1,46.6666666666667
256,328,75076,2,0,L|304:344,1,46.6666666666667
288,152,75384,1,0,0:0:0:0:
408,208,75538,1,0,0:0:0:0:
208,224,75692,6,0,L|160:264,5,46.6666666666667
200,48,76615,2,0,L|184:112,5,46.6666666666667
328,288,77538,5,0,0:0:0:0:
192,104,77692,2,0,L|128:96,1,46.6666666666667
304,248,78000,2,0,L|264:216,1,46.6666666666667
296,104,78307,2,0,L|304:48,1,46.6666666666667
192,104,78615,2,0,L|128:96,1,46.6666666666667
304,248,78923,2,0,L|264:216,1,46.6666666666667
296,104,79230,2,0,L|304:48,1,46.6666666666667
432,224,79538,5,0,0:0:0:0:
368,328,79692,1,0,0:0:0:0:
456,312,79846,1,0,0:0:0:0:
408,184,80000,5,0,0:0:0:0:
376,296,80153,1,0,0:0:0:0:
456,264,80307,1,0,0:0:0:0:
384,144,80461,5,0,0:0:0:0:
384,272,80615,1,0,0:0:0:0:
456,216,80769,1,0,0:0:0:0:
312,56,80923,2,0,L|264:40,1,46.6666666666667
368,288,81230,5,0,0:0:0:0:
296,72,81384,2,0,L|232:64,1,46.6666666666667
352,160,81692,2,0,L|296:152,1,46.6666666666667
192,264,82000,2,0,L|144:248,1,46.6666666666667
200,368,82307,2,0,L|136:352,1,46.6666666666667
304,384,82615,2,0,L|256:368,1,46.6666666666667
200,208,82923,1,0,0:0:0:0:
312,32,83076,6,0,L|256:64,5,46.6666666666667
88,56,84000,2,0,L|152:72,5,46.6666666666667
296,192,84923,1,0,0:0:0:0:
64,280,85076,2,0,L|96:232,1,46.6666666666667
144,352,85384,2,0,L|168:312,1,46.6666666666667
16,320,85692,2,0,L|48:280,1,46.6666666666667
112,376,86000,2,0,L|136:328,1,46.6666666666667
0,352,86307,2,0,L|24:312,2,46.6666666666667
120,88,86769,5,0,0:0:0:0:
160,112,86923,1,0,0:0:0:0:
208,120,87076,1,0,0:0:0:0:
256,104,87230,1,0,0:0:0:0:
224,232,87691,5,0,0:0:0:0:
264,240,87845,1,0,0:0:0:0:
232,240,87999,1,0,0:0:0:0:
264,208,88153,1,0,0:0:0:0:
368,56,88615,5,0,0:0:0:0:
352,80,88769,1,0,0:0:0:0:
344,112,88923,1,0,0:0:0:0:
344,144,89076,1,0,0:0:0:0:
224,192,89538,5,0,0:0:0:0:
216,160,89692,1,0,0:0:0:0:
192,192,89846,1,0,0:0:0:0:
224,176,90000,1,0,0:0:0:0:
288,328,90461,6,0,L|336:320,1,46.6666666666667
368,312,90769,1,0,0:0:0:0:
392,288,90923,1,0,0:0:0:0:
251,331,91384,6,0,L|300:336,1,46.6666666666667
333,336,91692,1,0,0:0:0:0:
362,319,91846,1,0,0:0:0:0:
215,325,92307,6,0,L|261:342,1,46.6666666666667
292,351,92615,1,0,0:0:0:0:
325,343,92769,1,0,0:0:0:0:
182,310,93230,6,0,L|222:339,1,46.6666666666667
250,356,93538,1,0,0:0:0:0:
312,352,93692,1,0,0:0:0:0:
352,304,93846,1,0,0:0:0:0:
256,192,94000,12,0,95846,0:0:0:0:
368,48,96000,5,0,0:0:0:0:
192,120,96230,2,0,B|160:160|160:216|192:256,1,140
280,184,96923,1,0,0:0:0:0:
96,304,97384,5,0,0:0:0:0:
109,282,97499,1,0,0:0:0:0:
118,257,97614,1,0,0:0:0:0:
122,232,97730,1,0,0:0:0:0:
119,206,97845,1,0,0:0:0:0:
248,336,98076,1,0,0:0:0:0:
336,144,98307,1,0,0:0:0:0:
136,80,98769,5,0,0:0:0:0:
232,200,99230,5,0,0:0:0:0:
230,225,99345,1,0,0:0:0:0:
226,251,99460,1,0,0:0:0:0:
218,275,99576,1,0,0:0:0:0:
205,298,99691,1,0,0:0:0:0:
128,88,99923,5,0,0:0:0:0:
192,328,100153,1,0,0:0:0:0:
344,120,100615,5,0,0:0:0:0:
384,232,100846,2,0,P|352:288|320:304,1,70
256,320,101192,1,0,0:0:0:0:
264,328,101307,1,0,0:0:0:0:
264,328,101423,1,0,0:0:0:0:
264,328,101538,1,0,0:0:0:0:
248,64,101769,1,0,0:0:0:0:
96,136,102000,1,0,0:0:0:0:
240,176,102230,1,0,0:0:0:0:
320,288,102461,5,0,0:0:0:0:
376,184,102692,2,0,P|376:120|368:88,1,70
248,152,103038,1,0,0:0:0:0:
256,160,103153,1,0,0:0:0:0:
256,160,103269,1,0,0:0:0:0:
256,160,103384,1,0,0:0:0:0:
304,312,103615,1,0,0:0:0:0:
144,272,103846,1,0,0:0:0:0:
112,144,104076,1,0,0:0:0:0:
224,64,104307,5,0,0:0:0:0:
272,208,104538,1,0,0:0:0:0:
336,64,104770,5,0,0:0:0:0:
353,82,104885,1,0,0:0:0:0:
374,98,105000,1,0,0:0:0:0:
397,109,105116,1,0,0:0:0:0:
422,114,105231,1,0,0:0:0:0:
104,216,105461,2,0,P|104:168|128:128,1,70
232,232,105923,1,0,0:0:0:0:
376,128,106153,5,0,0:0:0:0:
248,48,106384,2,0,P|184:40|152:48,1,70
80,128,106730,5,0,0:0:0:0:
105,127,106845,1,0,0:0:0:0:
131,121,106960,1,0,0:0:0:0:
154,111,107076,1,0,0:0:0:0:
192,256,107307,1,0,0:0:0:0:
120,176,107538,1,0,0:0:0:0:
248,88,107768,1,0,0:0:0:0:
160,176,107999,1,0,0:0:0:0:
416,240,108230,5,0,0:0:0:0:
272,224,108461,5,0,0:0:0:0:
269,249,108576,1,0,0:0:0:0:
271,275,108691,1,0,0:0:0:0:
277,300,108807,1,0,0:0:0:0:
290,322,108922,1,0,0:0:0:0:
344,152,109153,1,0,0:0:0:0:
376,328,109384,1,0,0:0:0:0:
240,232,109615,1,0,0:0:0:0:
144,64,109846,5,0,0:0:0:0:
272,48,110076,1,0,0:0:0:0:
152,200,110307,2,0,L|136:248,1,35
240,264,110538,2,0,L|224:312,1,35
288,384,110769,1,0,0:0:0:0:
120,320,111000,1,0,0:0:0:0:
80,136,111230,1,0,0:0:0:0:
344,168,111461,5,0,0:0:0:0:
224,176,111692,2,0,P|232:128|256:96,1,70
96,304,112154,5,0,0:0:0:0:
109,282,112269,1,0,0:0:0:0:
118,257,112384,1,0,0:0:0:0:
122,232,112500,1,0,0:0:0:0:
119,206,112615,1,0,0:0:0:0:
192,80,112846,1,0,0:0:0:0:
416,80,113076,1,0,0:0:0:0:
152,104,113307,1,0,0:0:0:0:
176,248,113538,5,0,0:0:0:0:
248,48,113769,1,0,0:0:0:0:
160,96,114000,5,0,0:0:0:0:
177,114,114115,1,0,0:0:0:0:
198,130,114230,1,0,0:0:0:0:
221,141,114346,1,0,0:0:0:0:
246,146,114461,1,0,0:0:0:0:
56,224,114692,2,0,P|56:272|72:304,1,70
192,344,115153,5,0,0:0:0:0:
288,184,115384,1,0,0:0:0:0:
400,336,115615,2,0,L|440:304,1,35
464,192,115846,1,0,0:0:0:0:
441,165,115961,1,0,0:0:0:0:
413,144,116076,1,0,0:0:0:0:
382,128,116192,1,0,0:0:0:0:
349,116,116307,1,0,0:0:0:0:
232,48,116538,1,0,0:0:0:0:
144,232,116769,5,0,0:0:0:0:
328,280,117000,1,0,0:0:0:0:
208,112,117230,1,0,0:0:0:0:
144,272,117461,1,0,0:0:0:0:
352,248,117692,1,0,0:0:0:0:
280,64,117923,2,0,L|240:32,1,35
208,32,118153,1,0,0:0:0:0:
184,200,118384,1,0,0:0:0:0:
296,72,118615,1,0,0:0:0:0:
152,200,118846,1,0,0:0:0:0:
344,96,119076,5,0,0:0:0:0:
360,264,119307,1,0,0:0:0:0:
288,256,119423,1,0,0:0:0:0:
240,296,119538,1,0,0:0:0:0:
160,168,119769,1,0,0:0:0:0:
208,208,119884,1,0,0:0:0:0:
272,192,120000,1,0,0:0:0:0:
224,48,120230,1,0,0:0:0:0:
104,32,120461,1,0,0:0:0:0:
160,176,120692,6,0,P|152:216|120:248,1,70
56,168,121153,1,0,0:0:0:0:
192,336,121384,1,0,0:0:0:0:
272,208,121615,2,0,P|304:160|264:192,1,140
267,211,122076,2,0,P|310:173|263:194,1,140
261,213,122538,2,0,P|313:188|262:196,2,140
136,80,123230,5,0,0:0:0:0:
136,157,123346,1,0,0:0:0:0:
136,240,123461,1,0,0:0:0:0:
136,240,123576,1,0,0:0:0:0:
136,240,123692,1,0,0:0:0:0:
256,120,123923,1,0,0:0:0:0:
264,288,124153,1,0,0:0:0:0:
304,208,124384,1,0,0:0:0:0:
304,208,124500,1,0,0:0:0:0:
392,200,124615,2,0,P|392:240|376:264,1,70
240,272,125076,2,0,P|208:320|208:336,1,70
384,304,125538,2,0,P|352:344|328:352,1,70
280,328,126000,2,0,P|224:312|224:304,1,70
400,320,126461,2,0,P|368:360|344:368,1,70
224,144,126923,5,0,0:0:0:0:
336,184,127153,1,0,0:0:0:0:
300,163,127269,1,0,0:0:0:0:
260,151,127384,1,0,0:0:0:0:
160,280,127615,1,0,0:0:0:0:
232,144,127846,1,0,0:0:0:0:
400,208,128076,1,0,0:0:0:0:
384,168,128192,1,0,0:0:0:0:
384,128,128307,1,0,0:0:0:0:
184,48,128538,6,0,P|168:104|152:120,1,70
192,176,129000,1,0,0:0:0:0:
192,176,129115,1,0,0:0:0:0:
192,176,129230,1,0,0:0:0:0:
352,224,129461,1,0,0:0:0:0:
352,224,129576,1,0,0:0:0:0:
352,224,129692,1,0,0:0:0:0:
400,72,129923,6,0,L|368:40,1,35
328,32,130153,1,0,0:0:0:0:
426,113,130384,2,0,L|403:74,1,35
366,56,130614,1,0,0:0:0:0:
440,160,130846,2,0,L|428:116,1,35
398,89,131076,1,0,0:0:0:0:
368,296,131307,1,0,0:0:0:0:
400,256,131423,1,0,0:0:0:0:
416,208,131538,1,0,0:0:0:0:
248,192,131769,5,0,0:0:0:0:
160,328,132000,1,0,0:0:0:0:
64,184,132230,1,0,0:0:0:0:
138,50,132461,5,0,0:0:0:0:
145,75,132576,1,0,0:0:0:0:
156,99,132691,1,0,0:0:0:0:
171,119,132807,1,0,0:0:0:0:
191,136,132922,1,0,0:0:0:0:
304,56,133153,1,0,0:0:0:0:
336,272,133384,1,0,0:0:0:0:
424,72,133615,1,0,0:0:0:0:
278,146,133846,5,0,0:0:0:0:
256,199,134000,1,0,0:0:0:0:
256,131,134153,5,0,0:0:0:0:
233,184,134307,1,0,0:0:0:0:
218,123,134461,5,0,0:0:0:0:
195,176,134615,1,0,0:0:0:0:
180,123,134769,5,0,0:0:0:0:
157,176,134923,1,0,0:0:0:0:
134,131,135076,5,0,0:0:0:0:
112,184,135230,1,0,0:0:0:0:
81,146,135384,5,0,0:0:0:0:
59,199,135538,1,0,0:0:0:0:
232,296,135692,6,0,L|256:256,1,46.6666666666667
376,264,136000,2,0,L|400:216,1,46.6666666666667
200,328,136307,2,0,L|232:272,1,46.6666666666667
352,320,136615,2,0,L|360:264,1,46.6666666666667
232,360,136923,2,0,L|224:304,1,46.6666666666667
360,360,137230,2,0,L|328:320,1,46.6666666666667
384,120,137538,5,0,0:0:0:0:
408,176,137692,1,0,0:0:0:0:
361,89,137846,5,0,0:0:0:0:
398,137,138000,1,0,0:0:0:0:
288,96,138153,5,0,0:0:0:0:
337,133,138307,1,0,0:0:0:0:
253,81,138461,5,0,0:0:0:0:
310,104,138615,1,0,0:0:0:0:
192,112,138769,5,0,0:0:0:0:
228,159,138923,1,0,0:0:0:0:
162,88,139077,5,0,0:0:0:0:
211,125,139231,1,0,0:0:0:0:
280,192,139384,6,0,L|256:240,1,46.6666666666667
208,96,139692,2,0,L|176:144,1,46.6666666666667
296,40,140000,2,0,L|240:72,1,46.6666666666667
384,152,140307,2,0,L|320:168,1,46.6666666666667
416,48,140615,2,0,L|368:32,1,46.6666666666667
456,208,140923,2,0,L|432:152,1,46.6666666666667
176,240,141230,5,0,0:0:0:0:
224,208,141384,1,0,0:0:0:0:
192,160,141538,1,0,0:0:0:0:
144,192,141692,1,0,0:0:0:0:
176,207,141846,5,0,0:0:0:0:
226,178,142000,1,0,0:0:0:0:
197,128,142154,1,0,0:0:0:0:
147,157,142308,1,0,0:0:0:0:
197,182,142461,5,0,0:0:0:0:
243,147,142615,1,0,0:0:0:0:
209,101,142769,1,0,0:0:0:0:
163,135,142923,1,0,0:0:0:0:
344,96,143076,5,0,0:0:0:0:
400,224,143230,1,0,0:0:0:0:
456,128,143384,2,0,L|464:176,1,46.6666666666667
360,24,143692,2,0,L|400:80,1,46.6666666666667
216,32,144000,2,0,L|280:64,1,46.6666666666667
88,120,144307,2,0,L|176:96,1,46.6666666666667
56,264,144615,2,0,L|80:224,1,46.6666666666667
304,240,144923,5,0,0:0:0:0:
288,176,145076,1,0,0:0:0:0:
240,224,145230,1,0,0:0:0:0:
352,192,145384,1,0,0:0:0:0:
307,255,145538,5,0,0:0:0:0:
284,160,145691,1,0,0:0:0:0:
212,231,145845,1,0,0:0:0:0:
379,184,145999,1,0,0:0:0:0:
328,280,146153,5,0,0:0:0:0:
295,148,146306,1,0,0:0:0:0:
195,247,146460,1,0,0:0:0:0:
427,181,146614,1,0,0:0:0:0:
384,64,146769,6,0,L|432:32,1,46.6666666666667
288,176,147076,2,0,L|288:112,1,46.6666666666667
400,128,147384,2,0,L|352:64,1,46.6666666666667
384,224,147692,2,0,L|304:192,1,46.6666666666667
496,96,148000,2,0,L|432:144,1,46.6666666666667
496,192,148307,2,0,L|464:240,1,46.6666666666667
96,80,148615,5,0,0:0:0:0:
144,160,148769,1,0,0:0:0:0:
192,64,148923,1,0,0:0:0:0:
240,160,149076,1,0,0:0:0:0:
192,48,149230,1,0,0:0:0:0:
144,192,149384,5,0,0:0:0:0:
80,64,149538,1,0,0:0:0:0:
240,192,149692,1,0,0:0:0:0:
192,80,149846,1,0,0:0:0:0:
128,208,150000,1,0,0:0:0:0:
192,64,150153,5,0,0:0:0:0:
240,208,150307,1,0,0:0:0:0:
80,144,150461,1,0,0:0:0:0:
112,64,150615,6,0,L|64:32,1,46.6666666666667
144,256,150923,2,0,L|112:208,1,46.6666666666667
160,64,151230,2,0,L|176:16,1,46.6666666666667
224,288,151538,2,0,L|192:240,1,46.6666666666667
112,96,151846,2,0,L|160:64,1,46.6666666666667
80,288,152153,2,0,L|96:208,1,46.6666666666667
288,96,152461,5,0,0:0:0:0:
256,144,152615,1,0,0:0:0:0:
320,144,152769,1,0,0:0:0:0:
288,96,152923,5,0,0:0:0:0:
272,160,153076,1,0,0:0:0:0:
320,160,153230,1,0,0:0:0:0:
288,112,153384,5,0,0:0:0:0:
288,176,153538,1,0,0:0:0:0:
336,160,153692,5,0,0:0:0:0:
288,128,153846,1,0,0:0:0:0:
304,192,154000,1,0,0:0:0:0:
400,96,154153,6,0,L|368:48,1,46.6666666666667
240,32,154461,2,0,L|192:64,1,46.6666666666667
192,208,154769,2,0,L|240:240,1,46.6666666666667
370,62,155076,2,0,L|326:23,1,46.6666666666667
199,41,155384,2,0,L|161:84,1,46.6666666666667
198,224,155692,2,0,L|252:242,1,46.6666666666667
384,256,156000,5,0,0:0:0:0:
240,352,156153,1,0,0:0:0:0:
368,336,156307,1,0,0:0:0:0:
224,272,156461,1,0,0:0:0:0:
384,240,156615,1,0,0:0:0:0:
208,384,156769,5,0,0:0:0:0:
304,256,156923,1,0,0:0:0:0:
352,368,157076,1,0,0:0:0:0:
208,304,157230,1,0,0:0:0:0:
400,272,157384,1,0,0:0:0:0:
224,256,157538,1,0,0:0:0:0:
144,112,157692,5,0,0:0:0:0:
304,176,157846,1,0,0:0:0:0:
256,32,158000,6,0,L|256:80,1,46.6666666666667
112,192,158307,2,0,L|128:128,1,46.6666666666667
320,192,158615,2,0,L|288:240,1,46.6666666666667
400,96,158923,2,0,L|384:48,1,46.6666666666667
464,288,159230,2,0,L|416:336,1,46.6666666666667
288,336,159538,1,0,0:0:0:0:
192,256,159692,5,0,0:0:0:0:
304,144,159846,1,0,0:0:0:0:
304,256,160000,1,0,0:0:0:0:
192,128,160153,1,0,0:0:0:0:
304,48,160307,1,0,0:0:0:0:
384,192,160461,6,0,L|352:128,1,46.6666666666667
304,304,160769,1,0,0:0:0:0:
224,144,160923,1,0,0:0:0:0:
400,224,161076,1,0,0:0:0:0:
272,128,161230,1,0,0:0:0:0:
144,240,161384,5,0,0:0:0:0:
320,320,161538,1,0,0:0:0:0:
48,240,161692,2,0,L|96:208,1,46.6666666666667
320,272,162000,2,0,L|272:256,1,46.6666666666667
48,320,162307,2,0,L|80:272,1,46.6666666666667
256,304,162615,2,0,L|192:304,1,46.6666666666667
64,384,162923,2,0,L|96:336,2,46.6666666666667
208,80,163384,5,0,0:0:0:0:
192,96,163538,1,0,0:0:0:0:
272,208,163692,1,0,0:0:0:0:
288,224,163846,1,0,0:0:0:0:
144,320,164769,5,0,0:0:0:0:
320,160,165230,5,0,0:0:0:0:
304,112,165384,1,0,0:0:0:0:
192,208,165538,1,0,0:0:0:0:
208,256,165692,1,0,0:0:0:0:
400,304,166615,5,0,0:0:0:0:
336,112,167076,2,0,L|288:96,1,46.6666666666667
192,256,167384,2,0,L|176:208,1,46.6666666666667
416,160,168000,2,0,L|368:128,1,46.6666666666667
256,240,168307,2,0,L|214:212,1,46.6666666666667
211,296,168923,2,0,L|177:237,1,46.6666666666667
418,202,169231,2,0,L|380:159,1,46.6666666666667
320,80,169846,5,0,0:0:0:0:
233,156,170000,1,0,0:0:0:0:
265,61,170153,5,0,0:0:0:0:
287,174,170307,1,0,0:0:0:0:
256,192,170461,12,0,181230,0:0:0:0:
336,128,181384,6,0,L|352:96,3,35
256,256,181846,2,0,L|288:224,3,35
80,256,182307,2,0,L|160:272,3,52.5000020027161
80,64,182769,2,0,L|48:112,3,52.5000020027161
272,80,183230,2,0,L|176:64,3,70
336,272,183692,2,0,L|320:192,3,70
304,176,184153,1,0,0:0:0:0:
272,144,184269,1,0,0:0:0:0:
240,128,184384,1,0,0:0:0:0:
