osu file format v14

[General]
AudioFilename: audio.mp3
AudioLeadIn: 0
PreviewTime: 14735
Countdown: 1
SampleSet: Soft
StackLeniency: 0.2
Mode: 0
LetterboxInBreaks: 0
WidescreenStoryboard: 0

[Editor]
DistanceSpacing: 2.2
BeatDivisor: 4
GridSize: 4
TimelineZoom: 1.8

[Metadata]
Title:MOONLIGHT
TitleUnicode:MOONLIGHT
Artist:WhOAMI Inc
ArtistUnicode:WhOAMI Inc
Creator:schoolboy
Version:SPULAE MULAE
Source:
Tags:XXXTENTACION vanucik trynna komore XXXTANTACION Спулае Мулае
BeatmapID:1942546
BeatmapSetID:930155

[Difficulty]
HPDrainRate:6
CircleSize:4
OverallDifficulty:8
ApproachRate:9.3
SliderMultiplier:2.1
SliderTickRate:1

[Events]
//Background and Video events
0,0,"833a0f037b454383f4dcab7bac773277.jpg",0,0
//Break Periods
//Storyboard Layer 0 (Background)
//Storyboard Layer 1 (Fail)
//Storyboard Layer 2 (Pass)
//Storyboard Layer 3 (Foreground)
//Storyboard Sound Samples

[TimingPoints]
296,468.75,4,2,1,45,1,0
7796,-133.333333333333,4,2,1,50,0,0
8967,-100,4,2,1,50,0,0
14827,-333.333333333333,4,2,1,50,0,0
15296,-66.6666666666667,4,2,1,60,0,0
16702,-76.9230769230769,4,2,1,60,0,0
20217,-66.6666666666667,4,2,1,60,0,0
23499,-133.333333333333,4,2,1,60,0,0
24202,-76.9230769230769,4,2,1,60,0,0
25842,-66.6666666666667,4,2,1,60,0,0
30296,-181.818181818181,4,2,1,50,0,0
45296,-181.818181818181,4,2,1,55,0,0
48577,-100,4,2,1,60,0,0
51858,-181.818181818181,4,2,1,60,0,0
54671,-200,4,2,1,60,0,0
55374,-400,4,2,1,60,0,0
56077,-66.6666666666667,4,2,1,60,0,0
60296,-66.6666666666667,4,2,1,65,0,0
61467,-66.6666666666667,4,2,1,65,0,0
61702,-76.9230769230769,4,2,1,65,0,0
65217,-66.6666666666667,4,2,1,65,0,0
66389,-83.3333333333333,4,2,1,65,0,0
68967,-66.6666666666667,4,2,1,65,0,0
69202,-76.9230769230769,4,2,1,65,0,0
70842,-66.6666666666667,4,2,1,65,0,0
71663,-66.6666666666667,4,2,1,5,0,0

[Colours]
Combo1 : 255,94,55
Combo2 : 173,255,95
Combo3 : 17,254,176
Combo4 : 255,88,100

[HitObjects]
408,295,296,6,0,P|472:287|474:366,1,157.5,6|0,0:0|0:0,0:0:0:0:
408,295,764,2,0,L|423:191,1,105,2|0,1:2|0:0,0:0:0:0:
361,149,1057,2,0,L|316:146,1,26.25,2|2,0:0|0:0,0:0:0:0:
319,145,1174,2,0,L|274:142,1,26.25,2|2,0:0|0:0,0:0:0:0:
292,143,1467,6,0,P|285:117|283:91,1,52.5,6|0,0:2|0:0,0:0:0:0:
183,202,1702,2,0,P|131:189|79:183,1,105,2|0,0:0|0:0,0:0:0:0:
21,246,2053,1,2,0:0:0:0:
72,318,2171,6,0,B|191:297|148:396|258:382,1,210,6|2,0:0|0:0,0:0:0:0:
259,382,2874,2,0,P|275:355|256:383,1,105,0|0,0:0|0:0,0:0:0:0:
337,213,3342,2,0,L|330:177,2,35,2|2|2,0:0|0:0|0:0,0:0:0:0:
398,283,3577,2,0,P|471:288|497:219,1,157.5,2|0,0:0|0:0,0:0:0:0:
448,146,4046,6,0,L|454:111,1,26.25,8|0,0:0|0:0,0:0:0:0:
454,104,4163,2,0,L|460:69,1,26.25,8|0,0:0|0:0,0:0:0:0:
461,62,4280,1,8,0:0:0:0:
461,62,4514,2,0,P|424:96|373:93,1,105,2|0,0:0|0:0,0:0:0:0:
307,27,4866,1,0,0:0:0:0:
246,95,4983,5,2,0:0:0:0:
246,95,5217,2,0,L|185:87,1,52.5,6|0,0:0|0:0,0:0:0:0:
95,21,5452,2,0,P|102:72|107:125,1,105,0|0,0:0|0:0,0:0:0:0:
53,188,5803,1,2,0:0:0:0:
113,248,5921,6,0,P|167:233|206:323,1,157.5,6|0,0:0|0:0,0:0:0:0:
277,366,6389,2,0,P|328:356|380:349,1,105,2|0,0:0|0:0,0:0:0:0:
458,381,6741,1,2,0:0:0:0:
512,318,6858,1,2,0:0:0:0:
512,318,7092,6,0,P|498:282|498:249,1,52.5,6|0,0:0|0:0,0:0:0:0:
422,211,7327,2,0,P|434:133|504:125,1,157.5,2|0,0:0|0:0,0:0:0:0:
485,142,7737,1,8,0:0:0:0:
485,142,7796,6,0,P|425:133|368:130,1,118.125004506111,6|0,0:0|0:0,0:0:0:0:
311,64,8264,2,0,P|306:37|323:62,1,78.7500030040742,2|0,0:0|0:0,0:0:0:0:
367,130,8616,1,2,0:0:0:0:
314,194,8733,1,10,0:0:0:0:
314,194,8967,6,0,L|327:266,1,52.5,6|0,0:0|0:0,0:0:0:0:
239,354,9202,2,0,P|192:334|139:332,1,105,2|0,0:0|0:0,0:0:0:0:
17,288,9553,1,2,0:0:0:0:
38,264,9671,2,0,P|42:316|46:368,1,105,6|0,0:0|0:0,0:0:0:0:
212,180,10139,6,0,P|213:108|142:100,1,157.5,2|0,0:0|0:0,0:0:0:0:
125,194,10608,1,8,0:0:0:0:
301,261,10842,2,0,P|327:254|353:251,1,52.5,6|0,0:0|0:0,0:0:0:0:
460,300,11077,5,8,0:0:0:0:
466,208,11233,1,8,0:0:0:0:
469,116,11389,1,8,0:0:0:0:
469,116,11546,6,0,L|419:110,1,26.25,8|0,0:0|0:0,0:0:0:0:
427,109,11663,2,0,L|377:103,1,26.25,8|0,0:0|0:0,0:0:0:0:
385,102,11780,1,8,0:0:0:0:
225,228,12014,2,0,P|277:221|329:218,1,105,2|0,0:0|0:0,0:0:0:0:
399,265,12366,1,2,0:0:0:0:
348,332,12483,5,8,0:0:0:0:
348,332,12717,2,0,L|354:384,1,52.5,6|0,0:0|0:0,0:0:0:0:
214,261,12952,2,0,L|222:154,1,105,2|8,0:0|0:0,0:0:0:0:
170,89,13303,1,2,0:0:0:0:
110,154,13421,6,0,P|67:183|13:180,1,105,6|8,0:0|0:0,0:0:0:0:
295,43,13889,2,0,P|346:41|388:71,1,105,0|2,0:0|0:0,0:0:0:0:
465,41,14241,1,2,0:0:0:0:
502,115,14358,2,0,L|494:167,1,52.5,8|0,0:0|0:0,0:0:0:0:
483,251,14592,1,2,0:0:0:0:
271,346,14827,6,0,L|222:340,1,47.2499985580445,0|0,0:0|0:0,0:0:0:0:
136,331,15296,5,6,1:2:0:0:
84,155,15530,1,2,1:2:0:0:
22,269,15765,5,2,1:2:0:0:
198,217,15999,1,2,3:2:0:0:
110,243,16233,1,10,2:0:0:0:
178,95,16467,6,2,P|173:78|176:98,1,78.7500030040742,2|2,0:1|0:1,0:0:0:0:
357,271,16702,5,2,3:2:0:0:
377,184,16819,1,2,0:0:0:0:
396,97,16936,2,0,P|391:63|374:34,1,68.2499968757631,10|0,0:0|0:0,0:0:0:0:
293,210,17171,5,2,0:0:0:0:
461,158,17288,1,2,0:0:0:0:
242,150,17405,5,2,0:0:0:0:
489,231,17522,1,2,0:0:0:0:
290,363,17639,5,2,0:0:0:0:
290,363,17874,1,2,0:0:0:0:
290,363,18108,1,2,0:0:0:0:
46,225,18577,5,2,0:0:0:0:
88,204,18694,1,2,0:0:0:0:
85,251,18811,1,2,0:0:0:0:
74,227,19046,5,2,1:2:0:0:
279,152,19280,2,0,L|262:255,1,68.2499968757631,2|2,1:2|0:0,0:0:0:0:
241,367,19514,1,2,1:2:0:0:
74,227,19749,1,0,3:2:0:0:
279,152,19983,1,10,0:0:0:0:
156,105,20217,6,2,P|151:88|154:108,1,78.7500030040742,2|2,0:1|0:1,0:0:0:0:
356,279,20452,5,2,3:2:0:0:
404,208,20569,5,2,0:0:0:0:
487,231,20686,5,10,0:0:0:0:
490,318,20803,5,2,0:0:0:0:
409,348,20921,5,2,3:2:0:0:
291,354,21038,1,2,0:0:0:0:
173,362,21155,1,10,0:0:0:0:
173,362,21389,6,0,P|103:325|25:313,2,157.500006008148,2|2|10,1:2|3:2|0:0,0:0:0:0:
145,107,22092,6,2,P|140:90|143:110,1,78.7500030040742,2|2,1:0|1:0,0:0:0:0:
217,171,22327,5,8,0:0:0:0:
309,150,22483,1,8,0:0:0:0:
401,129,22639,1,8,0:0:0:0:
330,242,22796,5,2,1:2:0:0:
288,58,23030,1,2,1:2:0:0:
217,171,23264,5,2,1:2:0:0:
202,166,23499,2,0,B|97:183|156:197|54:215,1,157.500006008148,2|2,3:2|0:0,0:0:0:0:
54,215,24202,5,2,0:0:0:0:
108,285,24319,1,2,0:0:0:0:
74,366,24436,2,0,P|42:379|8:379,1,68.2499968757631,2|0,0:0|0:0,0:0:0:0:
115,152,24671,5,2,0:0:0:0:
156,384,24788,1,2,0:0:0:0:
247,209,24905,5,2,0:0:0:0:
224,334,25022,1,2,0:0:0:0:
294,379,25139,5,2,0:0:0:0:
294,379,25374,1,2,0:0:0:0:
54,215,25608,5,10,0:0:0:0:
367,107,25842,6,2,P|372:90|369:110,1,78.7500030040742,2|2,1:1|0:1,0:0:0:0:
205,54,26077,5,8,0:0:0:0:
291,17,26233,1,8,0:0:0:0:
280,110,26389,1,8,0:0:0:0:
18,302,26546,5,2,1:2:0:0:
193,260,26780,1,2,1:2:0:0:
193,244,26897,1,2,0:0:0:0:
206,252,27014,1,2,1:2:0:0:
87,196,27249,5,2,3:2:0:0:
129,371,27483,1,10,0:0:0:0:
367,107,27717,6,2,P|372:90|369:110,1,78.7500030040742,2|2,0:1|0:1,0:0:0:0:
150,25,27952,5,2,3:2:0:0:
164,109,28069,1,2,0:0:0:0:
247,93,28186,1,10,0:0:0:0:
233,9,28303,1,2,0:0:0:0:
199,58,28421,5,2,3:2:0:0:
181,190,28538,1,2,0:0:0:0:
159,321,28655,1,10,0:0:0:0:
159,321,28889,6,0,P|152:240|133:167,2,157.500006008148,2|2|10,1:2|3:2|0:0,0:0:0:0:
367,107,29592,6,0,P|372:90|369:110,1,78.7500030040742,2|2,1:1|0:1,0:0:0:0:
464,217,29827,5,8,0:0:0:0:
480,124,29983,1,8,0:0:0:0:
497,31,30139,1,8,0:0:0:0:
481,19,30296,6,0,P|424:24|367:19,1,115.50000352478,6|0,0:0|0:0,0:0:0:0:
59,234,31233,1,2,0:0:0:0:
66,215,31389,1,2,0:0:0:0:
212,307,31546,1,2,0:0:0:0:
205,288,31702,1,2,0:0:0:0:
128,302,31858,1,2,0:0:0:0:
97,374,32014,1,2,0:0:0:0:
205,287,32171,6,0,P|211:230|206:170,1,115.50000352478,2|0,1:2|0:0,0:0:0:0:
26,48,32874,2,0,P|19:105|25:165,1,115.50000352478,2|0,0:0|0:0,0:0:0:0:
115,130,33577,1,8,0:0:0:0:
115,130,33733,1,8,0:0:0:0:
115,130,33889,1,8,0:0:0:0:
0,290,34046,6,0,P|57:284|114:291,1,115.50000352478,2|0,0:0|0:0,0:0:0:0:
403,108,34983,1,2,0:0:0:0:
323,78,35139,1,2,0:0:0:0:
252,126,35296,1,2,0:0:0:0:
247,210,35452,2,0,L|250:248,2,38.5000011749268,0|2|2,0:0|0:0|0:0,0:0:0:0:
360,218,35921,6,0,P|416:217|450:261,1,115.50000352478,2|0,1:2|0:0,0:0:0:0:
163,154,36624,2,0,P|107:153|73:197,1,115.50000352478,2|0,0:0|0:0,0:0:0:0:
288,93,37327,1,8,0:0:0:0:
288,93,37483,1,8,0:0:0:0:
288,93,37639,1,8,0:0:0:0:
206,16,37796,5,6,0:0:0:0:
272,303,38264,1,2,0:0:0:0:
272,303,38733,6,0,B|123:267|159:410|-2:374,1,288.750008811951,10|0,0:0|0:0,0:0:0:0:
8,377,40139,1,2,0:0:0:0:
8,377,40374,2,0,P|-1:320|10:255,1,115.50000352478,2|0,0:0|0:0,0:0:0:0:
105,157,41077,1,8,0:0:0:0:
126,83,41233,1,8,0:0:0:0:
51,103,41389,1,8,0:0:0:0:
93,117,41546,6,0,L|207:105,1,115.50000352478,2|2,1:2|0:0,0:0:0:0:
488,301,42483,1,10,0:0:0:0:
488,301,42639,1,2,0:0:0:0:
488,301,42796,1,2,0:0:0:0:
488,301,42952,1,2,0:0:0:0:
488,301,43108,1,2,0:0:0:0:
488,301,43265,1,2,0:0:0:0:
379,369,43421,5,2,0:0:0:0:
448,41,43889,1,2,0:0:0:0:
448,41,44358,1,8,0:0:0:0:
415,107,44592,6,0,P|386:104|399:89,1,57.7500017623902,2|2,0:0|0:0,0:0:0:0:
88,243,45296,5,6,1:2:0:0:
88,231,45530,1,2,1:2:0:0:
98,237,45764,1,2,1:2:0:0:
88,243,45999,1,2,3:2:0:0:
241,45,46233,5,10,0:0:0:0:
251,51,46467,1,2,3:2:0:0:
241,56,46701,1,2,3:2:0:0:
241,45,46936,1,10,0:0:0:0:
176,12,47171,5,2,3:2:0:0:
148,113,47405,1,10,0:0:0:0:
268,244,47639,5,2,1:2:0:0:
296,143,47873,1,2,3:2:0:0:
371,225,48108,6,0,L|470:207,1,57.7500017623902,10|2,0:0|0:0,0:0:0:0:
503,241,48460,1,2,0:0:0:0:
431,194,48577,6,0,B|427:152|433:122|433:122,2,70,8|8|8,0:0|0:0|0:0,0:0:0:0:
66,360,49046,5,6,1:2:0:0:
45,278,49280,1,2,1:2:0:0:
127,258,49514,1,2,1:2:0:0:
147,339,49749,1,2,3:2:0:0:
250,13,49983,5,10,0:0:0:0:
271,95,50217,1,2,3:2:0:0:
189,115,50451,1,2,3:2:0:0:
169,34,50686,1,10,0:0:0:0:
434,228,50921,5,2,3:2:0:0:
482,103,51155,1,10,0:0:0:0:
437,237,51389,1,2,1:2:0:0:
479,93,51623,1,2,3:2:0:0:
268,220,51858,6,0,B|276:288,1,57.7500017623902,10|2,0:0|0:0,0:0:0:0:
286,365,52327,1,8,0:0:0:0:
286,365,52483,1,8,0:0:0:0:
286,365,52639,1,8,0:0:0:0:
27,262,52796,5,6,1:2:0:0:
139,202,53030,1,2,1:2:0:0:
134,329,53264,1,2,1:2:0:0:
27,262,53499,1,2,3:2:0:0:
485,262,53733,5,10,0:0:0:0:
373,202,53967,1,2,3:2:0:0:
378,329,54201,1,2,3:2:0:0:
485,262,54436,1,10,0:0:0:0:
215,68,54671,6,0,L|221:112,1,26.25,2|0,3:2|0:0,0:0:0:0:
296,81,54905,6,0,L|290:37,1,26.25,10|0,0:0|0:0,0:0:0:0:
214,110,55139,6,0,L|220:154,1,26.25,2|0,1:2|0:0,0:0:0:0:
295,123,55374,6,0,L|289:79,1,26.25,2|8,3:2|0:0,0:0:0:0:
50,344,55842,5,2,0:0:0:0:
112,280,55960,5,2,0:0:0:0:
48,220,56077,6,0,B|39:165|48:115|48:115,2,105.000004005432,8|8|8,0:0|0:0|0:0,0:0:0:0:
256,192,56546,5,6,1:2:0:0:
256,192,56663,12,0,59592,0:0:0:0:
219,255,59827,5,8,0:0:0:0:
219,129,59983,5,8,0:0:0:0:
328,192,60139,5,8,0:0:0:0:
256,192,60296,5,6,1:2:0:0:
286,42,60530,1,2,1:2:0:0:
470,204,60764,5,2,1:2:0:0:
440,354,60998,1,2,3:2:0:0:
472,192,61233,1,10,2:0:0:0:
273,295,61467,6,2,P|268:278|271:298,1,78.7500030040742,2|2,0:1|0:1,0:0:0:0:
512,78,61702,5,2,3:2:0:0:
433,113,61819,1,2,0:0:0:0:
354,75,61936,2,0,P|337:45|333:11,1,68.2499968757631,10|0,0:0|0:0,0:0:0:0:
232,145,62171,5,2,0:0:0:0:
229,165,62288,1,2,0:0:0:0:
100,51,62405,5,2,0:0:0:0:
144,294,62522,1,2,0:0:0:0:
0,198,62639,5,2,0:0:0:0:
0,198,62874,1,2,0:0:0:0:
0,198,63108,1,2,0:0:0:0:
397,305,63577,5,2,0:0:0:0:
469,266,63694,1,2,0:0:0:0:
466,348,63811,1,2,0:0:0:0:
443,308,64046,6,0,L|456:191,1,68.2499968757631,2|0,1:2|0:0,0:0:0:0:
325,64,64280,2,0,L|338:181,1,68.2499968757631,2|2,1:2|0:0,0:0:0:0:
342,224,64514,1,2,1:2:0:0:
425,79,64749,1,0,3:2:0:0:
233,102,64983,1,10,0:0:0:0:
273,295,65217,6,2,P|268:278|271:298,1,78.7500030040742,2|2,0:1|0:1,0:0:0:0:
76,19,65452,5,2,3:2:0:0:
91,105,65569,1,2,0:0:0:0:
106,191,65686,1,10,0:0:0:0:
121,277,65803,1,2,0:0:0:0:
135,364,65921,1,2,3:2:0:0:
147,373,66038,1,2,0:0:0:0:
133,379,66155,1,10,0:0:0:0:
133,379,66389,6,0,P|86:355|7:350,2,125.999996154785,2|2|2,0:2|0:2|0:0,0:0:0:0:
387,184,67327,5,8,0:0:0:0:
478,174,67483,1,8,0:0:0:0:
439,258,67639,1,8,0:0:0:0:
434,207,67796,5,2,1:2:0:0:
260,61,68030,1,2,1:2:0:0:
220,284,68264,5,2,1:2:0:0:
260,61,68499,1,2,3:2:0:0:
46,138,68733,1,10,2:0:0:0:
311,327,68967,6,2,P|316:310|313:330,1,78.7500030040742,2|2,0:1|0:1,0:0:0:0:
142,119,69202,5,2,0:0:0:0:
243,158,69319,1,2,0:0:0:0:
159,226,69436,2,0,P|123:230|91:218,1,68.2499968757631,10|0,0:0|0:0,0:0:0:0:
334,104,69671,5,2,0:0:0:0:
202,330,69788,1,2,0:0:0:0:
407,209,69905,5,2,0:0:0:0:
283,233,70022,1,2,0:0:0:0:
382,370,70139,6,0,P|392:321|409:294,1,68.2499968757631,2|0,0:0|0:0,0:0:0:0:
272,165,70374,2,0,L|286:257,1,68.2499968757631,2|0,0:0|0:0,0:0:0:0:
424,102,70608,1,10,0:0:0:0:
285,338,70842,6,2,P|290:321|287:341,1,78.7500030040742,2|2,1:1|0:1,0:0:0:0:
62,140,71077,6,0,P|75:90|82:38,2,105.000004005432,8|8|8,0:0|0:0|0:0,0:0:0:0:
62,140,71546,5,2,1:2:0:0:
256,192,71663,12,0,73421,0:0:0:0:
