osu file format v14

[General]
AudioFilename: audio.mp3
AudioLeadIn: 0
PreviewTime: 50975
Countdown: 0
SampleSet: Soft
StackLeniency: 0.7
Mode: 2
LetterboxInBreaks: 0
WidescreenStoryboard: 1

[Editor]
Bookmarks: 5486,15758,23747,34182,44616,52279,62714,73149,83747
DistanceSpacing: 2.7
BeatDivisor: 4
GridSize: 4
TimelineZoom: 1.9

[Metadata]
Title:VIVID VICE (TV Size)
TitleUnicode:VIVID VICE (TV Size)
Artist:Who-ya Extended
ArtistUnicode:Who-ya Extended
Creator:EclipZ
Version:Secre's Platter
Source:呪術廻戦
Tags:japanese anime rock j-rock jrock op opening jujutsu kaisen jjk itadori yuji yuuji 虎杖悠仁 Secre chickenbible
BeatmapID:3061862
BeatmapSetID:1375168

[Difficulty]
HPDrainRate:4
CircleSize:3.5
OverallDifficulty:8
ApproachRate:8
SliderMultiplier:1.6
SliderTickRate:2

[Events]
//Background and Video events
0,0,"bg.jpg",0,0
//Break Periods
//Storyboard Layer 0 (Background)
//Storyboard Layer 1 (Fail)
//Storyboard Layer 2 (Pass)
//Storyboard Layer 3 (Foreground)
//Storyboard Layer 4 (Overlay)
//Storyboard Sound Samples

[TimingPoints]
269,326.086956521739,4,2,1,65,1,0
5160,-100,4,2,1,5,0,0
5323,-100,4,2,1,5,0,0
5486,-100,4,2,1,50,0,0
13312,-100,4,2,1,60,0,0
14453,-100,4,2,1,60,0,0
15758,-100,4,2,1,70,0,0
23747,-100,4,2,1,55,0,0
34182,-100,4,2,1,60,0,0
45105,-100,4,2,1,55,0,0
49671,-100,4,2,1,5,0,0
49834,-100,4,2,1,55,0,0
51790,-100,4,2,1,65,0,0
52279,-100,4,2,1,75,0,1
55133,-100,4,2,1,5,0,1
55214,-100,4,2,1,75,0,1
65567,-100,4,2,1,5,0,1
65649,-100,4,2,1,75,0,1
70703,-100,4,2,1,65,0,0
72538,-100,4,2,1,70,0,0
86029,-100,4,2,1,5,0,0
86355,-100,4,2,1,65,0,0

[Colours]
Combo1 : 190,126,126
Combo2 : 255,43,43
Combo3 : 255,138,32

[HitObjects]
256,192,269,5,4,0:0:0:0:
256,192,432,12,0,5160,0:0:0:0:
141,180,5486,6,0,L|133:73,1,80,6|2,0:0|0:0,0:0:0:0:
218,89,5812,2,0,L|226:-13,1,80,10|2,0:3|0:0,0:0:0:0:
141,117,6138,1,8,0:3:0:0:
72,84,6301,1,10,0:0:0:0:
76,8,6464,1,8,0:3:0:0:
146,0,6627,1,10,0:0:0:0:
304,90,6790,1,8,0:3:0:0:
174,118,7116,6,0,L|167:13,1,80,8|10,0:3|0:0,0:0:0:0:
250,45,7442,2,0,L|351:45,1,80,8|10,0:3|0:0,0:0:0:0:
250,45,7768,1,8,0:3:0:0:
210,45,7850,1,0,0:0:0:0:
250,45,7932,1,10,0:0:0:0:
413,151,8095,6,0,L|421:41,1,80,8|8,0:3|0:0,0:0:0:0:
336,67,8421,2,0,L|325:-29,1,80,8|0,0:3|0:0,0:0:0:0:
413,45,8747,2,0,L|418:-56,1,80,8|8,0:3|0:0,0:0:0:0:
334,45,9073,2,0,L|437:42,1,80,8|10,0:3|0:0,0:0:0:0:
257,198,9399,6,0,P|215:168|284:100,1,160,8|8,0:3|0:3,0:0:0:0:
348,93,9888,1,10,0:0:0:0:
197,145,10051,2,0,L|191:37,1,80,8|10,0:3|0:0,0:0:0:0:
276,61,10377,2,0,L|285:-41,1,80,8|0,0:3|0:0,0:0:0:0:
126,183,10703,6,0,L|117:74,1,80,10|10,0:3|0:0,0:0:0:0:
203,82,11029,1,10,0:3:0:0:
122,98,11192,2,0,L|116:8,1,80,2|8,0:0|0:3,0:0:0:0:
201,18,11518,2,0,L|292:22,1,80,10|8,0:0|0:3,0:0:0:0:
122,163,11845,6,0,L|113:72,1,80,10|8,0:0|0:3,0:0:0:0:
197,71,12171,2,0,L|202:-22,1,80,2|8,0:0|0:3,0:0:0:0:
121,100,12497,2,0,L|46:102,2,40,10|8|8,0:0|0:0|0:3,0:0:0:0:
277,137,12823,2,0,L|282:72,1,40,8|8,0:0|0:0,0:0:0:0:
229,76,12986,2,0,L|113:79,1,80,8|10,0:3|0:0,0:0:0:0:
397,272,13312,6,0,P|459:245|296:2,1,480,12|0,0:0|0:0,0:0:0:0:
398,125,14453,2,0,L|403:64,1,40,8|8,0:0|0:0,0:0:0:0:
298,81,14616,6,0,L|199:84,1,80,10|10,0:3|0:0,0:0:0:0:
259,138,14861,1,8,0:0:0:0:
300,138,14942,1,8,0:0:0:0:
143,253,15105,1,10,0:3:0:0:
105,244,15187,1,0,0:0:0:0:
88,209,15268,1,8,0:0:0:0:
104,174,15350,1,8,0:0:0:0:
142,165,15432,1,10,0:0:0:0:
222,162,15595,1,8,0:3:0:0:
458,263,15758,6,0,L|278:259,1,160,14|8,0:0|0:0,0:0:0:0:
377,195,16247,2,0,L|385:104,1,80,12|8,0:3|0:0,0:0:0:0:
225,121,16573,2,0,L|214:16,1,80,8|12,0:0|0:3,0:0:0:0:
296,29,16899,2,0,L|305:144,1,80,8|8,0:0|0:0,0:0:0:0:
143,237,17225,5,12,0:3:0:0:
222,175,17388,1,8,0:0:0:0:
182,175,17470,1,8,0:0:0:0:
142,175,17551,1,8,0:0:0:0:
296,152,17714,2,0,L|301:44,1,80,12|10,0:3|0:0,0:0:0:0:
144,81,18040,2,0,L|133:-13,1,80,10|0,0:3|0:0,0:0:0:0:
376,202,18366,6,0,P|422:165|358:86,1,160,12|8,0:0|0:0,0:0:0:0:
302,122,18855,2,0,L|301:19,1,80,12|8,0:3|0:0,0:0:0:0:
455,135,19182,2,0,L|456:26,1,80,8|12,0:0|0:3,0:0:0:0:
380,52,19508,2,0,L|473:53,1,80,8|8,0:0|0:0,0:0:0:0:
309,255,19834,5,14,0:3:0:0:
274,235,19915,1,0,0:0:0:0:
262,198,19997,1,10,0:0:0:0:
279,163,20078,1,8,0:0:0:0:
315,148,20160,1,8,0:0:0:0:
398,151,20323,1,14,0:3:0:0:
236,106,20486,2,0,L|228:-7,1,80,8|10,0:0|0:0,0:0:0:0:
311,15,20812,1,8,0:3:0:0:
86,219,20975,6,0,P|31:187|89:139,1,160,14|8,0:0|0:0,0:0:0:0:
238,149,21464,2,0,L|244:48,1,80,8|8,0:3|0:0,0:0:0:0:
76,93,21790,2,0,L|163:92,2,80,8|8|8,0:3|0:0|0:3,0:0:0:0:
303,233,22279,6,0,P|357:196|293:138,1,160,12|8,0:0|0:0,0:0:0:0:
226,159,22768,2,0,L|223:60,1,80,8|8,0:0|0:0,0:0:0:0:
380,112,23095,1,8,0:3:0:0:
381,72,23176,1,8,0:3:0:0:
383,32,23258,1,8,0:0:0:0:
302,39,23421,2,0,L|399:36,1,80,8|0,0:3|0:0,0:0:0:0:
149,191,23747,6,0,L|141:112,1,80,14|8,0:0|0:0,0:0:0:0:
302,90,24073,1,10,0:3:0:0:
302,90,24399,2,0,L|308:-11,1,80,10|8,0:3|0:0,0:0:0:0:
225,32,24725,1,0,0:0:0:0:
302,90,24888,1,10,0:3:0:0:
145,219,25051,6,2,L|53:222,2,80,2|10|10,0:0|0:0|0:3,0:0:0:0:
300,244,25540,2,0,P|355:221|281:177,1,160,2|10,0:0|0:0,0:0:0:0:
226,164,26029,2,0,L|220:50,1,80,8|10,0:3|0:0,0:0:0:0:
301,62,26355,5,8,0:0:0:0:
131,217,26518,2,0,L|302:221,2,160,10|2|10,0:0|0:0|0:0,0:0:0:0:
411,271,27497,6,0,P|460:240|396:180,1,160,10|10,0:3|0:0,0:0:0:0:
325,192,27986,2,0,L|316:100,1,80,10|8,0:3|0:0,0:0:0:0:
465,143,28312,2,0,L|474:43,1,80,10|10,0:3|0:0,0:0:0:0:
392,52,28638,2,0,L|479:56,1,80,0|8,0:0|0:3,0:0:0:0:
231,262,28964,6,0,L|219:84,1,160,10|10,0:0|0:3,0:0:0:0:
465,169,29616,2,0,L|277:173,1,160,10|0,0:3|0:0,0:0:0:0:
386,252,30105,6,0,L|389:145,1,80,10|0,0:3|0:0,0:0:0:0:
306,168,30432,2,0,L|299:64,1,80,10|8,0:0|0:3,0:0:0:0:
389,89,30758,2,0,L|391:-3,1,80,2|0,0:0|0:0,0:0:0:0:
302,28,31084,2,0,L|209:37,1,80,10|8,0:0|0:3,0:0:0:0:
380,183,31410,6,0,L|389:71,1,80,10|8,0:0|0:0,0:0:0:0:
305,108,31736,2,0,L|303:7,1,80,10|8,0:3|0:0,0:0:0:0:
224,57,32062,2,0,L|218:-45,1,80,10|8,0:0|0:3,0:0:0:0:
136,50,32388,2,0,L|125:-41,1,80,10|8,0:0|0:3,0:0:0:0:
358,202,32714,6,0,L|361:99,1,80,10|0,0:0|0:0,0:0:0:0:
213,125,33040,2,0,L|210:20,1,80,10|8,0:0|0:3,0:0:0:0:
372,68,33366,2,0,L|272:68,1,80,14|8,0:3|0:3,0:0:0:0:
67,240,33692,2,0,P|15:203|90:161,1,160,14|8,0:0|0:0,0:0:0:0:
299,167,34182,6,0,L|302:54,1,80,14|8,0:0|0:0,0:0:0:0:
219,81,34508,1,10,0:3:0:0:
365,222,34671,2,0,P|411:189|343:112,1,160,10|10,0:0|0:0,0:0:0:0:
289,119,35160,1,10,0:3:0:0:
447,140,35323,6,0,L|451:37,1,80,10|0,0:0|0:0,0:0:0:0:
371,53,35649,2,0,L|463:48,1,80,10|8,0:0|0:3,0:0:0:0:
291,173,35975,2,0,L|288:75,1,80,10|0,0:0|0:0,0:0:0:0:
369,85,36301,1,10,0:0:0:0:
211,93,36464,2,0,L|103:98,1,80,10|10,0:3|0:0,0:0:0:0:
360,215,36790,6,0,L|468:216,2,80,10|10|10,0:0|0:0|0:3,0:0:0:0:
212,277,37279,2,0,P|159:238|235:195,1,160,10|10,0:0|0:0,0:0:0:0:
297,186,37768,2,0,L|301:83,1,80,10|10,0:3|0:0,0:0:0:0:
144,148,38095,6,0,L|269:147,2,120,2|2|2,0:0|0:0|0:0,0:0:0:0:
221,184,38747,2,0,L|220:72,1,80,0|8,0:0|0:0,0:0:0:0:
140,100,39073,2,0,L|132:-3,1,80,10|10,0:3|0:0,0:0:0:0:
359,98,39399,6,0,L|471:101,1,80,8|10,0:0|0:0,0:0:0:0:
293,218,39725,2,0,L|291:130,1,80,10|10,0:3|0:0,0:0:0:0:
445,162,40051,2,0,P|490:135|425:64,1,160,2|10,0:0|0:3,0:0:0:0:
365,60,40540,1,10,0:0:0:0:
206,169,40703,6,0,L|201:71,1,80,2|10,0:0|0:0,0:0:0:0:
279,78,41029,1,10,0:3:0:0:
121,164,41192,2,0,L|116:61,1,80,10|0,0:0|0:0,0:0:0:0:
272,132,41518,2,0,L|166:136,1,80,10|10,0:0|0:3,0:0:0:0:
424,238,41845,6,0,L|428:49,1,160,14|10,0:0|0:0,0:0:0:0:
346,74,42334,1,8,0:3:0:0:
190,175,42497,2,0,L|184:79,1,80,10|0,0:0|0:0,0:0:0:0:
336,81,42823,2,0,L|335:-24,1,80,10|8,0:0|0:3,0:0:0:0:
107,217,43149,6,8,L|267:214,1,160,10|10,0:0|0:0,0:0:0:0:
187,275,43638,1,10,0:3:0:0:
339,219,43801,2,0,L|345:114,1,80,2|8,0:0|0:3,0:0:0:0:
187,126,44127,2,0,L|272:122,2,80,10|2|0,0:0|0:0|0:0,0:0:0:0:
417,258,44616,6,0,P|466:236|414:163,1,160,14|0,0:0|0:0,0:0:0:0:
345,162,45105,1,8,0:0:0:0:
189,212,45268,1,10,0:3:0:0:
192,134,45432,1,0,0:0:0:0:
249,80,45595,1,0,0:0:0:0:
327,80,45758,1,0,0:0:0:0:
89,215,45921,6,0,L|77:29,1,160,2|0,0:0|0:0,0:0:0:0:
328,131,46573,2,0,L|137:124,1,160,10|0,0:3|0:0,0:0:0:0:
250,207,47062,1,0,0:1:0:0:
476,258,47225,6,0,L|480:67,1,160,14|0,0:0|0:0,0:0:0:0:
401,93,47714,1,8,0:0:0:0:
172,200,47877,2,0,L|161:95,1,80,10|0,0:3|0:0,0:0:0:0:
246,100,48203,2,0,L|256:-3,1,80
101,174,48529,6,0,L|271:175,1,160,2|0,0:0|0:0,0:0:0:0:
180,247,49018,1,8,0:0:0:0:
331,179,49182,1,10,0:3:0:0:
251,157,49345,2,0,P|249:102|364:66,1,160,12|0,0:0|0:0,0:0:0:0:
101,266,49834,6,0,P|93:193|393:180,1,480,14|0,0:3|0:0,0:0:0:0:
138,251,51138,6,0,L|321:245,1,160
53,219,51790,1,10,0:0:0:0:
45,180,51872,1,8,0:0:0:0:
61,143,51953,1,10,0:0:0:0:
94,122,52035,1,8,0:0:0:0:
133,122,52116,1,8,0:3:0:0:
364,233,52279,6,0,L|175:226,1,160,14|8,0:0|0:0,0:0:0:0:
284,163,52768,1,10,0:3:0:0:
131,171,52932,2,8,L|121:70,1,80,10|8,0:0|0:0,0:0:0:0:
279,91,53258,2,0,L|96:92,1,160,10|8,0:0|0:0,0:0:0:0:
376,263,53747,6,8,L|377:106,1,120,10|2,0:0|0:0,0:0:0:0:
169,200,54236,2,8,L|161:112,1,80,10|8,0:0|0:0,0:0:0:0:
246,107,54562,1,10,0:3:0:0:
166,103,54725,1,2,0:0:0:0:
391,163,54888,6,0,L|399:71,1,80,8|0,0:3|0:0,0:0:0:0:
162,217,55214,2,8,L|159:129,1,80,10|8,0:0|0:3,0:0:0:0:
239,122,55540,1,10,0:0:0:0:
157,103,55703,1,10,0:0:0:0:
323,159,55866,2,8,L|435:153,1,80,10|8,0:0|0:3,0:0:0:0:
168,246,56192,6,8,L|165:154,1,80,10|8,0:0|0:0,0:0:0:0:
326,88,56518,2,0,L|220:89,2,80,10|10|10,0:0|0:3|0:0,0:0:0:0:
172,143,57008,2,0,L|72:142,1,80,8|10,0:3|0:3,0:0:0:0:
92,142,57334,1,8,0:0:0:0:
335,223,57497,6,8,P|387:189|325:133,1,160,12|10,0:3|0:0,0:0:0:0:
181,159,57986,1,8,0:3:0:0:
180,119,58067,1,0,0:0:0:0:
179,79,58149,1,10,0:0:0:0:
333,87,58312,2,0,L|430:86,1,80,10|10,0:0|0:0,0:0:0:0:
261,169,58638,2,0,L|172:171,1,80,10|10,0:3|0:0,0:0:0:0:
425,247,58964,6,8,L|432:103,1,120,10|2,0:0|0:0,0:0:0:0:
219,108,59453,2,8,L|304:106,1,80,10|8,0:0|0:0,0:0:0:0:
144,190,59779,2,0,L|136:85,1,80,10|8,0:0|0:3,0:0:0:0:
382,178,60105,6,8,L|203:174,1,160,10|8,0:3|0:0,0:0:0:0:
305,247,60595,1,8,0:3:0:0:
70,186,60758,2,8,L|54:88,1,80,8|8,0:0|0:3,0:0:0:0:
146,81,61084,1,10,0:0:0:0:
306,142,61247,2,0,L|312:51,1,80,10|0,0:3|0:0,0:0:0:0:
75,241,61573,6,0,L|250:235,1,160,6|10,0:0|0:3,0:0:0:0:
155,310,62062,1,0,0:0:0:0:
306,193,62225,1,2,0:0:0:0:
230,157,62388,2,8,L|222:55,1,80,10|8,0:0|0:3,0:0:0:0:
461,168,62714,6,8,L|274:165,1,160,14|8,0:0|0:0,0:0:0:0:
383,232,63203,1,10,0:3:0:0:
236,171,63366,2,8,L|226:72,1,80,10|10,0:0|0:0,0:0:0:0:
387,90,63692,2,0,L|215:91,1,160,10|8,0:0|0:0,0:0:0:0:
461,174,64182,6,8,L|470:320,1,120,10|2,0:0|0:0,0:0:0:0:
256,265,64671,2,0,L|248:175,1,80,10|8,0:0|0:0,0:0:0:0:
327,155,64997,1,10,0:3:0:0:
246,144,65160,1,2,0:0:0:0:
470,227,65323,6,0,L|482:129,1,80,8|0,0:3|0:0,0:0:0:0:
325,232,65649,2,8,L|149:232,1,160,10|10,0:0|0:0,0:0:0:0:
418,190,66138,2,0,L|422:9,1,160,10|8,0:0|0:3,0:0:0:0:
334,46,66627,1,10,0:0:0:0:
74,232,66790,6,0,L|66:127,1,80,10|10,0:0|0:0,0:0:0:0:
150,114,67116,1,10,0:3:0:0:
306,158,67279,2,8,L|307:60,1,80,10|8,0:0|0:3,0:0:0:0:
150,114,67605,2,8,L|146:26,1,80,10|8,0:3|0:0,0:0:0:0:
392,251,67932,6,8,P|442:219|378:158,1,160,12|10,0:3|0:0,0:0:0:0:
234,190,68421,2,0,L|228:97,1,80,10|10,0:3|0:0,0:0:0:0:
380,92,68747,2,0,L|490:88,1,80,10|10,0:0|0:0,0:0:0:0:
304,182,69073,2,0,L|207:178,1,80,10|10,0:3|0:0,0:0:0:0:
465,227,69399,6,8,L|468:122,1,80,10|8,0:0|0:0,0:0:0:0:
387,132,69725,1,8,0:3:0:0:
241,113,69888,2,8,L|230:14,1,80,10|8,0:0|0:0,0:0:0:0:
384,39,70214,2,8,L|390:-44,1,80,10|8,0:0|0:3,0:0:0:0:
152,195,70540,5,10,0:3:0:0:
152,195,71029,1,0,0:3:0:0:
152,195,71355,1,0,0:3:0:0:
152,195,71682,1,0,0:3:0:0:
152,195,71845,1,0,0:3:0:0:
309,179,72008,5,0,0:3:0:0:
127,272,72538,2,0,P|72:247|141:143,1,220,2|8,0:0|0:3,0:0:0:0:
361,205,73149,6,0,L|189:202,1,160,14|8,0:0|0:0,0:0:0:0:
282,248,73638,2,0,L|291:156,1,80,12|8,0:3|0:0,0:0:0:0:
131,152,73964,2,0,L|120:52,1,80,8|12,0:0|0:3,0:0:0:0:
202,70,74290,2,0,L|113:72,1,80,8|8,0:0|0:0,0:0:0:0:
359,193,74616,6,0,L|360:82,1,80,12|8,0:3|0:0,0:0:0:0:
276,110,74942,2,0,L|270:22,1,80,8|12,0:0|0:3,0:0:0:0:
428,80,75268,2,0,L|342:80,2,80,10|10|0,0:0|0:3|0:0,0:0:0:0:
193,252,75758,6,8,P|141:222|207:177,1,160,12|8,0:0|0:0,0:0:0:0:
281,158,76247,2,0,L|289:62,1,80,12|8,0:3|0:0,0:0:0:0:
130,164,76573,2,0,L|127:67,1,80,8|14,0:0|0:3,0:0:0:0:
276,88,76899,2,0,L|385:88,1,80,10|8,0:0|0:0,0:0:0:0:
126,254,77225,6,0,P|81:225|145:167,1,160,14|10,0:3|0:0,0:0:0:0:
291,193,77714,2,8,L|300:106,1,80,14|8,0:3|0:0,0:0:0:0:
155,105,78040,2,0,L|141:13,1,80,10|8,0:0|0:3,0:0:0:0:
382,81,78366,6,8,P|427:102|375:180,1,160,14|8,0:0|0:0,0:0:0:0:
242,202,78855,2,8,L|230:107,1,80,8|8,0:3|0:0,0:0:0:0:
386,113,79182,2,8,L|390:15,1,80,8|8,0:3|0:0,0:0:0:0:
236,46,79508,2,8,L|152:50,1,80,8|8,0:3|0:0,0:0:0:0:
393,184,79834,6,8,L|393:69,1,80,12|8,0:3|0:0,0:0:0:0:
241,99,80160,2,8,L|233:-2,1,80,8|8,0:3|0:0,0:0:0:0:
391,74,80486,2,0,L|285:71,2,80,8|8|8,0:3|0:3|0:3,0:0:0:0:
158,253,80975,6,8,P|106:226|162:171,1,160
316,165,81464,2,0,L|327:48,1,80,8|8,0:3|0:0,0:0:0:0:
171,101,81790,2,8,L|165:7,1,80,8|8,0:3|0:0,0:0:0:0:
245,25,82116,1,8,0:3:0:0:
16,197,82279,6,8,L|177:175,1,160,12|8,0:0|0:0,0:0:0:0:
102,267,82768,2,0,L|96:181,1,80,8|8,0:3|0:0,0:0:0:0:
253,182,83095,1,8,0:3:0:0:
253,142,83176,1,8,0:3:0:0:
254,102,83258,1,8,0:0:0:0:
175,108,83421,2,0,L|269:104,1,80,8|0,0:3|0:0,0:0:0:0:
479,235,83747,5,12,0:3:0:0:
256,192,83910,12,0,86029,0:0:0:0:
227,245,86355,5,8,0:3:0:0:
223,205,86437,1,8,0:0:0:0:
219,165,86518,1,8,0:0:0:0:
302,133,86682,1,8,0:3:0:0:
304,93,86763,1,8,0:0:0:0:
306,53,86845,1,8,0:0:0:0:
154,176,87008,5,8,0:3:0:0:
116,165,87089,1,8,0:0:0:0:
89,135,87171,1,0,0:3:0:0:
81,97,87252,1,8,0:0:0:0:
95,60,87334,1,8,0:3:0:0:
126,35,87415,1,8,0:0:0:0:
165,31,87497,1,8,0:0:0:0:
401,173,87660,5,8,0:3:0:0:
403,133,87741,1,8,0:0:0:0:
406,93,87823,1,8,0:0:0:0:
324,89,87986,1,8,0:3:0:0:
284,88,88067,1,8,0:0:0:0:
244,88,88149,1,8,0:0:0:0:
395,251,88312,5,8,0:3:0:0:
431,239,88393,1,8,0:0:0:0:
447,203,88475,1,8,0:0:0:0:
429,168,88557,1,8,0:0:0:0:
392,159,88638,1,8,0:3:0:0:
168,148,88801,1,8,0:0:0:0:
