osu file format v14

[General]
AudioFilename: audio.mp3
AudioLeadIn: 0
PreviewTime: 51057
Countdown: 0
SampleSet: Soft
StackLeniency: 0.7
Mode: 0
LetterboxInBreaks: 0
WidescreenStoryboard: 1

[Editor]
Bookmarks: 269,5486,15758,23747,34182,44616,52279,62877,70703,73149,80975,83747,88801
DistanceSpacing: 0.9
BeatDivisor: 4
GridSize: 8
TimelineZoom: 2.2

[Metadata]
Title:VIVID VICE (TV Size)
TitleUnicode:VIVID VICE (TV Size)
Artist:Who-ya Extended
ArtistUnicode:Who-ya Extended
Creator:Addy2607
Version:Oriental's Insane
Source:呪術廻戦
Tags:gokugohan12468 KittyAdventure William K William_K AnreFM Oriental Anya Melfissa Anya_Melfissa kyutei Sajinn Jujutsu Kaisen Sorcery Fight anime 2 2nd second opening intro theme song japanese rock j-rock jrock rock
BeatmapID:2796264
BeatmapSetID:1350397

[Difficulty]
HPDrainRate:5.5
CircleSize:3.8
OverallDifficulty:8
ApproachRate:9
SliderMultiplier:1.6
SliderTickRate:1

[Events]
//Background and Video events
Video,0,"5yybp5 comp.mp4"
0,0,"86201171_p3.jpg",0,0
//Break Periods
//Storyboard Layer 0 (Background)
//Storyboard Layer 1 (Fail)
//Storyboard Layer 2 (Pass)
//Storyboard Layer 3 (Foreground)
//Storyboard Layer 4 (Overlay)
//Storyboard Sound Samples

[TimingPoints]
269,326.086956521739,4,2,1,40,1,0
269,-250,4,2,1,40,0,0
2877,-250,4,2,1,50,0,0
5486,-133.333333333333,4,2,1,50,0,0
13312,-166.666666666667,4,2,1,50,0,0
14616,-133.333333333333,4,2,1,60,0,0
15758,-100,4,2,1,70,0,0
23665,-100,4,2,1,5,0,0
23747,-111.111111111111,4,2,1,60,0,0
24317,-111.111111111111,4,2,1,5,0,0
24399,-111.111111111111,4,2,1,60,0,0
41845,-111.111111111111,4,2,1,70,0,0
43964,-111.111111111111,4,2,1,60,0,0
44616,-133.333333333333,4,2,1,50,0,0
49834,-200,4,2,1,50,0,0
51057,-200,4,2,1,5,0,0
51138,-200,4,2,1,70,0,0
51790,-100,4,2,1,70,0,0
52279,-83.3333333333333,4,2,1,80,0,1
57497,-83.3333333333333,4,2,1,70,0,1
62714,-83.3333333333333,4,2,1,80,0,1
67932,-83.3333333333333,4,2,1,70,0,1
70703,-83.3333333333333,4,2,1,60,0,0
72497,-133.333333333333,4,2,1,60,0,0
73149,-100,4,2,1,70,0,0
83747,-400,4,2,1,50,0,0
86355,-100,4,2,1,70,0,0

[Colours]
Combo1 : 255,128,64
Combo2 : 36,255,255
Combo3 : 0,0,234
Combo4 : 243,52,81

[HitObjects]
202,124,269,6,0,B|158:86|88:111|76:178|110:222|152:228|152:228|208:237|236:307|192:360|137:363|104:335,1,448,6|0,3:2|0:0,0:0:0:0:
22,300,2877,6,0,P|245:280|468:266,1,448,2|0,0:0|0:0,0:0:0:0:
500,100,5486,6,0,P|505:70|507:40,2,60.0000022888184,2|2|10,3:2|0:0|0:0,0:0:0:0:
416,177,5975,2,0,P|386:180|357:171,1,60.0000022888184,2|8,0:0|0:0,0:0:0:0:
502,216,6301,2,0,P|486:241|462:258,1,60.0000022888184,2|8,3:2|0:0,0:0:0:0:
382,305,6627,6,0,P|349:299|311:295,1,60.0000022888184,2|8,3:2|0:0,0:0:0:0:
240,378,6953,2,0,L|235:319,1,60.0000022888184,2|8,0:0|0:0,0:0:0:0:
264,233,7279,2,0,P|204:230|144:224,1,120.000004577637,2|2,3:2|3:2,0:0:0:0:
74,281,7768,1,8,0:0:0:0:
11,195,7932,1,2,3:2:0:0:
5,188,8013,1,0,3:0:0:0:
0,179,8095,6,0,P|2:149|4:119,1,60.0000022888184,8|0,0:0|3:0,0:0:0:0:
79,18,8421,2,0,P|81:48|84:77,1,60.0000022888184,8|0,0:0|0:0,0:0:0:0:
206,144,8747,1,8,0:0:0:0:
129,191,8910,1,0,3:0:0:0:
172,59,9073,2,0,P|201:56|231:54,1,60.0000022888184,8|2,0:0|3:2,0:0:0:0:
332,116,9399,5,8,0:0:0:0:
332,116,9562,2,0,L|326:190,1,60.0000022888184,2|8,0:0|0:0,0:0:0:0:
237,275,9888,2,0,P|299:266|362:264,1,120.000004577637,2|2,3:2|3:2,0:0:0:0:
415,162,10377,2,0,P|433:186|433:216,1,60.0000022888184,8|0,0:0|0:0,0:0:0:0:
435,305,10703,6,0,P|469:307|509:318,2,60.0000022888184,10|2|10,0:0|3:2|0:0,0:0:0:0:
332,347,11192,2,0,P|296:348|271:336,1,60.0000022888184,2|8,0:0|0:0,0:0:0:0:
254,194,11518,2,0,P|272:224|274:252,1,60.0000022888184,2|8,3:2|0:0,0:0:0:0:
196,294,11845,6,0,P|167:291|137:289,1,60.0000022888184,2|8,3:2|0:0,0:0:0:0:
53,378,12171,2,0,P|50:348|46:318,1,60.0000022888184,2|8,0:0|0:0,0:0:0:0:
22,217,12497,1,2,3:2:0:0:
28,210,12578,1,0,3:0:0:0:
35,202,12660,2,0,P|64:207|94:209,1,60.0000022888184,8|2,0:0|3:2,0:0:0:0:
170,179,12904,1,0,3:0:0:0:
181,170,12986,2,0,P|198:145|205:112,1,60.0000022888184,8|2,0:0|0:0,0:0:0:0:
180,22,13312,6,0,B|226:179|90:146|128:290,1,287.999991210938,4|0,3:2|0:0,0:0:0:0:
238,367,14453,1,0,3:0:0:0:
249,369,14535,1,0,3:0:0:0:
262,373,14616,6,0,P|291:369|321:366,1,60.0000022888184,10|8,0:0|0:0,0:0:0:0:
331,359,14861,1,8,0:0:0:0:
341,352,14942,2,0,L|344:316,3,30.0000011444092,0|8|8|0,3:0|0:0|0:0|0:0,0:0:0:0:
293,251,15268,1,8,0:0:0:0:
291,242,15350,1,8,0:0:0:0:
290,233,15432,2,0,L|287:203,1,30.0000011444092,8|8,0:0|0:0,0:0:0:0:
367,148,15595,1,0,3:0:0:0:
273,62,15758,6,0,B|212:57|212:57|182:83|182:83|123:77,1,160,6|0,3:2|3:0,0:0:0:0:
7,11,16247,1,10,0:0:0:0:
29,100,16410,1,0,3:0:0:0:
31,112,16491,1,8,3:0:0:0:
33,124,16573,2,0,P|36:163|39:203,1,80,2|8,3:2|0:0,0:0:0:0:
152,268,16899,1,2,3:2:0:0:
151,280,16980,1,0,3:0:0:0:
149,292,17062,1,0,3:0:0:0:
63,371,17225,6,0,P|34:344|36:300,1,80,14|0,0:0|3:0,0:0:0:0:
40,296,17470,1,8,3:0:0:0:
46,286,17551,1,2,3:2:0:0:
145,183,17714,2,0,P|171:188|212:191,1,40,8|0,0:0|0:0,0:0:0:0:
243,258,17877,2,0,P|263:254|283:252,1,40,2|0,3:2|3:0,0:0:0:0:
340,183,18040,1,10,0:0:0:0:
447,366,18366,6,0,P|436:286|429:206,1,160,6|0,3:2|3:0,0:0:0:0:
484,88,18855,1,10,0:0:0:0:
415,28,19018,1,0,3:0:0:0:
405,36,19100,1,8,3:0:0:0:
394,43,19182,2,0,P|354:49|314:51,1,80,2|8,3:2|0:0,0:0:0:0:
190,21,19508,1,2,3:2:0:0:
183,31,19589,1,0,3:0:0:0:
176,41,19671,2,0,P|178:60|181:80,1,40,0|0,3:0|3:0,0:0:0:0:
230,150,19834,5,14,0:0:0:0:
116,233,19997,1,2,3:2:0:0:
118,245,20078,1,8,3:0:0:0:
120,257,20160,1,0,3:0:0:0:
181,334,20323,2,0,P|229:328|272:328,1,80,10|0,0:0|3:0,0:0:0:0:
372,202,20649,1,2,3:2:0:0:
421,356,20812,1,8,0:0:0:0:
456,171,20975,6,0,P|376:167|297:151,1,160,6|0,3:2|3:0,0:0:0:0:
167,101,21464,1,10,0:0:0:0:
89,145,21627,1,0,3:0:0:0:
80,155,21709,1,8,3:0:0:0:
72,164,21790,2,0,P|63:201|113:246,1,80,2|0,3:2|3:0,0:0:0:0:
69,364,22116,2,0,P|106:352|125:318,1,80,10|4,0:0|3:2,0:0:0:0:
243,266,22442,6,0,P|214:239|175:239,1,80,2|0,0:0|3:0,0:0:0:0:
275,350,22768,2,0,P|281:270|291:190,1,160,10|10,0:0|0:0,0:0:0:0:
256,112,23176,1,8,0:0:0:0:
256,102,23258,1,8,3:0:0:0:
258,92,23339,1,8,3:0:0:0:
259,81,23421,2,0,P|306:48|362:65,1,120,0|0,3:0|0:0,0:0:0:0:
413,128,23747,6,0,P|416:168|420:208,1,71.9999978027344,6|0,3:2|3:0,0:0:0:0:
504,302,24073,2,0,P|450:292|397:286,1,107.999996704102,10|0,0:0|0:0,0:0:0:0:
385,292,24399,1,10,0:0:0:0:
294,359,24562,2,0,P|261:373|225:371,1,71.9999978027344,0|0,3:0|0:0,0:0:0:0:
126,324,24888,6,0,P|135:253|141:180,1,143.999995605469,10|2,0:0|3:2,0:0:0:0:
210,130,25377,1,10,0:0:0:0:
61,60,25540,2,0,P|88:84|122:92,1,71.9999978027344,2|0,0:0|0:0,0:0:0:0:
72,203,25866,2,0,P|107:198|134:175,1,71.9999978027344,2|8,3:2|0:0,0:0:0:0:
198,46,26192,1,2,3:2:0:0:
201,35,26274,1,0,3:0:0:0:
204,24,26355,5,0,3:0:0:0:
330,0,26518,2,0,P|355:24|356:69,1,71.9999978027344,2|8,3:2|0:0,0:0:0:0:
465,82,26845,2,0,P|449:113|407:128,1,71.9999978027344,2|8,0:0|0:0,0:0:0:0:
304,134,27171,2,0,P|308:169|312:205,1,71.9999978027344,2|0,3:2|0:0,0:0:0:0:
444,238,27497,6,0,P|372:226|301:218,1,143.999995605469,10|2,0:0|3:2,0:0:0:0:
220,283,27986,2,0,P|180:303|132:296,1,71.9999978027344,10|0,0:0|3:0,0:0:0:0:
59,221,28312,1,10,0:0:0:0:
59,221,28475,2,0,L|66:139,1,71.9999978027344,0|0,3:0|0:0,0:0:0:0:
113,77,28801,1,8,0:0:0:0:
121,69,28883,1,8,0:0:0:0:
129,62,28964,6,0,P|163:54|199:60,1,71.9999978027344,2|0,3:2|3:0,0:0:0:0:
304,13,29290,2,0,P|322:43|327:79,1,71.9999978027344,10|0,0:0|0:0,0:0:0:0:
262,174,29616,2,0,L|268:245,1,71.9999978027344,10|0,0:0|3:0,0:0:0:0:
344,288,29942,1,0,0:0:0:0:
197,292,30105,6,0,B|248:289|248:289|274:305|274:305|336:299,1,143.999995605469,10|2,0:0|3:2,0:0:0:0:
443,351,30595,1,8,0:0:0:0:
501,287,30758,2,0,P|503:251|508:215,1,71.9999978027344,2|0,0:0|0:0,0:0:0:0:
436,107,31084,2,0,P|401:99|368:111,1,71.9999978027344,2|8,3:2|0:0,0:0:0:0:
292,152,31410,1,2,3:2:0:0:
292,163,31491,1,0,3:0:0:0:
291,174,31573,5,0,3:0:0:0:
336,298,31736,1,10,0:0:0:0:
275,359,31899,1,0,3:0:0:0:
275,359,32062,2,0,P|240:353|204:352,1,71.9999978027344,2|8,3:2|0:0,0:0:0:0:
116,281,32388,2,0,P|114:245|133:215,1,71.9999978027344,2|8,3:2|0:0,0:0:0:0:
4,217,32714,6,0,P|71:216|149:202,1,143.999995605469,2|2,3:2|3:2,0:0:0:0:
262,95,33203,1,8,0:0:0:0:
151,44,33366,1,10,0:0:0:0:
233,178,33529,1,8,0:0:0:0:
327,26,33692,2,0,B|359:55|359:55|350:105|344:154,1,143.999995605469,6|8,3:2|0:0,0:0:0:0:
387,229,34100,1,8,3:0:0:0:
394,240,34182,6,0,P|358:241|322:245,1,71.9999978027344,6|2,3:2|3:2,0:0:0:0:
233,178,34508,1,10,0:0:0:0:
168,303,34671,2,0,P|164:267|159:231,1,71.9999978027344,2|0,3:2|0:0,0:0:0:0:
63,163,34997,1,2,3:2:0:0:
65,152,35079,1,0,3:0:0:0:
67,140,35160,1,10,0:0:0:0:
127,26,35323,6,0,P|143:58|140:94,1,71.9999978027344,2|0,3:2|0:0,0:0:0:0:
63,163,35649,2,0,P|47:195|50:230,1,71.9999978027344,2|8,3:2|0:0,0:0:0:0:
155,314,35975,2,0,P|226:307|298:303,1,143.999995605469,2|2,3:2|3:2,0:0:0:0:
307,296,36383,1,0,3:0:0:0:
315,289,36464,1,10,0:0:0:0:
396,212,36627,1,2,3:2:0:0:
404,220,36709,1,0,3:0:0:0:
411,228,36790,6,0,P|406:271|405:332,2,71.9999978027344,2|2|8,3:2|3:2|0:0,0:0:0:0:
335,79,37279,2,0,P|268:87|255:153,1,143.999995605469,2|2,3:2|3:2,0:0:0:0:
264,162,37687,1,8,3:0:0:0:
273,169,37768,2,0,P|310:164|344:161,1,71.9999978027344,10|2,0:0|3:2,0:0:0:0:
458,136,38095,6,0,P|470:101|465:64,1,71.9999978027344,2|2,0:0|3:2,0:0:0:0:
459,59,38339,1,0,3:0:0:0:
451,51,38421,1,8,0:0:0:0:
329,23,38584,1,2,0:0:0:0:
319,21,38665,2,0,P|265:27|211:31,1,107.999996704102,8|0,0:0|3:0,0:0:0:0:
146,88,39073,1,10,0:0:0:0:
50,23,39236,1,2,3:2:0:0:
52,34,39317,1,0,3:0:0:0:
54,45,39399,6,0,P|59:89|64:147,1,71.9999978027344,0|2,3:0|3:2,0:0:0:0:
6,232,39725,2,0,P|41:229|68:206,1,71.9999978027344,10|2,0:0|3:2,0:0:0:0:
155,97,40051,2,0,P|150:132|147:168,1,71.9999978027344,2|0,0:0|3:0,0:0:0:0:
154,177,40296,1,8,3:0:0:0:
161,186,40377,1,10,0:0:0:0:
223,245,40540,1,2,3:2:0:0:
139,342,40703,5,2,0:0:0:0:
139,342,40866,2,0,P|176:336|239:332,1,71.9999978027344,2|8,3:2|0:0,0:0:0:0:
337,360,41192,2,0,P|395:325|386:258,1,143.999995605469,2|10,3:2|0:0,0:0:0:0:
378,251,41600,1,0,3:0:0:0:
368,247,41682,1,10,0:0:0:0:
275,150,41845,6,0,P|346:159|418:161,1,143.999995605469,6|2,3:2|3:2,0:0:0:0:
478,99,42334,1,8,0:0:0:0:
380,17,42497,2,0,P|343:12|306:33,1,71.9999978027344,2|0,3:2|0:0,0:0:0:0:
237,68,42823,2,0,P|201:63|165:60,1,71.9999978027344,2|8,3:2|0:0,0:0:0:0:
62,4,43149,6,0,P|73:75|83:146,1,143.999995605469,2|2,3:2|3:2,0:0:0:0:
28,213,43638,1,10,0:0:0:0:
82,314,43801,1,2,3:2:0:0:
90,322,43883,1,8,0:0:0:0:
97,329,43964,2,0,P|133:326|171:325,1,71.9999978027344,8|10,0:0|0:0,0:0:0:0:
242,280,44290,2,0,P|259:250|256:210,1,71.9999978027344,8|8,3:0|3:0,0:0:0:0:
167,150,44616,6,0,P|255:164|350:171,1,180.000006866455,6|0,3:2|3:0,0:0:0:0:
377,290,45268,2,0,P|447:243|434:159,1,180.000006866455,10|2,0:0|0:3,0:0:0:0:
364,46,45921,5,2,0:0:0:0:
363,46,46084,2,0,P|304:54|244:57,1,120.000004577637,2|2,3:0|3:0,0:0:0:0:
118,128,46573,2,0,B|151:124|172:104|172:104|184:127|217:140,1,120.000004577637,8|0,0:0|0:0,0:0:0:0:
165,337,47225,6,0,P|159:277|155:217,1,120.000004577637,2|0,3:2|0:0,0:0:0:0:
155,217,47714,1,0,3:0:0:0:
77,341,47877,2,0,B|167:327|149:399|246:379,1,180.000006866455,10|2,0:0|0:3,0:0:0:0:
352,265,48529,5,2,0:0:0:0:
352,265,48692,2,0,P|370:319|331:363,1,120.000004577637,0|0,3:0|3:0,0:0:0:0:
232,278,49182,1,8,0:0:0:0:
298,198,49345,2,0,P|359:209|417:213,1,120.000004577637,0|0,3:0|0:0,0:0:0:0:
512,198,49834,6,0,B|366:174|401:318|241:287,1,300,6|0,3:2|0:0,0:0:0:0:
232,278,51138,2,0,P|229:238|224:196,1,80,2|0,0:0|0:0,0:0:0:0:
66,104,51790,6,0,L|61:169,1,40,2|0,3:2|3:0,0:0:0:0:
108,220,51953,1,2,3:2:0:0:
109,230,52035,1,8,3:0:0:0:
109,241,52116,1,8,0:0:0:0:
0,327,52279,6,0,B|74:322|74:322|110:356|110:356|178:351,1,191.999994140625,6|0,3:2|3:0,0:0:0:0:
293,267,52768,1,10,0:0:0:0:
383,371,52932,2,0,P|384:323|387:275,1,95.9999970703126,2|0,3:2|3:0,0:0:0:0:
263,120,53258,2,0,P|230:153|232:199,1,95.9999970703126,2|8,3:2|0:0,0:0:0:0:
360,145,53584,1,0,3:0:0:0:
290,24,53747,6,0,P|242:32|194:35,1,95.9999970703126,2|0,3:2|3:0,0:0:0:0:
184,30,53991,1,2,3:2:0:0:
173,24,54073,1,8,0:0:0:0:
45,66,54236,2,0,P|36:112|55:155,1,95.9999970703126,2|0,3:2|3:0,0:0:0:0:
198,193,54562,1,10,0:0:0:0:
123,101,54725,1,2,3:2:0:0:
33,241,54888,6,0,B|126:258|115:174|207:184,1,191.999994140625,12|2,0:0|3:2,0:0:0:0:
369,277,55377,2,0,P|348:317|302:314,1,95.9999970703126,8|2,0:0|3:2,0:0:0:0:
278,129,55703,1,2,3:2:0:0:
191,271,55866,1,2,3:2:0:0:
354,182,56029,1,10,0:0:0:0:
249,49,56192,6,0,P|263:143|275:239,1,191.999994140625,2|2,3:2|3:2,0:0:0:0:
153,354,56682,1,10,0:0:0:0:
41,297,56845,2,0,P|36:250|54:207,1,95.9999970703126,2|8,3:2|0:0,0:0:0:0:
234,156,57171,1,10,0:0:0:0:
191,271,57334,1,0,3:2:0:0:
138,117,57497,6,0,P|233:128|330:136,1,191.999994140625,12|2,0:0|3:2,0:0:0:0:
377,248,57986,2,0,P|413:220|414:174,1,95.9999970703126,8|2,0:0|3:2,0:0:0:0:
339,38,58312,1,2,3:2:0:0:
320,146,58475,1,2,3:2:0:0:
445,36,58638,2,0,P|397:38|349:41,1,95.9999970703126,10|2,0:0|3:2,0:0:0:0:
211,14,58964,5,2,3:2:0:0:
112,65,59127,2,0,B|95:110|95:110|123:155,1,95.9999970703126,2|8,3:2|0:0,0:0:0:0:
241,212,59453,2,0,P|236:259|233:307,1,95.9999970703126,2|0,3:2|3:0,0:0:0:0:
86,371,59779,1,2,3:2:0:0:
83,358,59861,1,0,3:0:0:0:
80,346,59942,1,8,0:0:0:0:
150,232,60105,6,0,B|243:215|227:307|324:284,1,191.999994140625,14|0,0:0|3:0,0:0:0:0:
445,193,60595,1,8,0:0:0:0:
380,359,60758,2,0,P|361:264|350:169,1,191.999994140625,0|2,3:0|3:2,0:0:0:0:
426,28,61247,2,0,P|471:33|485:76,1,95.9999970703126,10|0,0:0|3:0,0:0:0:0:
340,177,61573,6,0,P|292:171|244:167,1,95.9999970703126,2|0,0:0|3:0,0:0:0:0:
169,29,61899,2,0,P|121:34|73:38,1,95.9999970703126,10|0,0:0|0:0,0:0:0:0:
46,168,62225,1,2,0:0:0:0:
168,122,62388,2,0,P|193:83|180:38,1,95.9999970703126,2|8,3:2|0:0,0:0:0:0:
55,156,62714,6,0,B|120:151|120:151|158:186|158:186|232:178,1,191.999994140625,6|0,3:2|3:0,0:0:0:0:
346,67,63203,1,10,0:0:0:0:
420,209,63366,2,0,P|421:161|424:113,1,95.9999970703126,2|0,3:2|3:0,0:0:0:0:
282,7,63692,2,0,P|258:48|263:95,1,95.9999970703126,2|8,3:2|0:0,0:0:0:0:
336,165,64018,1,0,3:0:0:0:
263,302,64182,6,0,P|215:296|156:293,1,95.9999970703126,2|0,3:2|3:0,0:0:0:0:
156,296,64426,1,2,3:2:0:0:
145,300,64508,1,8,0:0:0:0:
35,249,64671,1,2,3:2:0:0:
27,240,64752,1,0,3:0:0:0:
20,230,64834,2,0,P|17:183|61:142,1,95.9999970703126,0|10,3:0|0:0,0:0:0:0:
173,120,65160,1,2,3:2:0:0:
55,57,65323,6,0,P|150:70|245:78,1,191.999994140625,12|2,0:0|3:2,0:0:0:0:
383,2,65812,2,0,P|342:24|332:70,1,95.9999970703126,8|2,0:0|3:2,0:0:0:0:
426,216,66138,2,0,P|428:169|394:138,1,95.9999970703126,2|2,3:2|3:2,0:0:0:0:
237,63,66464,1,10,0:0:0:0:
260,226,66627,1,2,3:2:0:0:
141,90,66790,6,0,P|135:137|126:184,1,95.9999970703126,2|0,3:2|3:0,0:0:0:0:
310,148,67116,1,10,0:0:0:0:
178,254,67279,2,0,P|130:273|83:263,1,95.9999970703126,2|8,3:2|0:0,0:0:0:0:
223,146,67605,2,0,P|270:138|314:158,1,95.9999970703126,10|0,0:0|3:0,0:0:0:0:
396,325,67932,6,0,B|391:256|391:256|428:218|428:218|423:148,1,191.999994140625,12|2,0:0|3:2,0:0:0:0:
325,27,68421,2,0,P|278:33|230:38,1,95.9999970703126,10|2,0:0|3:2,0:0:0:0:
128,174,68747,1,2,3:2:0:0:
235,124,68910,1,2,3:2:0:0:
144,19,69073,2,0,P|102:38|96:83,1,95.9999970703126,10|2,0:0|3:2,0:0:0:0:
216,221,69399,5,2,3:2:0:0:
71,283,69562,1,2,3:2:0:0:
137,155,69725,1,8,0:0:0:0:
198,308,69888,2,0,B|295:324|273:240|373:255,1,191.999994140625,2|2,3:2|3:2,0:0:0:0:
511,377,70377,1,8,0:0:0:0:
352,337,70540,1,2,3:2:0:0:
456,272,70703,5,8,2:1:0:0:
454,284,71030,5,8,2:1:0:0:
453,297,71356,5,8,2:1:0:0:
452,309,71682,5,10,2:1:0:0:
283,375,72008,5,10,2:1:0:0:
283,375,72497,6,0,P|278:286|271:185,1,180.000006866455,2|8,0:0|0:0,0:0:0:0:
401,151,73149,6,0,B|322:165|338:94|251:112,1,160,6|0,3:2|3:0,0:0:0:0:
157,184,73638,2,0,P|163:225|167:266,1,80,10|0,0:0|3:0,0:0:0:0:
159,272,73883,1,8,3:0:0:0:
150,281,73964,2,0,P|114:295|76:283,1,80,2|8,3:2|0:0,0:0:0:0:
28,170,74290,1,2,3:2:0:0:
32,162,74371,1,0,3:0:0:0:
37,155,74453,1,0,3:0:0:0:
42,148,74535,1,0,3:0:0:0:
47,141,74616,6,0,P|86:142|126:139,1,80,14|0,0:0|3:0,0:0:0:0:
133,145,74861,1,0,3:0:0:0:
139,151,74942,1,2,3:2:0:0:
260,262,75105,1,8,0:0:0:0:
130,324,75268,1,2,3:2:0:0:
221,177,75432,1,10,3:2:0:0:
411,362,75758,6,0,P|415:282|421:202,1,160,6|0,3:2|3:0,0:0:0:0:
510,103,76247,2,0,P|471:109|431:111,1,80,10|0,0:0|3:0,0:0:0:0:
420,105,76491,1,8,3:0:0:0:
409,99,76573,1,2,3:2:0:0:
332,43,76736,1,10,0:0:0:0:
220,102,76899,2,0,P|214:140|237:172,1,80,2|0,3:2|3:0,0:0:0:0:
353,267,77225,6,0,P|314:257|274:256,1,80,14|0,0:0|3:0,0:0:0:0:
261,260,77470,1,0,3:0:0:0:
250,265,77551,1,2,3:2:0:0:
131,329,77714,1,10,0:0:0:0:
257,362,77877,1,0,3:0:0:0:
142,243,78040,2,0,P|137:203|134:163,1,80,2|8,3:2|0:0,0:0:0:0:
19,65,78366,6,0,B|82:59|82:59|109:78|109:78|172:72,1,160,6|0,3:2|3:0,0:0:0:0:
315,180,78855,2,0,P|318:140|322:100,1,80,10|0,0:0|3:0,0:0:0:0:
224,218,79182,1,10,0:0:0:0:
267,25,79345,1,0,3:0:0:0:
406,168,79508,1,10,0:0:0:0:
244,118,79671,1,0,3:0:0:0:
420,83,79834,6,0,P|425:122|411:159,1,80,14|0,0:0|3:0,0:0:0:0:
291,238,80160,2,0,P|253:230|213:225,1,80,10|0,0:0|3:0,0:0:0:0:
373,271,80486,1,10,0:0:0:0:
161,301,80649,1,10,0:0:0:0:
327,150,80812,1,8,0:0:0:0:
206,56,80975,6,0,P|214:135|218:215,1,160,6|0,3:2|3:0,0:0:0:0:
62,344,81464,1,10,0:0:0:0:
104,189,81627,1,0,3:0:0:0:
116,189,81709,1,8,3:0:0:0:
128,191,81790,1,10,0:0:0:0:
173,311,81953,1,0,3:0:0:0:
31,245,82116,2,0,P|14:209|16:169,1,80,10|4,0:0|3:2,0:0:0:0:
183,117,82442,5,2,0:0:0:0:
25,76,82605,1,0,3:0:0:0:
31,66,82687,1,0,3:0:0:0:
38,57,82768,2,0,P|77:56|117:53,1,80,10|8,0:0|3:0,0:0:0:0:
312,78,83095,2,0,P|308:97|306:117,1,40,10|8,0:0|0:0,0:0:0:0:
245,186,83258,2,0,P|248:205|250:225,1,40,2|0,3:2|3:0,0:0:0:0:
353,254,83421,1,8,0:0:0:0:
136,278,83747,6,0,B|284:226|263:386|412:332,1,300,6|2,3:2|0:0,0:0:0:0:
488,208,86355,6,0,L|494:165,3,40,8|8|8|8,0:0|0:0|0:0|0:0,0:0:0:0:
409,179,86682,2,0,L|415:136,3,40,8|8|8|8,0:0|3:0|3:0|3:0,0:0:0:0:
334,240,87008,6,0,L|340:283,3,40,8|8|8|8,0:0|3:0|3:0|3:0,0:0:0:0:
255,269,87335,2,0,L|261:312,3,40,8|8|8|8,0:0|3:0|3:0|3:0,0:0:0:0:
188,172,87660,6,0,L|194:129,3,40,8|8|8|8,0:0|3:0|3:0|3:0,0:0:0:0:
109,143,87987,2,0,L|115:100,3,40,8|8|8|8,0:0|3:0|3:0|3:0,0:0:0:0:
36,198,88312,5,8,0:0:0:0:
37,207,88393,1,8,3:0:0:0:
38,217,88475,1,8,3:0:0:0:
40,227,88556,1,8,3:0:0:0:
41,237,88638,2,0,L|46:276,1,40,8|8,0:0|0:0,0:0:0:0:
122,317,88801,1,0,3:0:0:0:
