osu file format v14

[General]
AudioFilename: audio.mp3
AudioLeadIn: 0
PreviewTime: 51057
Countdown: 0
SampleSet: Soft
StackLeniency: 0.7
Mode: 0
LetterboxInBreaks: 0
WidescreenStoryboard: 1

[Editor]
DistanceSpacing: 1.1
BeatDivisor: 4
GridSize: 4
TimelineZoom: 1

[Metadata]
Title:VIVID VICE (TV Size)
TitleUnicode:VIVID VICE (TV Size)
Artist:Who-ya Extended
ArtistUnicode:Who-ya Extended
Creator:Addy2607
Version:Kyutei's Insane
Source:呪術廻戦
Tags:gokugohan12468 KittyAdventure William K William_K AnreFM Oriental Anya Melfissa Anya_Melfissa kyutei Sajinn Jujutsu Kaisen Sorcery Fight anime 2 2nd second opening intro theme song japanese rock j-rock jrock rock
BeatmapID:2798276
BeatmapSetID:1350397

[Difficulty]
HPDrainRate:5.5
CircleSize:3.7
OverallDifficulty:8.2
ApproachRate:9
SliderMultiplier:1.6
SliderTickRate:1

[Events]
//Background and Video events
Video,0,"5yybp5 comp.mp4"
0,0,"86201171_p3.jpg",0,0
//Break Periods
//Storyboard Layer 0 (Background)
//Storyboard Layer 1 (Fail)
//Storyboard Layer 2 (Pass)
//Storyboard Layer 3 (Foreground)
//Storyboard Layer 4 (Overlay)
//Storyboard Sound Samples

[TimingPoints]
269,326.086956521739,4,2,1,40,1,0
269,-500,4,2,1,40,0,0
2877,-400,4,2,1,50,0,0
5486,-121.951219512195,4,2,1,50,0,0
13312,-200,4,2,1,50,0,0
14616,-108.695652173913,4,2,1,60,0,0
15758,-98.0392156862745,4,2,1,70,0,0
23747,-121.951219512195,4,2,1,60,0,0
34182,-103.092783505155,4,2,1,60,0,0
41845,-105.263157894737,4,2,1,70,0,0
43964,-105.263157894737,4,2,1,60,0,0
44616,-153.846153846154,4,2,1,50,0,0
49182,-222.222222222221,4,2,1,50,0,0
49834,-285.714285714286,4,2,1,50,0,0
51138,-285.714285714286,4,2,1,70,0,0
51790,-108.695652173913,4,2,1,70,0,0
52279,-90.9090909090909,4,2,1,80,0,1
57497,-90.9090909090909,4,2,1,70,0,1
62714,-90.9090909090909,4,2,1,80,0,1
67932,-90.9090909090909,4,2,1,70,0,1
70703,-90.9090909090909,4,2,1,60,0,0
72497,-153.846153846154,4,2,1,60,0,0
73149,-98.0392156862745,4,2,1,70,0,0
83747,-500,4,2,1,50,0,0
86355,-75.7575757575758,4,2,1,70,0,0

[Colours]
Combo1 : 255,128,64
Combo2 : 36,255,255
Combo3 : 0,0,234
Combo4 : 243,52,81

[HitObjects]
438,347,269,6,0,B|344:282|429:180|502:230|475:278,1,224,6|0,3:2|0:0,0:0:0:0:
341,358,2877,2,0,B|278:382|203:295|276:267|206:179|141:213,1,280,2|0,0:0|0:0,0:0:0:0:
34,171,5486,6,0,P|44:220|48:244,2,65.6000010009766,2|2|10,3:2|0:0|0:0,0:0:0:0:
114,51,5975,2,0,P|143:40|179:54,1,65.6000010009766,2|8,0:0|0:0,0:0:0:0:
278,175,6301,2,0,P|249:186|213:172,1,65.6000010009766,2|8,3:2|0:0,0:0:0:0:
356,24,6627,2,0,P|349:73|346:96,1,65.6000010009766,2|8,3:2|0:0,0:0:0:0:
488,210,6953,6,0,P|481:161|478:138,1,65.6000010009766,2|8,0:0|0:0,0:0:0:0:
357,268,7279,2,0,B|391:281|391:281|418:259,1,65.6000010009766,2|8,3:2|0:0,0:0:0:0:
397,119,7605,2,0,B|363:105|363:105|336:127,1,65.6000010009766,2|8,3:2|0:0,0:0:0:0:
254,233,7932,1,2,3:2:0:0:
254,233,8013,1,0,3:0:0:0:
254,233,8095,6,0,P|261:281|265:304,1,65.6000010009766,8|0,0:0|3:0,0:0:0:0:
88,221,8421,2,0,P|95:173|99:150,1,65.6000010009766,8|0,0:0|0:0,0:0:0:0:
171,93,8747,1,8,0:0:0:0:
0,180,8910,1,0,3:0:0:0:
180,259,9073,2,0,P|173:211|169:188,1,65.6000010009766,8|2,0:0|3:2,0:0:0:0:
325,103,9399,6,0,P|318:151|314:174,2,65.6000010009766,8|2|8,0:0|0:0|0:0,0:0:0:0:
441,189,9888,2,0,B|365:217|422:238|328:271,1,131.200002001953,2|2,3:2|3:2,0:0:0:0:
223,180,10377,2,0,P|230:228|234:251,1,65.6000010009766,8|0,0:0|0:0,0:0:0:0:
89,323,10703,6,0,P|96:275|100:252,2,65.6000010009766,10|2|10,0:0|3:2|0:0,0:0:0:0:
43,193,11192,2,0,B|67:168|67:168|107:186,1,65.6000010009766,2|8,0:0|0:0,0:0:0:0:
235,117,11518,2,0,B|211:92|211:92|171:110,1,65.6000010009766,2|8,3:2|0:0,0:0:0:0:
340,90,11845,6,0,P|329:140|324:159,1,65.6000010009766,2|8,3:2|0:0,0:0:0:0:
480,228,12171,2,0,P|469:178|464:159,1,65.6000010009766,2|8,0:0|0:0,0:0:0:0:
399,266,12497,1,2,3:2:0:0:
405,273,12578,1,0,3:0:0:0:
412,281,12660,2,0,P|444:313|485:324,1,65.6000010009766,8|2,0:0|3:2,0:0:0:0:
349,335,12904,1,0,3:0:0:0:
346,345,12986,2,0,P|314:377|273:388,1,65.6000010009766,8|2,0:0|0:0,0:0:0:0:
173,314,13312,6,0,B|152:259|227:194|251:257|327:196|298:141,1,240,4|0,3:2|0:0,0:0:0:0:
249,67,14453,1,0,3:0:0:0:
238,58,14535,1,0,3:0:0:0:
229,52,14616,6,0,P|198:77|208:124,1,73.599997529297,10|8,0:0|0:0,0:0:0:0:
136,194,14861,1,8,0:0:0:0:
128,201,14942,2,0,L|137:153,3,36.7999987646485,0|8|8|0,3:0|0:0|0:0|0:0,0:0:0:0:
20,216,15268,1,8,0:0:0:0:
26,223,15350,1,8,0:0:0:0:
31,229,15432,2,0,L|38:266,3,36.7999987646485,8|8|0|0,0:0|0:0|3:0|0:0,0:0:0:0:
123,322,15758,6,0,B|169:337|214:300|173:278|216:240|257:256,1,163.200000996094,6|0,3:2|3:0,0:0:0:0:
432,359,16247,1,10,0:0:0:0:
357,242,16410,1,0,3:0:0:0:
357,242,16491,1,8,3:0:0:0:
357,242,16573,2,0,P|345:295|339:330,1,81.6000004980469,2|8,3:2|0:0,0:0:0:0:
459,207,16899,1,2,3:2:0:0:
459,207,16981,1,0,3:0:0:0:
459,207,17062,1,0,3:0:0:0:
244,149,17225,6,0,P|256:202|262:237,1,81.6000004980469,14|0,0:0|3:0,0:0:0:0:
261,229,17470,1,8,3:0:0:0:
261,229,17552,1,2,3:2:0:0:
396,95,17714,2,0,B|407:76|407:76|402:55,1,40.8000002490234,8|0,0:0|0:0,0:0:0:0:
326,43,17877,2,0,B|316:59|316:59|321:81,1,40.8000002490234,2|0,3:2|3:0,0:0:0:0:
347,155,18040,1,10,0:0:0:0:
50,199,18366,6,0,B|145:234|67:263|187:307,1,163.200000996094,6|0,3:2|3:0,0:0:0:0:
328,195,18855,1,10,0:0:0:0:
170,100,19018,1,0,3:0:0:0:
170,100,19100,1,8,3:0:0:0:
170,100,19182,2,0,P|179:144|187:184,1,81.6000004980469,2|8,3:2|0:0,0:0:0:0:
321,279,19508,1,2,3:2:0:0:
321,279,19589,1,0,3:0:0:0:
321,279,19671,2,0,P|345:277|368:263,1,40.8000002490234,0|0,3:0|3:0,0:0:0:0:
450,195,19834,5,14,0:0:0:0:
434,368,19997,1,2,3:2:0:0:
434,368,20078,1,8,3:0:0:0:
434,368,20160,1,0,3:0:0:0:
350,198,20323,2,0,P|369:154|395:116,1,81.6000004980469,10|0,0:0|3:0,0:0:0:0:
238,0,20649,1,2,3:2:0:0:
279,150,20812,1,8,0:0:0:0:
83,239,20975,6,0,P|98:170|117:72,1,163.200000996094,6|0,3:2|3:0,0:0:0:0:
197,188,21464,1,10,0:0:0:0:
154,6,21627,1,0,3:0:0:0:
154,6,21709,1,8,3:0:0:0:
154,6,21790,2,0,P|118:-7|74:9,1,81.6000004980469,2|0,3:2|3:0,0:0:0:0:
198,142,22116,2,0,P|235:155|273:141,1,81.6000004980469,10|4,0:0|3:2,0:0:0:0:
385,9,22442,2,0,P|375:66|371:90,1,81.6000004980469,2|0,0:0|3:0,0:0:0:0:
511,86,22768,6,0,B|416:121|494:150|374:194,1,163.200000996094,10|10,0:0|0:0,0:0:0:0:
317,233,23176,1,8,0:0:0:0:
344,262,23258,1,8,3:0:0:0:
340,303,23339,1,8,3:0:0:0:
323,333,23421,2,0,B|238:310|302:285|206:260,1,122.40000074707,0|0,3:0|0:0,0:0:0:0:
115,241,23747,6,0,P|123:281|130:310,1,65.6000010009766,6|0,3:2|3:0,0:0:0:0:
244,171,24073,2,0,P|252:131|259:102,1,65.6000010009766,10|0,0:0|0:0,0:0:0:0:
219,29,24399,1,10,0:0:0:0:
329,158,24562,2,0,B|404:185|342:208|438:243,1,131.200002001953,0|10,3:0|0:0,0:0:0:0:
512,215,25051,6,0,P|505:262|499:289,2,65.6000010009766,2|2|10,0:0|3:2|0:0,0:0:0:0:
431,355,25540,2,0,P|400:365|370:354,1,65.6000010009766,2|0,0:0|0:0,0:0:0:0:
272,231,25866,2,0,P|301:219|332:230,1,65.6000010009766,2|8,3:2|0:0,0:0:0:0:
243,362,26192,1,2,3:2:0:0:
243,362,26274,1,0,3:0:0:0:
243,362,26355,5,0,3:0:0:0:
161,230,26518,2,0,P|175:197|189:166,1,65.6000010009766,2|8,3:2|0:0,0:0:0:0:
39,102,26845,2,0,P|60:130|80:158,1,65.6000010009766,2|8,0:0|0:0,0:0:0:0:
209,61,27171,2,0,P|173:65|139:68,1,65.6000010009766,2|0,3:2|0:0,0:0:0:0:
249,165,27497,6,0,B|333:134|271:111|346:84,1,131.200002001953,10|2,0:0|3:2,0:0:0:0:
449,40,27986,2,0,P|438:87|434:113,1,65.6000010009766,10|0,0:0|3:0,0:0:0:0:
502,237,28312,1,10,0:0:0:0:
371,165,28475,2,0,P|382:212|386:236,1,65.6000010009766,0|0,3:0|0:0,0:0:0:0:
247,335,28801,1,8,0:0:0:0:
247,335,28883,1,8,0:0:0:0:
247,335,28964,6,0,P|198:342|174:343,1,65.6000010009766,2|0,3:2|3:0,0:0:0:0:
255,171,29290,2,0,P|284:208|298:229,1,65.6000010009766,10|0,0:0|0:0,0:0:0:0:
107,239,29616,2,0,P|124:193|134:172,1,65.6000010009766,10|0,0:0|3:0,0:0:0:0:
199,256,29942,1,0,0:0:0:0:
45,164,30105,6,0,B|-10:118|56:51|99:88|77:126,1,131.200002001953,10|2,0:0|3:2,0:0:0:0:
130,178,30595,1,8,0:0:0:0:
227,58,30758,2,0,P|256:46|287:57,1,65.6000010009766,2|0,0:0|0:0,0:0:0:0:
394,203,31084,2,0,P|363:213|333:202,1,65.6000010009766,2|8,3:2|0:0,0:0:0:0:
490,89,31410,1,2,3:2:0:0:
490,89,31491,1,0,3:0:0:0:
490,89,31573,5,0,3:0:0:0:
469,264,31736,1,10,0:0:0:0:
489,103,31899,1,0,3:0:0:0:
371,223,32062,2,0,P|378:270|382:297,1,65.6000010009766,2|8,3:2|0:0,0:0:0:0:
227,350,32388,2,0,P|234:303|238:276,1,65.6000010009766,2|8,3:2|0:0,0:0:0:0:
54,196,32714,6,0,B|129:223|67:246|163:281,1,131.200002001953,2|2,3:2|3:2,0:0:0:0:
305,371,33203,1,8,0:0:0:0:
227,214,33366,1,10,0:0:0:0:
149,371,33529,1,8,0:0:0:0:
329,259,33692,2,0,B|318:190|318:190|321:187|321:187|312:114,1,131.200002001953,6|8,3:2|0:0,0:0:0:0:
242,67,34100,1,8,3:0:0:0:
236,58,34182,6,0,P|190:76|191:122,1,77.6000018353272,6|2,3:2|3:2,0:0:0:0:
227,214,34508,1,10,0:0:0:0:
91,121,34671,2,0,P|99:165|105:206,1,77.6000018353272,2|0,3:2|0:0,0:0:0:0:
13,284,34997,1,2,3:2:0:0:
49,271,35078,1,0,3:0:0:0:
77,299,35160,1,10,0:0:0:0:
151,357,35323,6,0,P|188:369|224:355,1,77.6000018353272,2|0,3:2|0:0,0:0:0:0:
350,224,35649,2,0,P|315:209|277:222,1,77.6000018353272,2|8,3:2|0:0,0:0:0:0:
433,373,35975,2,0,B|386:338|386:338|428:241,1,155.200003670654,2|2,3:2|3:2,0:0:0:0:
495,291,36382,1,0,3:0:0:0:
490,307,36464,1,10,0:0:0:0:
411,214,36627,1,2,3:2:0:0:
406,198,36709,1,0,3:0:0:0:
400,179,36790,6,0,P|385:131|374:98,2,77.6000018353272,2|2|8,3:2|3:2|0:0,0:0:0:0:
310,303,37279,2,0,B|213:268|294:241|176:199,1,155.200003670654,2|2,3:2|3:2,0:0:0:0:
108,176,37687,1,8,3:0:0:0:
113,194,37768,2,0,P|123:241|132:277,1,77.6000018353272,10|2,0:0|3:2,0:0:0:0:
277,157,38095,6,0,P|287:110|296:74,1,77.6000018353272,2|2,0:0|3:2,0:0:0:0:
285,73,38339,1,0,3:0:0:0:
274,58,38421,1,8,0:0:0:0:
403,15,38584,1,2,0:0:0:0:
421,2,38665,2,0,P|472:11|493:85,1,116.400002752991,8|0,0:0|3:0,0:0:0:0:
380,148,39073,1,10,0:0:0:0:
485,203,39236,1,2,3:2:0:0:
494,215,39318,1,0,3:0:0:0:
502,227,39399,6,0,P|492:264|484:302,1,77.6000018353272,0|2,3:0|3:2,0:0:0:0:
343,196,39725,2,0,P|381:183|418:197,1,77.6000018353272,10|2,0:0|3:2,0:0:0:0:
313,337,40051,2,0,P|276:351|238:338,1,77.6000018353272,2|0,0:0|3:0,0:0:0:0:
230,328,40296,1,8,3:0:0:0:
217,313,40377,1,10,0:0:0:0:
40,336,40540,1,2,3:2:0:0:
170,383,40703,5,2,0:0:0:0:
99,238,40866,2,0,P|111:296|118:332,1,77.6000018353272,2|8,3:2|0:0,0:0:0:0:
161,181,41192,2,0,B|162:151|133:132|133:132|29:149,1,155.200003670654,2|10,3:2|0:0,0:0:0:0:
27,158,41600,1,0,3:0:0:0:
15,172,41682,1,10,0:0:0:0:
194,40,41845,6,0,B|289:77|209:99|324:141,1,151.999995941162,6|2,3:2|3:2,0:0:0:0:
479,209,42334,1,8,0:0:0:0:
388,60,42497,2,0,P|397:115|403:151,1,75.9999979705811,2|0,3:2|0:0,0:0:0:0:
277,287,42823,2,0,P|286:232|292:196,1,75.9999979705811,2|8,3:2|0:0,0:0:0:0:
360,318,43149,6,0,P|321:368|230:360,1,151.999995941162,2|2,3:2|3:2,0:0:0:0:
115,188,43638,1,10,0:0:0:0:
93,346,43801,1,2,3:2:0:0:
117,362,43883,1,8,0:0:0:0:
138,360,43964,2,0,P|130:297|127:277,1,75.9999979705811,8|10,0:0|0:0,0:0:0:0:
289,212,44290,2,0,P|281:275|278:295,1,75.9999979705811,8|8,3:0|3:0,0:0:0:0:
408,371,44616,6,0,B|475:327|410:235|354:292|372:319,1,155.999992858887,6|0,3:2|3:0,0:0:0:0:
499,249,45268,2,0,B|488:177|488:177|492:168|492:168|478:84,1,155.999992858887,10|2,0:0|0:3,0:0:0:0:
378,20,45921,5,2,0:0:0:0:
359,40,46084,2,0,L|236:49,1,103.999995239258,2|2,3:0|3:0,0:0:0:0:
335,133,46573,2,0,L|212:142,1,103.999995239258,8|0,0:0|0:0,0:0:0:0:
109,19,47225,6,0,B|81:49|81:49|109:115,1,103.999995239258,2|0,3:2|0:0,0:0:0:0:
175,61,47714,1,0,3:0:0:0:
158,194,47877,2,0,L|-16:181,1,155.999992858887,10|2,0:0|0:3,0:0:0:0:
7,259,48529,1,2,0:0:0:0:
20,277,48692,2,0,L|143:286,1,103.999995239258,0|0,3:0|3:0,0:0:0:0:
113,360,49182,1,8,0:0:0:0:
96,375,49345,2,0,L|13:368,1,71.9999978027344,0|0,3:0|0:0,0:0:0:0:
192,306,49834,6,0,B|172:254|242:194|264:252|335:196|308:144,1,223.999993164063,6|2,3:2|0:0,0:0:0:0:
58,34,51790,5,2,3:2:0:0:
61,53,51871,1,0,3:0:0:0:
64,73,51953,1,2,3:2:0:0:
67,93,52034,1,8,3:0:0:0:
70,114,52116,2,0,L|76:153,1,36.7999987646485,8|0,0:0|0:0,0:0:0:0:
104,236,52279,6,0,B|215:193|127:166|242:120,1,176.000005371094,6|0,3:2|3:0,0:0:0:0:
466,203,52768,1,10,0:0:0:0:
391,44,52932,2,0,P|382:102|377:144,1,88.000002685547,2|0,3:2|3:0,0:0:0:0:
262,298,53258,2,0,P|253:240|248:198,1,88.000002685547,2|8,3:2|0:0,0:0:0:0:
365,287,53584,1,0,3:0:0:0:
158,364,53747,6,0,P|167:306|172:264,1,88.000002685547,2|0,3:2|3:0,0:0:0:0:
170,276,53991,1,2,3:2:0:0:
170,276,54073,1,8,0:0:0:0:
35,145,54236,2,0,P|44:203|49:245,1,88.000002685547,2|0,3:2|3:0,0:0:0:0:
195,96,54562,1,10,0:0:0:0:
25,18,54725,1,2,3:2:0:0:
143,203,54888,6,0,B|210:178|261:155|261:155|278:175|320:181,1,176.000005371094,12|2,0:0|3:2,0:0:0:0:
422,116,55377,2,0,P|413:181|410:213,1,88.000002685547,8|2,0:0|3:2,0:0:0:0:
357,62,55703,1,2,3:2:0:0:
511,173,55866,1,2,3:2:0:0:
328,229,56029,1,10,0:0:0:0:
448,78,56192,6,0,P|430:201|425:261,1,176.000005371094,2|2,3:2|3:2,0:0:0:0:
251,358,56682,1,10,0:0:0:0:
328,229,56845,2,0,P|336:277|344:324,1,88.000002685547,2|8,3:2|0:0,0:0:0:0:
234,178,57171,1,10,0:0:0:0:
425,252,57334,1,0,3:2:0:0:
251,358,57497,6,0,B|178:340|119:328|119:328|112:300|88:275,1,176.000005371094,12|2,0:0|3:2,0:0:0:0:
13,197,57986,2,0,P|21:253|26:286,1,88.000002685547,8|2,0:0|3:2,0:0:0:0:
147,146,58312,1,2,3:2:0:0:
0,76,58475,1,2,3:2:0:0:
116,243,58638,2,0,P|159:236|203:230,1,88.000002685547,10|2,0:0|3:2,0:0:0:0:
405,320,58964,5,2,3:2:0:0:
304,206,59127,2,0,P|296:262|291:295,1,88.000002685547,2|8,3:2|0:0,0:0:0:0:
464,194,59453,2,0,P|456:138|451:105,1,88.000002685547,2|0,3:2|3:0,0:0:0:0:
344,14,59779,1,2,3:2:0:0:
344,14,59861,1,0,3:0:0:0:
344,14,59942,1,8,0:0:0:0:
199,90,60105,6,0,B|89:132|177:159|72:201,1,176.000005371094,14|0,0:0|3:0,0:0:0:0:
105,39,60595,1,8,0:0:0:0:
222,186,60758,2,0,B|293:193|351:216|351:216|377:197|407:173,1,176.000005371094,0|2,3:0|3:2,0:0:0:0:
512,124,61247,2,0,P|505:174|500:221,1,88.000002685547,10|0,0:0|3:0,0:0:0:0:
396,308,61573,6,0,P|360:321|309:308,1,88.000002685547,2|0,0:0|3:0,0:0:0:0:
199,90,61899,2,0,P|236:77|286:90,1,88.000002685547,10|0,0:0|0:0,0:0:0:0:
179,281,62225,1,2,0:0:0:0:
94,149,62388,2,0,P|57:136|8:153,1,88.000002685547,2|8,3:2|0:0,0:0:0:0:
181,375,62714,6,0,B|245:361|245:361|263:325|263:325|339:310,1,176.000005371094,6|0,3:2|3:0,0:0:0:0:
479,188,63203,1,10,0:0:0:0:
277,138,63366,2,0,P|285:184|293:226,1,88.000002685547,2|0,3:2|3:0,0:0:0:0:
101,136,63692,2,0,P|109:90|117:48,1,88.000002685547,2|8,3:2|0:0,0:0:0:0:
247,143,64018,1,0,3:0:0:0:
17,217,64182,6,0,P|9:171|1:129,1,88.000002685547,2|0,3:2|3:0,0:0:0:0:
1,130,64426,1,2,3:2:0:0:
1,130,64508,1,8,0:0:0:0:
168,227,64671,1,2,3:2:0:0:
168,227,64752,1,0,3:0:0:0:
168,227,64834,2,0,P|160:273|152:315,1,88.000002685547,0|10,3:0|0:0,0:0:0:0:
277,200,65160,1,2,3:2:0:0:
258,346,65323,6,0,B|325:321|376:299|376:299|391:328|435:327,1,176.000005371094,12|2,0:0|3:2,0:0:0:0:
512,248,65812,2,0,P|503:295|495:341,1,88.000002685547,8|2,0:0|3:2,0:0:0:0:
351,216,66138,2,0,P|342:169|334:123,1,88.000002685547,2|2,3:2|3:2,0:0:0:0:
264,277,66464,1,10,0:0:0:0:
447,175,66627,1,2,3:2:0:0:
260,70,66790,6,0,P|251:117|243:163,1,88.000002685547,2|0,3:2|3:0,0:0:0:0:
81,270,67116,1,10,0:0:0:0:
151,150,67279,2,0,P|160:197|168:243,1,88.000002685547,2|8,3:2|0:0,0:0:0:0:
304,358,67605,2,0,P|313:311|321:265,1,88.000002685547,10|0,0:0|3:0,0:0:0:0:
488,133,67932,6,0,B|427:168|427:168|468:284,1,176.000005371094,12|2,0:0|3:2,0:0:0:0:
338,364,68421,2,0,P|347:317|355:271,1,88.000002685547,10|2,0:0|3:2,0:0:0:0:
270,127,68747,2,0,P|233:114|183:127,1,88.000002685547,2|2,3:2|3:2,0:0:0:0:
75,280,69073,2,0,P|111:293|162:280,1,88.000002685547,10|2,0:0|3:2,0:0:0:0:
14,183,69399,5,2,3:2:0:0:
115,370,69562,1,2,3:2:0:0:
216,183,69725,1,8,0:0:0:0:
35,353,69888,2,0,P|63:286|99:171,1,176.000005371094,2|2,3:2|3:2,0:0:0:0:
274,54,70377,1,8,0:0:0:0:
202,276,70540,1,2,3:2:0:0:
72,87,70703,5,8,2:1:0:0:
58,73,71029,5,8,2:1:0:0:
44,59,71355,5,8,2:1:0:0:
30,45,71682,5,10,2:1:0:0:
17,32,72008,5,10,2:1:0:0:
232,141,72497,6,0,B|327:177|244:202|350:240,1,155.999992858887,2|8,0:0|0:0,0:0:0:0:
489,136,73149,6,0,B|433:172|433:172|465:271,1,163.200000996094,6|0,3:2|3:0,0:0:0:0:
342,359,73638,2,0,P|352:317|362:280,1,81.6000004980469,10|0,0:0|3:0,0:0:0:0:
268,323,73883,1,8,3:0:0:0:
257,331,73964,2,0,P|267:289|278:252,1,81.6000004980469,2|8,3:2|0:0,0:0:0:0:
179,202,74290,1,2,3:2:0:0:
180,215,74371,1,0,3:0:0:0:
182,228,74453,1,0,3:0:0:0:
183,241,74534,1,0,3:0:0:0:
184,256,74616,6,0,P|142:246|104:235,1,81.6000004980469,14|0,0:0|3:0,0:0:0:0:
105,235,74861,1,0,3:0:0:0:
105,235,74942,1,2,3:2:0:0:
164,360,75105,1,8,0:0:0:0:
287,302,75269,1,2,3:2:0:0:
229,178,75432,1,10,3:2:0:0:
9,325,75758,6,0,P|24:236|36:158,1,163.200000996094,6|0,3:2|3:0,0:0:0:0:
165,76,76247,2,0,P|197:64|240:76,1,81.6000004980469,10|0,0:0|3:0,0:0:0:0:
240,75,76491,1,8,3:0:0:0:
240,75,76573,1,2,3:2:0:0:
429,181,76736,1,10,0:0:0:0:
333,50,76899,2,0,P|339:95|344:131,1,81.6000004980469,2|0,3:2|3:0,0:0:0:0:
205,284,77225,6,0,P|211:238|216:203,1,81.6000004980469,14|0,0:0|3:0,0:0:0:0:
185,181,77469,1,0,3:0:0:0:
185,181,77551,1,2,3:2:0:0:
340,287,77714,1,10,0:0:0:0:
152,361,77877,1,0,3:0:0:0:
303,181,78040,2,0,P|348:187|383:192,1,81.6000004980469,2|8,3:2|0:0,0:0:0:0:
511,68,78366,6,0,B|462:105|462:105|504:206,1,163.200000996094,6|0,3:2|3:0,0:0:0:0:
307,353,78855,1,10,0:0:0:0:
406,185,79018,1,0,3:0:0:0:
471,371,79182,1,10,0:0:0:0:
297,255,79345,1,0,3:0:0:0:
500,196,79508,1,10,0:0:0:0:
373,368,79671,1,0,3:0:0:0:
308,155,79834,6,0,P|276:143|232:155,1,81.6000004980469,14|0,0:0|3:0,0:0:0:0:
115,325,80160,2,0,P|148:337|191:325,1,81.6000004980469,10|0,0:0|3:0,0:0:0:0:
26,169,80486,1,10,0:0:0:0:
47,364,80649,1,10,0:0:0:0:
29,196,80812,1,8,0:0:0:0:
190,325,80975,6,0,B|290:289|209:267|317:228,1,163.200000996094,6|0,3:2|3:0,0:0:0:0:
484,133,81464,1,10,0:0:0:0:
397,309,81627,1,0,3:0:0:0:
397,309,81709,1,8,3:0:0:0:
397,309,81790,1,10,0:0:0:0:
311,133,81953,1,0,3:0:0:0:
494,259,82116,2,0,P|483:314|479:340,1,81.6000004980469,10|4,0:0|3:2,0:0:0:0:
374,201,82442,5,2,0:0:0:0:
291,330,82605,1,0,3:0:0:0:
291,330,82687,1,0,3:0:0:0:
291,330,82768,2,0,P|252:342|215:329,1,81.6000004980469,10|8,0:0|3:0,0:0:0:0:
62,240,83095,2,0,B|52:220|52:220|59:199,1,40.8000002490234,10|8,0:0|0:0,0:0:0:0:
136,194,83258,2,0,B|144:210|144:210|137:232,1,40.8000002490234,2|0,3:2|3:0,0:0:0:0:
105,304,83421,1,8,0:0:0:0:
242,114,83747,6,0,B|220:168|294:232|317:170|392:230|364:284,1,240,6|2,3:2|0:0,0:0:0:0:
257,350,86355,6,0,P|265:316|276:289,3,52.7999998388672,8|8|8|8,0:0|0:0|0:0|0:0,0:0:0:0:
178,325,86682,2,0,P|186:291|197:264,3,52.7999998388672,8|8|8|8,0:0|3:0|3:0|3:0,0:0:0:0:
87,207,87007,6,0,P|95:241|106:268,3,52.7999998388672,8|8|8|8,0:0|3:0|3:0|3:0,0:0:0:0:
8,232,87334,2,0,P|16:266|27:293,3,52.7999998388672,8|8|8|8,0:0|3:0|3:0|3:0,0:0:0:0:
70,119,87660,6,0,P|78:85|89:58,3,52.7999998388672,8|8|8|8,0:0|3:0|3:0|3:0,0:0:0:0:
149,144,87986,2,0,P|157:110|168:83,3,52.7999998388672,8|8|8|8,0:0|3:0|3:0|3:0,0:0:0:0:
254,37,88312,6,0,P|262:71|273:98,3,52.7999998388672,8|8|8|8,0:0|3:0|3:0|3:0,0:0:0:0:
331,14,88638,2,0,P|337:40|346:65,1,52.7999998388672,8|8,0:0|0:0,0:0:0:0:
419,17,88801,1,0,3:0:0:0:
