osu file format v14

[General]
AudioFilename: audio.mp3
AudioLeadIn: 0
PreviewTime: 51057
Countdown: 0
SampleSet: Soft
StackLeniency: 0.7
Mode: 0
LetterboxInBreaks: 0
WidescreenStoryboard: 1

[Editor]
DistanceSpacing: 1.2
BeatDivisor: 4
GridSize: 4
TimelineZoom: 1.3

[Metadata]
Title:VIVID VICE (TV Size)
TitleUnicode:VIVID VICE (TV Size)
Artist:Who-ya Extended
ArtistUnicode:Who-ya Extended
Creator:Addy2607
Version:Hard
Source:呪術廻戦
Tags:gokugohan12468 KittyAdventure William K William_K AnreFM Oriental Anya Melfissa Anya_Melfissa kyutei Sajinn Jujutsu Kaisen Sorcery Fight anime 2 2nd second opening intro theme song japanese rock j-rock jrock rock
BeatmapID:2795859
BeatmapSetID:1350397

[Difficulty]
HPDrainRate:5
CircleSize:3.6
OverallDifficulty:6
ApproachRate:8
SliderMultiplier:1.4
SliderTickRate:1

[Events]
//Background and Video events
Video,0,"5yybp5 comp.mp4"
0,0,"86201171_p3.jpg",0,0
//Break Periods
//Storyboard Layer 0 (Background)
//Storyboard Layer 1 (Fail)
//Storyboard Layer 2 (Pass)
//Storyboard Layer 3 (Foreground)
//Storyboard Layer 4 (Overlay)
//Storyboard Sound Samples

[TimingPoints]
269,326.086956521739,4,2,1,40,1,0
2877,-100,4,2,1,50,0,0
5486,-117.647058823529,4,2,1,50,0,0
13312,-117.647058823529,4,2,1,50,0,0
14616,-117.647058823529,4,2,1,60,0,0
15758,-100,4,2,1,70,0,0
23747,-117.647058823529,4,2,1,60,0,0
34182,-105.263157894737,4,2,1,60,0,0
41845,-105.263157894737,4,2,1,70,0,0
43964,-105.263157894737,4,2,1,60,0,0
44616,-125,4,2,1,50,0,0
49182,-117.647058823529,4,2,1,50,0,0
49834,-117.647058823529,4,2,1,50,0,0
51138,-117.647058823529,4,2,1,70,0,0
51790,-100,4,2,1,70,0,0
52279,-86.9565217391304,4,2,1,80,0,1
57497,-86.9565217391304,4,2,1,70,0,1
62714,-86.9565217391304,4,2,1,80,0,1
67932,-86.9565217391304,4,2,1,70,0,1
70703,-100,4,2,1,60,0,0
72497,-117.647058823529,4,2,1,60,0,0
73149,-100,4,2,1,70,0,0
83747,-200,4,2,1,50,0,0
86355,-90.9090909090909,4,2,1,70,0,0

[Colours]
Combo1 : 255,128,64
Combo2 : 36,255,255
Combo3 : 0,0,234
Combo4 : 243,52,81

[HitObjects]
254,189,269,5,6,3:2:0:0:
256,192,350,12,0,5160,0:0:0:0:
429,32,5486,6,0,L|497:29,2,59.5000011348725,2|2|10,3:2|0:0|0:0,0:0:0:0:
379,98,5975,2,0,P|322:123|268:94,1,119.000002269745,2|2,0:0|3:2,0:0:0:0:
231,28,6464,1,8,0:0:0:0:
187,98,6627,6,0,L|192:174,1,59.5000011348725,2|8,3:2|0:0,0:0:0:0:
114,190,6953,2,0,L|109:114,1,59.5000011348725,2|8,0:0|0:0,0:0:0:0:
28,112,7279,2,0,L|37:250,1,119.000002269745,2|2,3:2|3:2,0:0:0:0:
1,306,7768,1,8,0:0:0:0:
74,364,7932,1,2,3:2:0:0:
74,364,8013,1,0,3:0:0:0:
74,364,8095,5,8,0:0:0:0:
235,324,8421,2,0,L|229:249,1,59.5000011348725,8|0,0:0|0:0,0:0:0:0:
175,209,8747,1,8,0:0:0:0:
175,209,8910,1,0,3:0:0:0:
217,137,9073,1,8,0:0:0:0:
160,75,9236,6,0,P|213:57|284:85,1,119.000002269745,2|2,3:2|0:0,0:0:0:0:
338,25,9725,1,8,0:0:0:0:
416,51,9888,2,0,B|444:78|444:78|424:172,1,119.000002269745,2|2,3:2|3:2,0:0:0:0:
451,236,10377,1,8,0:0:0:0:
296,297,10703,6,0,L|301:378,2,59.5000011348725,10|2|10,0:0|3:2|0:0,0:0:0:0:
351,234,11192,2,0,L|346:153,1,59.5000011348725,2|8,0:0|0:0,0:0:0:0:
348,95,11518,1,2,3:2:0:0:
348,95,11682,1,8,0:0:0:0:
294,31,11845,6,0,P|265:21|216:35,1,59.5000011348725,2|8,3:2|0:0,0:0:0:0:
189,92,12171,2,0,P|160:102|111:88,1,59.5000011348725,2|8,0:0|0:0,0:0:0:0:
69,44,12497,2,0,L|65:-1,2,29.7500005674362,2|0|8,3:2|3:0|0:0,0:0:0:0:
18,113,12823,1,2,3:2:0:0:
18,113,12904,1,0,3:0:0:0:
18,113,12986,2,0,L|24:194,1,59.5000011348725,8|2,0:0|0:0,0:0:0:0:
32,255,13312,5,4,3:2:0:0:
348,41,14453,5,0,3:0:0:0:
348,41,14535,1,0,3:0:0:0:
348,41,14616,2,0,L|272:34,2,59.5000011348725,10|8|0,0:0|0:0|3:0,0:0:0:0:
412,93,15105,2,0,L|471:87,1,59.5000011348725,8|8,0:0|0:0,0:0:0:0:
361,160,15432,2,0,L|322:156,2,29.7500005674362,8|8|0,0:0|0:0|3:0,0:0:0:0:
431,228,15758,6,0,B|399:265|399:265|293:254,1,140,6|0,3:2|3:0,0:0:0:0:
247,322,16247,1,10,0:0:0:0:
176,264,16410,1,0,3:0:0:0:
176,264,16491,1,8,3:0:0:0:
176,264,16573,2,0,P|165:228|184:186,1,70,2|8,3:2|0:0,0:0:0:0:
244,140,16899,2,0,P|255:104|236:62,1,70,2|0,3:2|3:0,0:0:0:0:
168,26,17225,6,0,L|74:31,1,70,14|0,0:0|3:0,0:0:0:0:
27,87,17551,2,0,L|36:184,1,70,2|8,3:2|0:0,0:0:0:0:
5,243,17877,1,2,3:2:0:0:
5,243,18040,1,10,0:0:0:0:
114,351,18366,6,0,B|141:317|141:317|259:322,1,140,6|0,3:2|3:0,0:0:0:0:
313,371,18855,1,10,0:0:0:0:
378,307,19018,1,0,3:0:0:0:
378,307,19100,1,8,3:0:0:0:
378,307,19182,2,0,L|382:223,1,70,2|8,3:2|0:0,0:0:0:0:
456,186,19508,2,0,L|460:102,1,70,2|0,3:2|3:0,0:0:0:0:
421,33,19834,5,14,0:0:0:0:
421,33,19997,2,0,P|389:22|342:39,1,70,2|0,3:2|3:0,0:0:0:0:
266,5,20323,2,0,L|274:91,1,70,10|0,0:0|3:0,0:0:0:0:
316,154,20649,2,0,L|230:162,1,70,2|8,3:2|0:0,0:0:0:0:
178,240,20975,6,0,P|118:278|54:246,1,140,6|0,3:2|3:0,0:0:0:0:
4,180,21464,2,0,L|4:104,1,70,10|0,0:0|3:0,0:0:0:0:
4,19,21790,1,2,3:2:0:0:
81,66,21953,2,0,L|81:103,2,35,0|0|10,3:0|0:0|0:0,0:0:0:0:
175,21,22279,6,0,B|230:23|230:23|256:52|256:52|318:55,1,140,4|0,3:2|3:0,0:0:0:0:
378,4,22768,1,10,0:0:0:0:
378,4,22932,1,0,3:0:0:0:
445,64,23095,1,10,0:0:0:0:
445,64,23176,1,8,0:0:0:0:
445,64,23258,2,0,L|442:147,1,70,8|0,3:0|3:0,0:0:0:0:
393,293,23747,6,0,P|438:264|506:284,2,119.000002269745,6|10|10,3:2|0:0|0:0,0:0:0:0:
346,361,24562,2,0,L|211:357,1,119.000002269745,0|10,3:0|0:0,0:0:0:0:
144,350,25051,6,0,L|147:287,2,59.5000011348725,2|2|10,0:0|3:2|0:0,0:0:0:0:
62,365,25540,2,0,L|68:231,1,119.000002269745,2|2,0:0|3:2,0:0:0:0:
17,179,26029,1,8,0:0:0:0:
71,110,26192,1,2,3:2:0:0:
71,110,26274,1,0,3:0:0:0:
71,110,26355,6,0,L|135:110,2,59.5000011348725,0|2|8,3:0|3:2|0:0,0:0:0:0:
37,33,26845,2,0,L|157:33,1,119.000002269745,2|2,0:0|3:2,0:0:0:0:
310,33,27497,6,0,B|343:58|343:58|331:140,1,119.000002269745,10|2,0:0|3:2,0:0:0:0:
267,177,27986,2,0,L|207:173,1,59.5000011348725,10|0,0:0|3:0,0:0:0:0:
326,249,28312,2,0,L|403:245,2,59.5000011348725,10|0|0,0:0|3:0|0:0,0:0:0:0:
275,315,28801,1,8,0:0:0:0:
275,315,28883,1,8,0:0:0:0:
275,315,28964,6,0,L|155:312,2,119.000002269745,2|10|10,3:2|0:0|0:0,0:0:0:0:
334,372,29779,2,0,B|388:345|388:345|467:363,1,119.000002269745,0|10,3:0|0:0,0:0:0:0:
503,298,30268,6,0,L|499:219,1,59.5000011348725,0|2,0:0|3:2,0:0:0:0:
442,178,30595,1,8,0:0:0:0:
500,118,30758,2,0,P|453:92|380:126,1,119.000002269745,2|2,0:0|3:2,0:0:0:0:
338,172,31247,1,8,0:0:0:0:
283,115,31410,1,2,3:2:0:0:
283,115,31491,1,0,3:0:0:0:
283,115,31573,6,0,L|287:42,2,59.5000011348725,0|10|0,3:0|0:0|3:0,0:0:0:0:
216,165,32062,2,0,L|223:291,1,119.000002269745,2|2,3:2|3:2,0:0:0:0:
227,366,32551,1,8,0:0:0:0:
135,339,32714,6,0,L|132:262,1,59.5000011348725,2|0,3:2|0:0,0:0:0:0:
64,232,33040,2,0,L|61:155,1,59.5000011348725,2|8,3:2|0:0,0:0:0:0:
6,110,33366,1,10,0:0:0:0:
59,46,33529,1,8,0:0:0:0:
118,104,33692,1,6,3:2:0:0:
248,65,34018,1,8,0:0:0:0:
248,65,34100,1,8,3:0:0:0:
248,65,34182,6,0,L|246:-7,2,66.4999982242585,6|2|10,3:2|3:2|0:0,0:0:0:0:
304,130,34671,2,0,B|306:183|306:183|289:205|289:205|291:258,1,132.999996448517,2|2,3:2|3:2,0:0:0:0:
297,343,35160,1,10,0:0:0:0:
388,360,35323,6,0,L|384:281,1,66.4999982242585,2|0,3:2|0:0,0:0:0:0:
452,229,35649,2,0,L|448:150,1,66.4999982242585,2|8,3:2|0:0,0:0:0:0:
442,69,35975,2,0,P|380:40|317:76,1,132.999996448517,2|2,3:2|3:2,0:0:0:0:
298,103,36383,1,0,3:0:0:0:
298,103,36464,1,10,0:0:0:0:
241,25,36627,1,2,3:2:0:0:
241,25,36709,1,0,3:0:0:0:
241,25,36790,6,0,L|171:26,1,66.4999982242585,2|2,3:2|3:2,0:0:0:0:
81,25,37116,1,8,0:0:0:0:
43,110,37279,2,0,L|182:106,1,132.999996448517,2|2,3:2|3:2,0:0:0:0:
232,186,37768,1,10,0:0:0:0:
232,186,37932,1,2,3:2:0:0:
170,255,38095,6,0,L|54:258,2,99.7499973363877,2|0|2,0:0|3:0|0:0,0:0:0:0:
203,291,38665,2,0,P|246:274|304:305,1,99.7499973363877,8|0,0:0|3:0,0:0:0:0:
346,369,39073,1,10,0:0:0:0:
423,315,39236,1,2,3:2:0:0:
423,315,39317,1,0,3:0:0:0:
423,315,39399,6,0,P|416:274|425:239,1,66.4999982242585,0|2,3:0|3:2,0:0:0:0:
468,169,39725,2,0,P|475:128|466:93,1,66.4999982242585,10|2,0:0|3:2,0:0:0:0:
438,16,40051,2,0,P|374:54|306:37,1,132.999996448517,2|10,0:0|0:0,0:0:0:0:
237,0,40540,1,2,3:2:0:0:
195,83,40703,6,0,P|165:76|117:90,2,66.4999982242585,2|2|8,0:0|3:2|0:0,0:0:0:0:
271,136,41192,2,0,L|271:283,1,132.999996448517,2|10,3:2|0:0,0:0:0:0:
274,319,41600,1,0,3:0:0:0:
274,319,41682,1,10,0:0:0:0:
188,356,41845,6,0,P|153:320|66:337,1,132.999996448517,6|2,3:2|3:2,0:0:0:0:
1,383,42334,1,8,0:0:0:0:
1,289,42497,2,0,L|1:205,1,66.4999982242585,2|0,3:2|0:0,0:0:0:0:
49,144,42823,1,2,3:2:0:0:
49,144,42986,1,8,0:0:0:0:
0,64,43149,6,0,L|143:64,1,132.999996448517,2|2,3:2|3:2,0:0:0:0:
202,1,43638,1,10,0:0:0:0:
249,81,43801,2,0,P|304:110|373:77,1,132.999996448517,2|10,3:2|0:0,0:0:0:0:
423,12,44290,1,8,3:0:0:0:
502,133,44616,6,0,L|507:247,1,112,6|0,3:2|0:0,0:0:0:0:
470,322,45105,1,0,3:0:0:0:
470,322,45268,2,0,B|416:301|416:301|357:322,1,112,10|0,0:0|0:0,0:0:0:0:
249,362,45921,6,0,B|253:241|253:241|224:282,1,168,2|2,0:0|3:0,0:0:0:0:
159,330,46573,2,0,P|104:347|61:303,1,112,8|0,0:0|0:0,0:0:0:0:
131,211,47225,6,0,P|153:164|132:97,1,112,2|0,3:2|0:0,0:0:0:0:
109,34,47714,1,0,3:0:0:0:
109,34,47877,2,0,B|173:26|173:26|204:50|204:50|271:42,1,168,10|2,0:0|0:3,0:0:0:0:
342,91,48529,5,2,0:0:0:0:
342,91,48692,2,0,P|319:140|341:200,1,112,0|0,3:0|3:0,0:0:0:0:
368,281,49182,1,8,0:0:0:0:
368,281,49345,2,0,L|246:281,1,119.000002269745,0|0,3:0|0:0,0:0:0:0:
157,278,49834,5,6,3:2:0:0:
256,192,49915,12,2,51138,0:0:0:0:
437,63,51790,5,2,3:2:0:0:
437,63,51872,1,0,3:0:0:0:
437,63,51953,2,0,L|436:20,2,35,2|8|8,3:2|3:0|0:0,0:0:0:0:
507,116,52279,6,0,L|346:110,1,161.000003070831,6|0,3:2|3:0,0:0:0:0:
289,41,52768,1,10,0:0:0:0:
212,85,52932,2,0,P|225:118|211:176,1,80.5000015354157,2|0,3:2|3:0,0:0:0:0:
158,226,53258,2,0,P|145:259|159:317,1,80.5000015354157,2|8,3:2|0:0,0:0:0:0:
219,357,53584,1,0,3:0:0:0:
219,357,53747,6,0,L|345:351,2,120.750002303124,2|2|2,3:2|3:2|3:2,0:0:0:0:
241,274,54399,1,0,3:0:0:0:
241,274,54562,2,0,L|335:269,1,80.5000015354157,10|2,0:0|3:2,0:0:0:0:
416,312,54888,6,0,B|456:282|456:282|446:163,1,161.000003070831,12|2,0:0|3:2,0:0:0:0:
493,96,55377,1,8,0:0:0:0:
493,96,55540,1,2,3:2:0:0:
439,32,55703,2,0,L|346:30,1,80.5000015354157,2|2,3:2|3:2,0:0:0:0:
296,92,56029,1,10,0:0:0:0:
246,18,56192,6,0,B|186:19|186:19|162:46|162:46|97:47,1,161.000003070831,2|2,3:2|3:2,0:0:0:0:
30,105,56682,1,10,0:0:0:0:
96,171,56845,1,2,3:2:0:0:
96,171,57008,2,0,L|184:168,1,80.5000015354157,8|10,0:0|0:0,0:0:0:0:
12,235,57497,6,0,B|18:349|18:349|30:314|61:295,1,161.000003070831,12|2,0:0|3:2,0:0:0:0:
117,355,57986,2,0,P|153:370|205:347,1,80.5000015354157,8|2,0:0|3:2,0:0:0:0:
262,306,58312,2,0,L|262:207,1,80.5000015354157,2|2,3:2|3:2,0:0:0:0:
211,152,58638,1,10,0:0:0:0:
211,152,58801,1,2,3:2:0:0:
260,78,58964,6,0,L|428:78,1,161.000003070831,2|8,3:2|0:0,0:0:0:0:
484,139,59453,2,0,P|467:182|484:238,1,80.5000015354157,2|0,3:2|3:0,0:0:0:0:
511,294,59779,1,2,3:2:0:0:
511,294,59861,1,0,3:0:0:0:
511,294,59942,1,8,0:0:0:0:
424,352,60105,6,0,B|397:317|397:317|270:318,1,161.000003070831,14|0,0:0|3:0,0:0:0:0:
210,373,60595,1,8,0:0:0:0:
130,334,60758,2,0,B|93:323|52:338|52:338|63:297|41:245,1,161.000003070831,0|2,3:0|3:2,0:0:0:0:
8,178,61247,1,10,0:0:0:0:
8,178,61410,1,0,3:0:0:0:
52,101,61573,6,0,B|93:97|122:134|122:134|158:98|208:107,1,161.000003070831,2|10,0:0|0:0,0:0:0:0:
368,134,62225,2,0,L|366:227,1,80.5000015354157,2|2,0:0|3:2,0:0:0:0:
417,286,62551,1,8,0:0:0:0:
328,341,62714,6,0,B|263:338|263:338|237:365|237:365|165:363,1,161.000003070831,6|0,3:2|3:0,0:0:0:0:
92,382,63203,1,10,0:0:0:0:
26,322,63366,2,0,P|45:294|39:232,1,80.5000015354157,2|0,3:2|3:0,0:0:0:0:
19,163,63692,2,0,P|0:135|6:73,1,80.5000015354157,2|8,3:2|0:0,0:0:0:0:
45,14,64018,1,0,3:0:0:0:
103,81,64182,6,0,L|231:78,2,120.750002303124,2|2|2,3:2|3:2|3:2,0:0:0:0:
127,169,64834,2,0,L|216:166,1,80.5000015354157,0|10,3:0|0:0,0:0:0:0:
264,235,65160,1,2,3:2:0:0:
354,182,65323,6,0,L|348:6,1,161.000003070831,12|2,0:0|3:2,0:0:0:0:
434,42,65812,2,0,L|437:149,1,80.5000015354157,8|2,0:0|3:2,0:0:0:0:
502,181,66138,2,0,L|505:288,1,80.5000015354157,2|2,3:2|3:2,0:0:0:0:
511,349,66464,1,10,0:0:0:0:
431,310,66627,1,2,3:2:0:0:
431,310,66790,6,0,B|350:295|368:383|263:345,1,161.000003070831,2|10,3:2|0:0,0:0:0:0:
211,298,67279,2,0,L|211:207,1,80.5000015354157,2|8,3:2|0:0,0:0:0:0:
275,156,67605,1,10,0:0:0:0:
138,42,67932,6,0,P|71:9|-7:58,1,161.000003070831,12|2,0:0|3:2,0:0:0:0:
28,129,68421,2,0,P|51:160|51:208,1,80.5000015354157,10|2,0:0|3:2,0:0:0:0:
7,277,68747,1,2,3:2:0:0:
7,277,68910,1,2,3:2:0:0:
61,346,69073,2,0,L|157:342,1,80.5000015354157,10|2,0:0|3:2,0:0:0:0:
208,288,69399,5,2,3:2:0:0:
208,288,69562,2,0,B|268:292|268:292|295:329|295:329|361:334,1,161.000003070831,2|2,3:2|3:2,0:0:0:0:
427,377,70051,1,0,0:0:0:0:
483,308,70214,2,0,L|480:210,1,80.5000015354157,2|8,3:2|0:0,0:0:0:0:
476,139,70540,1,2,3:2:0:0:
476,139,70703,6,0,P|429:106|346:140,1,140,8|8,2:1|2:1,0:0:0:0:
265,235,71355,1,8,2:1:0:0:
163,137,71682,1,10,2:1:0:0:
257,34,72008,1,10,2:1:0:0:
257,34,72497,6,0,B|226:73|226:73|163:29|93:76,1,178.500003404617,2|8,0:0|0:0,0:0:0:0:
22,30,73149,6,0,L|29:182,1,140,6|0,3:2|3:0,0:0:0:0:
76,247,73638,1,10,0:0:0:0:
40,335,73801,1,0,3:0:0:0:
40,335,73883,1,8,3:0:0:0:
40,335,73964,2,0,L|115:331,1,70,2|8,3:2|0:0,0:0:0:0:
185,280,74290,2,0,L|260:276,1,70,2|0,3:2|3:0,0:0:0:0:
334,320,74616,6,0,L|324:170,1,140,14|2,0:0|3:2,0:0:0:0:
263,113,75105,1,8,0:0:0:0:
313,38,75268,1,2,3:2:0:0:
313,38,75432,1,10,3:2:0:0:
457,92,75758,6,0,B|430:154|430:154|462:239,1,140,6|0,3:2|3:0,0:0:0:0:
503,299,76247,1,10,0:0:0:0:
421,343,76410,1,0,3:0:0:0:
425,347,76491,1,8,3:0:0:0:
429,351,76573,2,0,L|340:351,1,70,2|10,3:2|0:0,0:0:0:0:
291,290,76899,1,2,3:2:0:0:
202,345,77062,1,0,3:0:0:0:
202,345,77143,1,0,3:0:0:0:
202,345,77225,6,0,P|145:317|66:349,1,140,14|2,0:0|3:2,0:0:0:0:
15,270,77714,2,0,L|11:182,1,70,10|0,0:0|3:0,0:0:0:0:
64,125,78040,2,0,L|152:121,1,70,2|8,3:2|0:0,0:0:0:0:
196,206,78366,6,0,P|259:235|323:196,1,140,6|0,3:2|3:0,0:0:0:0:
390,150,78855,2,0,L|387:57,1,70,10|0,0:0|3:0,0:0:0:0:
333,6,79182,2,0,L|240:9,1,70,10|0,0:0|3:0,0:0:0:0:
204,78,79508,1,10,0:0:0:0:
204,78,79671,1,0,3:0:0:0:
135,18,79834,6,0,P|101:9|51:30,1,70,14|0,0:0|3:0,0:0:0:0:
2,80,80160,2,0,L|6:162,1,70,10|0,0:0|3:0,0:0:0:0:
72,211,80486,2,0,L|159:206,1,70,10|10,0:0|0:0,0:0:0:0:
42,306,80975,6,0,L|195:297,1,140,6|0,3:2|3:0,0:0:0:0:
238,235,81464,1,10,0:0:0:0:
299,316,81627,1,0,3:0:0:0:
299,316,81709,1,8,3:0:0:0:
299,316,81790,2,0,L|390:311,1,70,10|0,0:0|3:0,0:0:0:0:
454,343,82116,2,0,L|449:252,1,70,10|4,0:0|3:2,0:0:0:0:
497,195,82442,6,0,L|494:106,1,70,2|0,0:0|3:0,0:0:0:0:
463,44,82768,1,10,0:0:0:0:
463,44,82932,1,8,3:0:0:0:
382,74,83095,1,10,0:0:0:0:
382,74,83176,1,8,0:0:0:0:
382,74,83258,2,0,L|387:230,1,140,2|0,3:2|0:0,0:0:0:0:
333,287,83747,5,6,3:2:0:0:
256,192,83828,12,0,86029,0:0:0:0:
441,359,86355,5,8,0:0:0:0:
441,359,86437,1,8,0:0:0:0:
441,359,86518,1,8,0:0:0:0:
431,274,86682,2,0,L|427:176,1,77.0000023498536,8|8,0:0|3:0,0:0:0:0:
428,120,87008,1,8,0:0:0:0:
428,120,87089,1,8,3:0:0:0:
428,120,87171,1,8,3:0:0:0:
418,35,87334,2,0,L|320:39,1,77.0000023498536,8|8,0:0|3:0,0:0:0:0:
264,47,87660,5,8,0:0:0:0:
264,47,87741,1,8,3:0:0:0:
264,47,87823,1,8,3:0:0:0:
269,131,87986,2,0,L|273:229,1,77.0000023498536,8|8,0:0|3:0,0:0:0:0:
279,292,88312,1,8,0:0:0:0:
221,353,88475,1,8,3:0:0:0:
160,293,88638,1,8,0:0:0:0:
101,354,88801,1,0,3:0:0:0:
