osu file format v14

[General]
AudioFilename: audio.mp3
AudioLeadIn: 0
PreviewTime: 51365
Countdown: 0
SampleSet: Soft
StackLeniency: 0.7
Mode: 3
LetterboxInBreaks: 0
SpecialStyle: 0
WidescreenStoryboard: 1

[Editor]
DistanceSpacing: 0.2
BeatDivisor: 4
GridSize: 32
TimelineZoom: 1

[Metadata]
Title:VIVID VICE (TV Size)
TitleUnicode:VIVID VICE (TV Size)
Artist:Who-ya Extended
ArtistUnicode:Who-ya Extended
Creator:[RT]Alleyne
Version:Normal
Source:呪術廻戦
Tags:ExNeko ML-ysg opening op2 Anime Japanese jujutsu kaisen j-pop j-rock Sorcery Fight pop rock jrock jpop crunchyroll sony music sme records
BeatmapID:2926511
BeatmapSetID:1414338

[Difficulty]
HPDrainRate:7.5
CircleSize:4
OverallDifficulty:7.5
ApproachRate:5
SliderMultiplier:1.4
SliderTickRate:1

[Events]
//Background and Video events
0,0,"BG.jpg",0,0
Video,0,"OP2.mp4"
//Break Periods
//Storyboard Layer 0 (Background)
//Storyboard Layer 1 (Fail)
//Storyboard Layer 2 (Pass)
//Storyboard Layer 3 (Foreground)
//Storyboard Layer 4 (Overlay)
//Storyboard Sound Samples
Sample,15822,0,"Hihat.wav",60
Sample,20713,0,"Tom2.wav",60
Sample,23648,0,"Hihat.wav",60
Sample,34572,0,"Tom2.wav",60
Sample,34898,0,"Tom3.wav",60
Sample,35876,0,"Tom3.wav",60
Sample,37180,0,"Tom2.wav",60
Sample,37506,0,"Tom3.wav",60
Sample,38485,0,"Tom3.wav",60
Sample,39137,0,"Tom3.wav",60
Sample,39463,0,"Hihat.wav",60
Sample,39789,0,"Tom2.wav",60
Sample,40115,0,"Tom3.wav",60
Sample,41093,0,"Tom3.wav",60
Sample,42072,0,"Hihat.wav",60
Sample,44191,0,"Hihat.wav",60
Sample,45332,0,"Ride.wav",30
Sample,46311,0,"Ride.wav",30
Sample,46637,0,"Ride.wav",30
Sample,48919,0,"Ride.wav",30
Sample,49245,0,"Ride.wav",30
Sample,53322,0,"Hihat.wav",60
Sample,53974,0,"Hihat.wav",60
Sample,55930,0,"Hihat.wav",60
Sample,56582,0,"Hihat.wav",60
Sample,58376,0,"Tom3.wav",60
Sample,58539,0,"Hihat.wav",60
Sample,59191,0,"Hihat.wav",60
Sample,59843,0,"Hihat.wav",60
Sample,60822,0,"Hihat.wav",60
Sample,61148,0,"Hihat.wav",60
Sample,61474,0,"Hihat.wav",60
Sample,62452,0,"Hihat.wav",60
Sample,63756,0,"Hihat.wav",60
Sample,64409,0,"Hihat.wav",60
Sample,65061,0,"Hihat.wav",60
Sample,66039,0,"Tom2.wav",60
Sample,66365,0,"Hihat.wav",60
Sample,67017,0,"Hihat.wav",60
Sample,67343,0,"Hihat.wav",60
Sample,68811,0,"Tom3.wav",60
Sample,68974,0,"Hihat.wav",60
Sample,69626,0,"Hihat.wav",60
Sample,70278,0,"Hihat.wav",60
Sample,78104,0,"Tom2.wav",60
Sample,81528,0,"Tom3.wav",60

[TimingPoints]
496,326.086956521739,4,2,1,60,1,0
52506,-100,4,2,1,60,0,1
70767,-100,4,2,1,60,0,0

[HitObjects]
64,192,496,5,2,0:0:0:0:
448,192,496,128,0,3104:0:0:0:60:Hihat.wav
64,192,3104,128,4,5713:0:0:0:0:
320,192,5713,1,2,0:0:0:0:
448,192,5713,1,4,0:0:0:0:
192,192,5876,1,0,0:0:0:0:
64,192,6039,1,8,0:0:0:0:
320,192,6039,1,0,0:0:0:0:
64,192,6365,1,8,0:0:0:0:
192,192,6365,1,0,0:0:0:0:
320,192,6528,1,2,0:0:0:0:
192,192,6691,1,8,0:0:0:0:
448,192,6691,1,0,0:0:0:0:
64,192,6854,1,2,0:0:0:0:
320,192,7017,1,8,0:0:0:0:
448,192,7017,1,0,0:0:0:0:
64,192,7343,1,8,0:0:0:0:
320,192,7343,1,0,0:0:0:0:
192,192,7506,1,2,0:0:0:0:
320,192,7669,1,8,0:0:0:0:
448,192,7669,1,0,0:0:0:0:
64,192,7832,1,2,0:0:0:0:
192,192,7995,1,8,0:0:0:0:
448,192,7995,1,0,0:0:0:0:
320,192,8159,128,2,8322:0:0:0:0:
64,192,8322,1,8,0:0:0:0:
192,192,8322,1,0,0:0:0:0:
448,192,8485,1,2,0:0:0:0:
64,192,8648,1,8,0:0:0:0:
320,192,8648,1,0,0:0:0:0:
192,192,8974,1,8,0:0:0:0:
320,192,8974,1,0,0:0:0:0:
448,192,9137,1,2,0:0:0:0:
64,192,9300,1,8,0:0:0:0:
192,192,9300,1,0,0:0:0:0:
320,192,9463,1,2,0:0:0:0:
64,192,9626,1,8,0:0:0:0:
448,192,9626,1,0,0:0:0:0:
192,192,9952,1,8,0:0:0:0:
448,192,9952,1,0,0:0:0:0:
320,192,10115,1,2,0:0:0:0:
64,192,10278,1,8,0:0:0:0:
192,192,10278,1,0,0:0:0:0:
448,192,10441,1,2,0:0:0:0:
64,192,10604,1,8,0:0:0:0:
320,192,10604,1,0,0:0:0:0:
192,192,10930,1,2,0:0:0:0:
320,192,10930,1,8,0:0:0:0:
448,192,11093,1,2,0:0:0:0:
64,192,11256,1,8,0:0:0:0:
192,192,11256,1,0,0:0:0:0:
64,192,11582,1,8,0:0:0:0:
320,192,11582,1,0,0:0:0:0:
192,192,11745,1,2,0:0:0:0:
320,192,11909,1,8,0:0:0:0:
448,192,11909,1,0,0:0:0:0:
64,192,12072,1,2,0:0:0:0:
192,192,12235,1,8,0:0:0:0:
448,192,12235,1,0,0:0:0:0:
64,192,12561,1,8,0:0:0:0:
192,192,12561,1,0,0:0:0:0:
448,192,12724,128,2,12887:0:0:0:0:
64,192,12887,1,8,0:0:0:0:
320,192,12887,1,0,0:0:0:0:
192,192,13050,128,2,13213:0:0:0:0:
320,192,13213,1,8,0:0:0:0:
448,192,13213,1,4,0:0:0:0:
64,192,13539,1,2,0:0:0:0:
448,192,13539,128,0,14680:0:0:0:0:
64,192,14680,1,2,0:0:0:0:
192,192,14762,1,2,0:0:0:0:
320,192,14843,1,8,0:0:0:0:
448,192,14843,1,0,0:0:0:0:
192,192,15006,1,0,0:0:0:60:Tom2.wav
64,192,15088,1,0,0:0:0:60:Tom2.wav
448,192,15169,1,2,0:0:0:0:
320,192,15251,1,0,0:0:0:60:Tom3.wav
192,192,15332,1,8,0:0:0:0:
64,192,15495,1,0,0:0:0:60:Tom1.wav
448,192,15577,1,2,0:0:0:0:
192,192,15659,1,0,0:0:0:60:Tom3.wav
320,192,15740,1,2,0:0:0:0:
64,192,15822,1,8,0:0:0:0:
320,192,15985,1,2,0:0:0:0:
448,192,15985,128,4,16311:0:0:0:0:
64,192,16311,1,2,0:0:0:0:
192,192,16474,1,8,0:0:0:0:
320,192,16474,1,4,0:0:0:0:
448,192,16637,1,2,0:0:0:0:
64,192,16800,1,2,0:0:0:0:
192,192,16800,1,4,0:0:0:0:
320,192,16963,1,8,0:0:0:0:
64,192,17126,1,2,0:0:0:0:
448,192,17126,1,0,0:0:0:0:
192,192,17289,1,2,0:0:0:0:
320,192,17452,1,8,0:0:0:0:
448,192,17452,1,4,0:0:0:0:
64,192,17615,1,2,0:0:0:0:
192,192,17778,1,2,0:0:0:0:
320,192,17778,1,0,0:0:0:0:
448,192,17941,1,12,0:0:0:0:
64,192,18104,1,2,0:0:0:0:
192,192,18104,1,0,0:0:0:0:
320,192,18267,1,10,0:0:0:0:
448,192,18267,1,4,0:0:0:0:
64,192,18593,128,2,18919:0:0:0:0:
192,192,18593,1,4,0:0:0:0:
320,192,18919,1,2,0:0:0:0:
448,192,18919,1,0,0:0:0:60:Tom3.wav
64,192,19082,1,8,0:0:0:0:
192,192,19082,1,4,0:0:0:0:
448,192,19245,1,2,0:0:0:0:
192,192,19409,1,2,0:0:0:0:
320,192,19409,1,4,0:0:0:0:
64,192,19572,1,8,0:0:0:0:
320,192,19735,1,2,0:0:0:0:
448,192,19735,1,0,0:0:0:0:
192,192,19898,1,2,0:0:0:0:
64,192,20061,1,8,0:0:0:0:
448,192,20061,1,4,0:0:0:0:
320,192,20224,1,2,0:0:0:0:
192,192,20387,1,2,0:0:0:0:
64,192,20550,1,8,0:0:0:0:
448,192,20550,1,4,0:0:0:0:
320,192,20713,1,2,0:0:0:0:
192,192,20876,1,2,0:0:0:0:
448,192,20876,1,0,0:0:0:60:Tom2.wav
64,192,21039,1,8,0:0:0:0:
192,192,21202,128,2,21528:0:0:0:0:
320,192,21202,1,4,0:0:0:0:
448,192,21528,1,2,0:0:0:0:
192,192,21691,1,8,0:0:0:0:
320,192,21691,1,0,0:0:0:0:
64,192,21854,1,2,0:0:0:0:
320,192,22017,1,8,0:0:0:0:
448,192,22017,1,0,0:0:0:0:
192,192,22180,1,2,0:0:0:0:
64,192,22343,1,8,0:0:0:0:
448,192,22343,1,0,0:0:0:0:
192,192,22506,1,2,0:0:0:0:
320,192,22506,1,4,0:0:0:0:
320,192,22832,1,2,0:0:0:0:
64,192,22995,1,8,0:0:0:0:
192,192,22995,1,0,0:0:0:60:Tom2.wav
448,192,23322,1,8,0:0:0:0:
320,192,23403,1,8,0:0:0:0:
192,192,23485,1,2,0:0:0:0:
64,192,23566,1,0,0:0:0:0:
448,192,23648,128,8,23974:0:0:0:0:
64,192,23974,1,2,0:0:0:0:
192,192,23974,1,4,0:0:0:0:
320,192,24137,1,2,0:0:0:0:
192,192,24300,1,8,0:0:0:0:
448,192,24300,1,0,0:0:0:0:
320,192,24626,1,8,0:0:0:0:
448,192,24626,1,0,0:0:0:0:
192,192,24789,1,2,0:0:0:0:
64,192,25115,1,8,0:0:0:0:
320,192,25115,1,0,0:0:0:0:
448,192,25441,1,2,0:0:0:0:
192,192,25604,1,8,0:0:0:0:
320,192,25604,1,0,0:0:0:0:
64,192,26093,1,2,0:0:0:0:
192,192,26256,1,8,0:0:0:0:
320,192,26256,1,0,0:0:0:0:
448,192,26419,1,2,0:0:0:0:
192,192,26582,1,2,0:0:0:0:
64,192,26745,1,2,0:0:0:0:
320,192,26909,1,8,0:0:0:0:
448,192,26909,1,0,0:0:0:0:
64,192,27235,1,8,0:0:0:0:
192,192,27235,1,0,0:0:0:0:
320,192,27398,1,2,0:0:0:0:
192,192,27724,1,8,0:0:0:0:
320,192,27724,1,0,0:0:0:0:
448,192,28050,1,2,0:0:0:0:
64,192,28213,1,8,0:0:0:0:
192,192,28213,1,0,0:0:0:0:
320,192,28376,1,2,0:0:0:0:
192,192,28539,1,8,0:0:0:0:
448,192,28539,1,0,0:0:0:0:
64,192,28702,1,2,0:0:0:0:
192,192,29028,1,8,0:0:0:0:
64,192,29110,1,8,0:0:0:0:
320,192,29191,1,2,0:0:0:0:
448,192,29354,1,2,0:0:0:0:
64,192,29517,1,8,0:0:0:0:
192,192,29517,1,0,0:0:0:0:
192,192,29843,1,8,0:0:0:0:
320,192,29843,1,0,0:0:0:0:
448,192,30006,1,2,0:0:0:0:
64,192,30332,1,8,0:0:0:0:
192,192,30332,1,0,0:0:0:0:
320,192,30659,1,2,0:0:0:0:
192,192,30822,1,8,0:0:0:0:
448,192,30822,1,0,0:0:0:0:
320,192,31311,1,2,0:0:0:0:
64,192,31474,1,8,0:0:0:0:
192,192,31474,1,0,0:0:0:0:
448,192,31637,1,2,0:0:0:0:
192,192,31800,1,2,0:0:0:0:
64,192,31963,1,8,0:0:0:0:
320,192,31963,1,0,0:0:0:0:
448,192,32126,1,2,0:0:0:0:
64,192,32289,1,2,0:0:0:0:
192,192,32452,1,8,0:0:0:0:
320,192,32452,1,0,0:0:0:0:
448,192,32615,1,2,0:0:0:0:
64,192,32778,1,8,0:0:0:0:
192,192,32778,1,0,0:0:0:0:
448,192,32941,1,2,0:0:0:0:
64,192,33267,1,2,0:0:0:0:
320,192,33430,1,8,0:0:0:0:
448,192,33430,1,0,0:0:0:0:
64,192,33593,1,8,0:0:0:0:
192,192,33593,1,4,0:0:0:0:
320,192,33756,1,8,0:0:0:0:
448,192,33756,1,0,0:0:0:0:
64,192,33919,128,2,34409:0:0:0:0:
192,192,33919,1,4,0:0:0:0:
320,192,34409,1,6,0:0:0:0:
192,192,34572,1,2,0:0:0:0:
64,192,34735,1,8,0:0:0:0:
320,192,34735,1,0,0:0:0:0:
448,192,34898,1,2,0:0:0:0:
64,192,35224,1,2,0:0:0:0:
192,192,35387,1,8,0:0:0:0:
320,192,35387,1,0,0:0:0:0:
448,192,35550,1,2,0:0:0:0:
320,192,35876,1,2,0:0:0:0:
64,192,36039,1,8,0:0:0:0:
192,192,36039,1,0,0:0:0:0:
448,192,36202,1,2,0:0:0:0:
192,192,36528,1,0,0:0:0:60:Tom1.wav
320,192,36691,1,8,0:0:0:0:
448,192,36691,1,0,0:0:0:0:
64,192,36854,1,2,0:0:0:0:
192,192,37017,1,2,0:0:0:0:
320,192,37017,1,0,0:0:0:0:
448,192,37180,1,2,0:0:0:0:
64,192,37343,1,8,0:0:0:0:
192,192,37343,1,0,0:0:0:0:
320,192,37506,1,2,0:0:0:0:
448,192,37832,1,2,0:0:0:0:
192,192,37995,1,8,0:0:0:0:
320,192,37995,1,0,0:0:0:0:
64,192,38159,1,2,0:0:0:0:
320,192,38485,1,2,0:0:0:0:
192,192,38648,1,8,0:0:0:0:
448,192,38648,1,0,0:0:0:0:
64,192,38892,1,8,0:0:0:0:
320,192,38892,1,0,0:0:0:0:
192,192,39137,1,2,0:0:0:0:
320,192,39300,1,8,0:0:0:0:
448,192,39300,1,0,0:0:0:0:
64,192,39463,1,2,0:0:0:0:
192,192,39544,1,2,0:0:0:0:
320,192,39626,1,2,0:0:0:0:
448,192,39789,1,2,0:0:0:0:
64,192,39952,1,8,0:0:0:0:
192,192,39952,1,0,0:0:0:0:
320,192,40115,1,2,0:0:0:0:
448,192,40441,1,2,0:0:0:0:
192,192,40604,1,8,0:0:0:0:
320,192,40604,1,0,0:0:0:0:
64,192,40767,1,2,0:0:0:0:
192,192,41093,1,2,0:0:0:0:
320,192,41256,1,8,0:0:0:0:
448,192,41256,1,0,0:0:0:0:
64,192,41419,1,2,0:0:0:0:
192,192,41745,1,0,0:0:0:60:Tom1.wav
320,192,41909,1,8,0:0:0:0:
448,192,41909,1,0,0:0:0:0:
64,192,42072,1,2,0:0:0:0:
192,192,42398,1,2,0:0:0:0:
320,192,42561,1,8,0:0:0:0:
448,192,42561,1,0,0:0:0:60:Hihat.wav
64,192,42724,1,2,0:0:0:0:
448,192,43050,1,2,0:0:0:0:
192,192,43213,1,8,0:0:0:0:
320,192,43213,1,0,0:0:0:60:Hihat.wav
64,192,43376,1,2,0:0:0:0:
320,192,43702,1,2,0:0:0:0:
64,192,43865,1,8,0:0:0:0:
448,192,43865,1,0,0:0:0:60:Hihat.wav
192,192,44110,1,8,0:0:0:0:
64,192,44191,1,8,0:0:0:0:
320,192,44354,128,0,44843:0:0:0:60:Tom2.wav
64,192,44843,128,2,45495:0:0:0:0:
192,192,44843,1,4,0:0:0:0:
320,192,45332,1,2,0:0:0:0:
192,192,45495,1,8,0:0:0:0:
448,192,45495,128,0,46148:0:0:0:30:Ride.wav
192,192,46148,128,0,46800:0:0:0:0:
320,192,46311,1,2,0:0:0:0:
448,192,46637,1,2,0:0:0:0:
320,192,46800,1,0,0:0:0:0:
64,192,46800,128,8,47452:0:0:0:0:
320,192,47452,128,2,48104:0:0:0:0:
448,192,47452,1,0,0:0:0:60:Hihat.wav
192,192,47941,1,2,0:0:0:0:
64,192,48104,128,8,48756:0:0:0:0:
448,192,48104,1,0,0:0:0:30:Ride.wav
192,192,48756,128,0,49409:0:0:0:0:
448,192,48919,1,2,0:0:0:0:
64,192,49245,1,2,0:0:0:0:
320,192,49409,1,8,0:0:0:0:
448,192,49409,128,0,50061:0:0:0:0:
64,192,49572,1,6,0:0:0:0:
64,192,50061,128,2,51039:0:0:0:0:
320,192,50061,1,0,0:0:0:60:Hihat.wav
448,192,51365,1,0,0:0:0:0:
320,192,51691,1,0,0:0:0:0:
64,192,52017,1,0,0:0:0:60:Tom2.wav
192,192,52180,1,0,0:0:0:60:Tom3.wav
320,192,52506,1,2,0:0:0:0:
448,192,52506,128,4,52832:0:0:0:0:
64,192,52832,1,2,0:0:0:0:
192,192,52995,1,8,0:0:0:0:
320,192,52995,1,0,0:0:0:60:Hihat.wav
448,192,53159,1,2,0:0:0:0:
192,192,53322,1,2,0:0:0:0:
64,192,53485,1,2,0:0:0:0:
320,192,53648,1,8,0:0:0:0:
448,192,53648,1,0,0:0:0:60:Hihat.wav
192,192,53811,1,2,0:0:0:0:
448,192,53974,1,2,0:0:0:0:
64,192,54137,1,2,0:0:0:0:
192,192,54300,1,8,0:0:0:0:
320,192,54300,1,0,0:0:0:60:Hihat.wav
448,192,54463,1,2,0:0:0:0:
64,192,54789,1,8,0:0:0:0:
192,192,54789,1,0,0:0:0:0:
320,192,55115,1,8,0:0:0:0:
448,192,55115,1,0,0:0:0:0:
192,192,55441,1,2,0:0:0:0:
64,192,55604,1,8,0:0:0:0:
320,192,55604,1,0,0:0:0:60:Hihat.wav
448,192,55767,1,2,0:0:0:0:
192,192,55930,1,2,0:0:0:0:
320,192,56093,1,2,0:0:0:0:
64,192,56256,1,8,0:0:0:0:
192,192,56256,1,0,0:0:0:60:Hihat.wav
448,192,56419,1,2,0:0:0:0:
320,192,56582,1,2,0:0:0:0:
64,192,56745,1,2,0:0:0:0:
192,192,56909,1,8,0:0:0:0:
320,192,56909,1,0,0:0:0:60:Hihat.wav
448,192,57072,1,2,0:0:0:0:
64,192,57235,1,8,0:0:0:0:
192,192,57235,1,0,0:0:0:60:Hihat.wav
320,192,57398,1,8,0:0:0:0:
448,192,57398,1,0,0:0:0:0:
192,192,57724,128,8,58050:0:0:0:0:
320,192,57724,1,4,0:0:0:0:
64,192,58050,1,2,0:0:0:0:
320,192,58213,1,8,0:0:0:0:
448,192,58213,1,0,0:0:0:0:
192,192,58376,1,2,0:0:0:0:
64,192,58539,1,2,0:0:0:0:
320,192,58702,1,2,0:0:0:0:
192,192,58865,1,8,0:0:0:0:
448,192,58865,1,0,0:0:0:60:Hihat.wav
64,192,59028,1,2,0:0:0:0:
320,192,59191,1,2,0:0:0:0:
448,192,59354,1,2,0:0:0:0:
192,192,59517,1,8,0:0:0:0:
320,192,59517,1,0,0:0:0:60:Hihat.wav
64,192,59843,1,2,0:0:0:0:
448,192,60006,1,2,0:0:0:0:
64,192,60169,1,8,0:0:0:0:
192,192,60169,1,0,0:0:0:60:Hihat.wav
320,192,60332,1,8,0:0:0:0:
448,192,60332,128,0,60822:0:0:0:0:
192,192,60659,1,2,0:0:0:0:
320,192,60822,1,8,0:0:0:0:
64,192,60985,128,2,61474:0:0:0:0:
448,192,61148,1,8,0:0:0:0:
192,192,61311,1,2,0:0:0:0:
320,192,61474,1,8,0:0:0:0:
192,192,61637,128,6,62126:0:0:0:0:
64,192,61963,1,2,0:0:0:0:
320,192,62126,1,8,0:0:0:0:
448,192,62126,128,0,62452:0:0:0:60:Hihat.wav
64,192,62452,1,8,0:0:0:0:
192,192,62615,1,2,0:0:0:0:
64,192,62941,128,2,63267:0:0:0:0:
192,192,62941,1,4,0:0:0:0:
448,192,63267,1,2,0:0:0:0:
192,192,63430,1,8,0:0:0:0:
320,192,63430,1,0,0:0:0:60:Hihat.wav
64,192,63593,1,2,0:0:0:0:
320,192,63756,1,2,0:0:0:0:
192,192,63919,1,2,0:0:0:0:
64,192,64082,1,8,0:0:0:0:
448,192,64082,1,0,0:0:0:60:Hihat.wav
320,192,64245,1,2,0:0:0:0:
192,192,64409,1,2,0:0:0:0:
448,192,64572,1,2,0:0:0:0:
64,192,64735,1,8,0:0:0:0:
320,192,64735,1,0,0:0:0:60:Hihat.wav
192,192,64898,1,2,0:0:0:0:
448,192,65061,1,2,0:0:0:0:
192,192,65224,1,8,0:0:0:0:
320,192,65224,1,0,0:0:0:0:
64,192,65550,1,8,0:0:0:0:
320,192,65550,1,0,0:0:0:0:
448,192,65876,1,2,0:0:0:0:
192,192,66039,1,8,0:0:0:0:
320,192,66039,1,0,0:0:0:60:Hihat.wav
64,192,66202,1,2,0:0:0:0:
320,192,66365,1,2,0:0:0:0:
448,192,66528,1,2,0:0:0:0:
64,192,66691,1,8,0:0:0:0:
192,192,66691,1,0,0:0:0:60:Hihat.wav
320,192,66854,1,2,0:0:0:0:
448,192,67017,1,2,0:0:0:0:
64,192,67180,1,2,0:0:0:0:
320,192,67343,1,8,0:0:0:0:
192,192,67506,1,2,0:0:0:0:
320,192,67669,1,8,0:0:0:0:
448,192,67669,1,0,0:0:0:60:Hihat.wav
64,192,67832,1,8,0:0:0:0:
192,192,67832,1,0,0:0:0:0:
448,192,67995,1,2,0:0:0:0:
64,192,68159,128,8,68485:0:0:0:0:
320,192,68159,1,4,0:0:0:0:
448,192,68485,1,2,0:0:0:0:
192,192,68648,1,8,0:0:0:0:
320,192,68648,1,0,0:0:0:0:
64,192,68811,1,2,0:0:0:0:
448,192,68974,1,2,0:0:0:0:
192,192,69137,1,2,0:0:0:0:
320,192,69300,1,8,0:0:0:0:
448,192,69300,1,0,0:0:0:60:Hihat.wav
64,192,69463,1,2,0:0:0:0:
192,192,69626,1,2,0:0:0:0:
448,192,69789,1,2,0:0:0:0:
64,192,69952,1,8,0:0:0:0:
320,192,69952,1,0,0:0:0:60:Hihat.wav
192,192,70115,1,2,0:0:0:0:
448,192,70278,1,2,0:0:0:0:
320,192,70441,1,2,0:0:0:0:
64,192,70604,1,8,0:0:0:0:
192,192,70604,1,0,0:0:0:60:Hihat.wav
320,192,70767,1,4,0:0:0:0:
448,192,70767,128,8,70930:0:0:0:0:
64,192,70930,1,0,0:0:0:0:
192,192,71256,1,0,0:0:0:60:Edge.wav
448,192,71582,1,0,0:0:0:60:Edge.wav
320,192,71909,1,0,0:0:0:60:Edge.wav
64,192,72072,1,0,0:0:0:60:Hihat.wav
192,192,72235,1,0,0:0:0:60:Edge.wav
192,192,72724,128,0,73213:0:0:0:0:
320,192,73213,1,8,0:0:0:0:
448,192,73213,1,0,0:0:0:60:Tom2.wav
64,192,73376,128,2,73702:0:0:0:0:
192,192,73376,1,4,0:0:0:0:
448,192,73702,1,2,0:0:0:0:
192,192,73865,1,8,0:0:0:0:
320,192,73865,1,4,0:0:0:0:
64,192,74028,1,2,0:0:0:0:
320,192,74191,1,2,0:0:0:0:
448,192,74191,1,4,0:0:0:0:
192,192,74354,1,8,0:0:0:0:
64,192,74517,1,2,0:0:0:0:
448,192,74517,1,0,0:0:0:0:
320,192,74680,1,2,0:0:0:0:
64,192,74843,1,8,0:0:0:0:
192,192,74843,1,4,0:0:0:0:
448,192,75006,1,2,0:0:0:0:
192,192,75169,1,2,0:0:0:0:
320,192,75169,1,4,0:0:0:0:
64,192,75332,1,8,0:0:0:0:
320,192,75495,1,2,0:0:0:0:
448,192,75495,1,0,0:0:0:0:
64,192,75659,1,2,0:0:0:0:
192,192,75659,1,4,0:0:0:0:
320,192,75985,1,2,0:0:0:0:
448,192,75985,128,4,76311:0:0:0:0:
64,192,76311,1,2,0:0:0:0:
192,192,76311,1,0,0:0:0:60:Tom3.wav
320,192,76474,1,8,0:0:0:0:
448,192,76474,1,4,0:0:0:0:
64,192,76637,1,2,0:0:0:0:
192,192,76800,1,2,0:0:0:0:
320,192,76800,1,4,0:0:0:0:
448,192,76963,1,8,0:0:0:0:
64,192,77126,1,2,0:0:0:0:
192,192,77126,1,0,0:0:0:0:
320,192,77289,1,2,0:0:0:0:
64,192,77452,1,8,0:0:0:0:
448,192,77452,1,4,0:0:0:0:
192,192,77615,1,2,0:0:0:0:
320,192,77778,1,2,0:0:0:0:
64,192,77941,1,8,0:0:0:0:
448,192,77941,1,4,0:0:0:0:
192,192,78104,1,2,0:0:0:0:
64,192,78267,1,2,0:0:0:0:
320,192,78267,1,0,0:0:0:60:Tom2.wav
448,192,78430,1,8,0:0:0:0:
192,192,78593,1,2,0:0:0:0:
320,192,78593,128,4,78919:0:0:0:0:
64,192,78919,1,2,0:0:0:0:
192,192,79082,1,8,0:0:0:0:
320,192,79082,1,0,0:0:0:0:
448,192,79245,1,2,0:0:0:0:
64,192,79409,1,8,0:0:0:0:
192,192,79409,1,0,0:0:0:0:
320,192,79572,1,2,0:0:0:0:
64,192,79735,1,8,0:0:0:0:
448,192,79735,1,0,0:0:0:60:Hihat.wav
192,192,79898,1,2,0:0:0:0:
320,192,80061,1,8,0:0:0:0:
448,192,80061,1,4,0:0:0:0:
64,192,80224,1,2,0:0:0:0:
192,192,80387,1,8,0:0:0:0:
320,192,80387,1,4,0:0:0:0:
448,192,80550,1,2,0:0:0:0:
64,192,80713,1,8,0:0:0:0:
192,192,80713,1,0,0:0:0:0:
320,192,80876,1,8,0:0:0:0:
448,192,80876,1,0,0:0:0:0:
64,192,81202,128,2,81528:0:0:0:0:
192,192,81202,1,4,0:0:0:0:
320,192,81528,1,2,0:0:0:0:
192,192,81691,1,8,0:0:0:0:
448,192,81691,1,0,0:0:0:0:
64,192,81854,1,2,0:0:0:0:
320,192,82017,1,8,0:0:0:0:
448,192,82017,1,0,0:0:0:0:
192,192,82343,1,8,0:0:0:0:
320,192,82343,1,0,0:0:0:0:
64,192,82506,128,2,82832:0:0:0:0:
448,192,82506,1,4,0:0:0:0:
448,192,82832,1,2,0:0:0:0:
64,192,82995,1,8,0:0:0:0:
320,192,82995,1,0,0:0:0:60:Tom2.wav
64,192,83322,1,8,0:0:0:0:
192,192,83322,1,0,0:0:0:0:
320,192,83485,1,2,0:0:0:0:
448,192,83485,128,0,83974:0:0:0:0:
64,192,83974,128,6,86419:0:0:0:0:
192,192,83974,1,8,0:0:0:0:
448,192,86419,128,0,89191:0:0:0:0:
320,192,86582,1,0,0:0:0:40:soft-hitclap.wav
192,192,86909,1,0,0:0:0:40:soft-hitclap.wav
64,192,87235,1,0,0:0:0:40:soft-hitclap.wav
320,192,87561,1,0,0:0:0:15:soft-hitclap.wav
192,192,87887,1,0,0:0:0:40:soft-hitclap.wav
64,192,88213,1,0,0:0:0:40:soft-hitclap.wav
320,192,88539,1,0,0:0:0:40:soft-hitclap.wav
192,192,88865,128,0,89191:0:0:0:40:soft-hitclap.wav
