osu file format v14

[General]
AudioFilename: audio.mp3
AudioLeadIn: 0
PreviewTime: 101796
Countdown: 0
SampleSet: Soft
StackLeniency: 0.7
Mode: 0
LetterboxInBreaks: 0
WidescreenStoryboard: 1

[Editor]
Bookmarks: 15671,34095,49747,52192,70616,81051,91323,101921,112355,133225,154095,174964
DistanceSpacing: 1.1
BeatDivisor: 4
GridSize: 4
TimelineZoom: 1.7

[Metadata]
Title:VIVID VICE
TitleUnicode:VIVID VICE
Artist:Who-ya Extended
ArtistUnicode:Who-ya Extended
Creator:AirinCat
Version:Insane
Source:呪術廻戦
Tags:jujutsu kaisen anime op opening 2 second two sorcery fight japanese jrock rock pop jpop full gojo satoru fushiguro megumi
BeatmapID:2922418
BeatmapSetID:1415518

[Difficulty]
HPDrainRate:5
CircleSize:4
OverallDifficulty:7.8
ApproachRate:9
SliderMultiplier:1.4
SliderTickRate:1

[Events]
//Background and Video events
0,0,"Jujutsu.Kaisen.full.3259622.jpg",0,0
//Break Periods
2,102159,111793
//Storyboard Layer 0 (Background)
//Storyboard Layer 1 (Fail)
//Storyboard Layer 2 (Pass)
//Storyboard Layer 3 (Foreground)
//Storyboard Layer 4 (Overlay)
//Storyboard Sound Samples

[TimingPoints]
220,326.086956521739,4,2,1,50,1,0
5111,-100,4,2,1,10,0,0
5437,-166.666666666667,4,2,1,50,0,0
13263,-166.666666666667,4,2,1,60,0,0
14404,-100,4,2,1,60,0,0
15709,-90.9090909090909,4,2,1,70,0,0
23372,-125,4,2,1,60,0,0
23698,-125,4,2,1,60,0,0
32665,-99.9999999999999,4,2,1,70,0,0
33643,-142.857142857143,4,2,1,60,0,0
34133,-111.111111111111,4,2,1,55,0,0
43100,-99.9999999999999,4,2,1,60,0,0
44567,-125,4,2,1,50,0,0
45219,-166.666666666667,4,2,1,50,0,0
45872,-125,4,2,1,50,0,0
46524,-166.666666666667,4,2,1,50,0,0
47176,-125,4,2,1,50,0,0
47828,-166.666666666667,4,2,1,50,0,0
48480,-142.857142857143,4,2,1,50,0,0
51741,-111.111111111111,4,2,1,60,0,0
52230,-90.9090909090909,4,2,1,75,0,1
57122,-125,4,2,1,75,0,1
57448,-90.9090909090909,4,2,1,75,0,1
61524,-100,4,2,1,75,0,1
62665,-90.9090909090909,4,2,1,75,0,1
67556,-125,4,2,1,75,0,1
67883,-90.9090909090909,4,2,1,75,0,1
70654,-333.333333333333,4,2,2,50,0,0
71633,-166.666666666667,4,2,2,50,0,0
72448,-111.111111111111,4,2,1,70,0,0
72937,-83.3333333333333,4,2,1,70,0,0
73100,-90.9090909090909,4,2,1,70,0,0
80763,-100,4,2,1,70,0,0
81089,-166.666666666666,4,2,2,60,0,0
88589,-124.999999999999,4,2,1,70,0,0
88834,-124.999999999999,4,2,1,5,0,0
88915,-199.999999999999,4,2,1,60,0,0
90383,-99.9999999999998,4,2,1,70,0,0
91361,-90.9090909090909,4,2,1,70,0,0
101633,-166.666666666667,4,2,1,60,0,0
112393,-142.857142857143,4,2,1,40,0,0
117611,-125,4,2,1,50,0,0
120056,-125,4,2,1,60,0,0
121361,-111.111111111111,4,2,1,60,0,0
122828,-100,4,2,1,50,0,0
127393,-100,4,2,1,60,0,0
128046,-200,4,2,1,50,0,0
128127,-200,4,2,1,5,0,0
130654,-200,4,2,1,45,0,0
131959,-142.857142857143,4,2,1,50,0,0
132611,-83.3333333333333,4,2,1,70,0,0
133100,-90.9090909090909,4,2,1,75,0,1
137991,-125,4,2,1,75,0,1
138317,-90.9090909090909,4,2,1,75,0,1
142393,-100,4,2,1,75,0,1
143535,-90.9090909090909,4,2,1,75,0,1
148426,-125,4,2,1,75,0,1
148752,-90.9090909090909,4,2,1,75,0,1
151524,-333.333333333333,4,2,2,50,0,0
152339,-166.666666666667,4,2,2,50,0,0
153399,-111.111111111111,4,2,1,70,0,0
153806,-90.9090909090909,4,2,1,70,0,0
175002,-222.222222222222,4,2,1,70,0,0
175165,-222.222222222222,4,2,1,5,0,0
177448,-181.818181818182,4,2,1,45,0,0
178263,-142.857142857143,4,2,1,60,0,0
178915,-125,4,2,1,70,0,0
179893,-90.909090909091,4,2,1,70,0,0
180056,-333.333333333334,4,2,1,70,0,0
180219,-333.333333333334,4,2,1,15,0,0

[Colours]
Combo1 : 154,157,226
Combo2 : 177,177,177
Combo3 : 155,174,202
Combo4 : 187,164,223

[HitObjects]
255,190,220,5,4,1:2:0:0:
256,192,301,12,4,2828,0:2:0:0:
256,192,2910,12,0,5111,0:0:0:0:
20,163,5437,6,0,L|10:122,2,41.9999987182618,10|2|10,0:2|0:2|0:2,0:2:0:0:
101,205,5926,2,0,L|147:194,1,41.9999987182618,2|8,0:2|0:2,0:0:0:0:
54,292,6252,2,0,L|66:344,1,41.9999987182618,2|8,1:2|0:2,0:2:0:0:
151,377,6578,2,0,L|206:365,1,41.9999987182618,2|8,1:2|0:2,0:2:0:0:
255,291,6904,2,0,L|245:251,1,41.9999987182618,2|8,0:2|0:2,0:2:0:0:
391,356,7230,6,0,P|416:350|446:347,1,41.9999987182618,2|8,1:2|0:2,0:2:0:0:
458,231,7556,2,0,P|468:252|484:274,1,41.9999987182618,2|8,1:2|0:2,0:2:0:0:
334,282,7883,1,2,1:2:0:0:
334,282,7964,1,0,1:2:0:0:
334,282,8046,2,0,P|353:243|369:196,2,83.9999974365235,8|8|8,0:2|0:2|0:2,0:2:0:0:
283,363,8861,1,0,1:2:0:0:
283,363,9024,1,8,0:2:0:0:
159,303,9187,6,0,L|115:314,1,41.9999987182618,2|8,1:2|0:2,0:2:0:0:
40,265,9513,2,0,L|31:218,1,41.9999987182618,2|8,0:2|0:2,0:2:0:0:
202,191,9839,2,0,L|212:246,1,41.9999987182618,2|8,1:2|0:2,0:2:0:0:
81,139,10165,2,0,L|138:126,2,41.9999987182618,2|8|2,1:2|0:2|0:3,0:2:0:0:
175,52,10654,5,10,0:2:0:0:
238,112,10817,1,2,1:2:0:0:
293,45,10980,2,0,L|279:-3,2,41.9999987182618,10|2|8,0:2|0:2|0:2,0:2:0:0:
386,87,11469,2,0,L|436:73,1,41.9999987182618,2|8,1:2|0:2,0:2:0:0:
506,139,11796,2,0,L|495:187,1,41.9999987182618,2|8,1:2|0:2,0:2:0:0:
412,226,12122,2,0,L|425:265,1,41.9999987182618,2|8,0:2|0:2,0:2:0:0:
512,323,12448,1,2,1:2:0:0:
512,323,12529,1,0,1:2:0:0:
512,323,12611,1,8,0:2:0:0:
340,348,12774,5,2,1:2:0:0:
340,348,12855,1,0,1:2:0:0:
340,348,12937,2,0,P|345:305|348:277,1,62.9999980773926,12|0,0:2|0:2,0:2:0:0:
425,265,13263,6,0,B|396:234|348:228|312:274|341:291|311:327|266:338|223:313|218:286,1,251.999992309571,4|0,1:2|0:2,0:2:0:0:
245,200,14404,1,0,1:2:0:0:
245,200,14486,1,0,1:2:0:0:
245,200,14567,1,10,0:2:0:0:
151,109,14730,2,0,L|142:142,3,35,8|8|4|4,0:3|0:3|1:3|0:3,0:0:0:0:
68,193,15056,1,10,0:2:0:0:
68,193,15138,1,0,3:2:0:0:
68,193,15219,2,0,L|81:237,1,35,4|4,1:3|1:3,0:0:0:0:
18,308,15383,1,8,0:3:0:0:
18,308,15464,1,8,0:2:0:0:
18,308,15546,1,8,0:2:0:0:
150,370,15709,6,0,P|211:320|281:349,1,154.000004699707,6|0,1:2|1:2,0:2:0:0:
375,208,16198,2,0,L|394:289,1,77.0000023498536,8|0,0:2|1:2,0:0:0:0:
392,282,16442,1,0,1:2:0:0:
392,282,16524,1,0,1:2:0:0:
281,246,16687,1,8,0:2:0:0:
433,142,16850,2,0,L|529:162,1,77.0000023498536,0|0,1:2|1:2,0:0:0:0:
375,0,17176,6,0,L|357:88,1,77.0000023498536,10|0,0:2|1:3,0:2:0:0:
359,75,17421,1,0,1:3:0:0:
359,75,17502,2,0,L|279:57,1,77.0000023498536,2|8,1:2|0:2,0:2:0:0:
123,0,17828,1,10,1:1:0:0:
171,148,17991,1,10,1:1:0:0:
171,148,18317,6,0,P|98:148|67:219,1,154.000004699707,6|0,1:2|1:2,0:2:0:0:
146,344,18806,2,0,L|54:361,1,77.0000023498536,8|0,0:2|1:2,0:0:0:0:
70,357,19051,1,0,1:2:0:0:
70,357,19133,1,0,1:2:0:0:
149,228,19296,1,8,0:2:0:0:
260,366,19459,2,0,L|280:285,1,77.0000023498536,0|0,1:2|1:2,0:2:0:0:
402,171,19785,5,10,0:2:0:0:
480,246,19948,2,0,P|442:251|397:260,1,77.0000023498536,2|0,1:2|1:2,0:2:0:0:
377,87,20274,2,0,P|415:81|460:73,1,77.0000023498536,10|0,0:2|1:2,0:2:0:0:
310,1,20600,1,2,1:2:0:0:
260,119,20763,5,8,0:2:0:0:
260,119,20844,1,8,0:2:0:0:
260,119,20926,2,0,B|212:107|212:107|180:51|180:51|126:44,1,154.000004699707,6|0,1:2|1:2,0:2:0:0:
13,154,21415,2,0,B|-13:124|-13:124|9:93,1,77.0000023498536,8|0,0:2|1:2,0:0:0:0:
9,93,21660,1,0,1:2:0:0:
9,93,21741,1,0,1:2:0:0:
125,138,21904,1,0,1:2:0:0:
12,246,22067,1,8,0:2:0:0:
159,291,22230,6,0,B|200:282|206:236|206:236|237:204|274:216,1,154.000004699707,6|0,1:2|1:2,0:2:0:0:
402,111,22719,2,0,P|393:148|386:186,1,77.0000023498536,8|4,0:2|0:3,0:2:0:0:
496,365,23046,6,0,L|505:317,1,38.5000011749268,10|0,1:1|1:2,0:2:0:0:
512,245,23209,1,10,1:1:0:0:
512,245,23290,1,0,1:2:0:0:
512,245,23372,2,0,P|469:252|416:265,1,84,10|0,0:2|0:2,0:2:0:0:
429,261,23698,5,2,1:3:0:0:
297,333,23861,2,0,L|367:354,1,56,2|8,1:2|0:2,0:2:0:0:
348,360,24350,1,10,0:2:0:0:
233,267,24513,2,0,P|203:312|149:313,1,112,0|10,1:2|0:2,0:2:0:0:
67,259,25002,5,2,0:2:0:0:
126,201,25165,1,2,1:2:0:0:
64,145,25328,1,10,0:2:0:0:
138,97,25491,1,2,0:2:0:0:
138,97,25817,2,0,L|212:114,1,56,2|8,1:2|0:2,0:2:0:0:
278,40,26143,5,2,1:2:0:0:
278,40,26225,1,0,1:2:0:0:
278,40,26306,1,0,1:2:0:0:
358,136,26469,2,0,L|369:75,1,56,2|8,1:2|0:2,0:2:0:0:
467,91,26796,2,0,L|454:161,1,56,2|8,0:2|0:2,0:2:0:0:
412,242,27122,1,0,1:2:0:0:
412,242,27448,6,0,P|465:263|512:235,1,112,10|0,0:2|1:2,0:2:0:0:
335,288,27937,2,0,L|343:354,1,56,10|0,0:2|1:2,0:2:0:0:
250,257,28263,1,10,0:2:0:0:
250,257,28426,1,0,1:2:0:0:
55,356,28752,5,8,0:2:0:0:
55,356,28834,1,8,0:2:0:0:
55,356,28915,2,0,L|74:290,1,56,2|0,1:2|1:2,0:2:0:0:
150,233,29241,1,10,0:2:0:0:
150,233,29567,1,10,0:2:0:0:
82,170,29730,2,0,L|12:191,1,56,0|0,1:2|0:2,0:2:0:0:
116,74,30056,5,10,0:2:0:0:
116,74,30383,2,0,L|100:10,1,56,2|8,1:2|0:2,0:2:0:0:
210,103,30709,2,0,L|262:84,1,56,2|0,0:2|0:2,0:2:0:0:
384,32,31035,2,0,L|330:20,1,56,2|8,1:2|0:2,0:2:0:0:
472,110,31361,5,2,1:2:0:0:
472,110,31442,1,0,1:2:0:0:
472,110,31524,1,0,1:2:0:0:
375,137,31687,2,0,P|381:161|385:192,1,56,10|0,0:2|1:2,0:2:0:0:
472,265,32013,2,0,P|480:234|494:204,1,56,2|8,1:2|0:2,0:0:0:0:
329,285,32339,1,2,1:2:0:0:
427,360,32502,1,8,0:2:0:0:
329,285,32665,6,0,B|267:270|267:270|224:271|199:322,1,140,2|2,1:2|1:2,0:2:0:0:
141,380,33154,1,8,0:2:0:0:
71,279,33317,1,10,0:2:0:0:
206,187,33480,1,10,0:2:0:0:
90,52,33643,6,0,P|55:82|58:130,1,97.9999970092774,4|0,1:2|3:2,0:2:0:0:
64,140,34051,1,0,3:2:0:0:
71,146,34133,6,0,L|6:161,1,62.9999980773926,2|4,1:3|0:3,0:2:0:0:
129,228,34459,1,10,0:2:0:0:
200,108,34622,2,0,B|241:100|264:125|251:128|268:156|309:155,1,125.999996154785,4|0,0:3|1:2,0:2:0:0:
309,155,35029,1,0,1:2:0:0:
309,155,35111,1,10,0:2:0:0:
394,62,35274,6,0,P|444:98|444:159,1,125.999996154785,2|4,1:2|0:3,0:2:0:0:
383,246,35763,1,8,0:2:0:0:
512,297,35926,2,0,L|438:322,1,62.9999980773926,4|0,0:3|0:2,0:2:0:0:
354,376,36252,5,2,1:2:0:0:
354,376,36334,1,0,1:2:0:0:
354,376,36415,1,10,0:2:0:0:
281,270,36578,1,0,1:2:0:0:
281,270,36660,1,0,1:2:0:0:
281,270,36741,5,2,1:2:0:0:
182,384,36904,2,0,L|170:319,1,62.9999980773926,4|8,0:3|0:2,0:2:0:0:
88,205,37230,2,0,P|75:264|19:286,1,125.999996154785,4|0,0:3|1:2,0:2:0:0:
19,286,37638,1,0,1:2:0:0:
19,286,37719,1,10,0:2:0:0:
89,369,37883,1,2,1:2:0:0:
186,249,38046,6,0,L|200:187,1,62.9999980773926,2|4,0:2|0:3,0:2:0:0:
200,187,38290,1,2,0:2:0:0:
200,187,38372,1,8,0:2:0:0:
153,108,38535,1,2,0:2:0:0:
153,108,38616,2,0,L|40:131,1,94.499997116089,8|0,0:2|1:2,0:2:0:0:
17,52,39024,1,10,0:2:0:0:
216,23,39187,5,2,1:3:0:0:
216,23,39268,1,0,1:2:0:0:
216,23,39350,2,0,L|282:36,1,62.9999980773926,2|4,1:2|0:3,0:0:0:0:
360,99,39676,1,10,0:2:0:0:
442,39,39839,1,4,0:3:0:0:
512,114,40002,2,0,L|489:194,1,62.9999980773926,2|0,0:0|1:0,0:0:0:0:
494,174,40247,1,0,1:2:0:0:
494,174,40328,1,10,0:2:0:0:
512,275,40491,1,2,1:2:0:0:
398,243,40654,6,0,L|329:259,1,62.9999980773926,2|4,0:2|0:3,0:2:0:0:
262,200,40980,1,10,0:2:0:0:
196,323,41143,2,0,L|182:259,1,62.9999980773926,4|0,0:3|0:2,0:2:0:0:
84,203,41469,1,2,1:2:0:0:
84,203,41551,1,0,1:2:0:0:
84,203,41633,1,10,0:2:0:0:
94,70,41796,6,0,P|60:120|0:117,1,125.999996154785,6|2,1:2|1:2,0:2:0:0:
154,161,42285,1,8,0:2:0:0:
215,80,42448,2,0,L|279:94,1,62.9999980773926,2|0,1:2|0:2,0:2:0:0:
380,32,42774,1,2,1:2:0:0:
380,32,42937,1,8,0:2:0:0:
512,128,43100,6,0,B|475:120|447:161|466:159|451:204|405:199,1,140,6|4,1:2|0:3,0:2:0:0:
256,160,43589,1,8,0:2:0:0:
248,315,43752,1,2,0:2:0:0:
248,315,43834,1,8,0:2:0:0:
248,315,43915,1,8,0:2:0:0:
325,233,44078,1,8,0:3:0:0:
256,160,44241,1,4,0:3:0:0:
311,99,44404,1,4,0:3:0:0:
257,39,44567,6,0,P|175:57|67:75,1,168,6|0,1:2|1:2,0:2:0:0:
87,65,45138,1,0,1:2:0:0:
82,59,45219,2,0,P|130:97|127:158,1,125.999996154785,10|0,0:2|0:2,0:2:0:0:
21,300,45872,5,2,0:2:0:0:
90,259,46035,2,0,B|128:257|154:275|135:283|158:307|187:301,1,112,0|0,1:2|1:2,0:2:0:0:
330,337,46524,2,0,B|359:284|359:284|352:232|292:234,1,146.999995513916,10|0,0:2|0:2,0:2:0:0:
300,234,47176,6,0,P|373:232|482:263,1,168,2|0,1:2|1:2,0:2:0:0:
464,264,47747,1,0,1:2:0:0:
463,273,47828,2,0,P|433:206|459:162,1,125.999996154785,10|0,0:2|0:2,0:2:0:0:
512,28,48480,5,2,0:2:0:0:
442,58,48643,2,0,P|391:49|329:35,1,97.9999970092774,0|0,1:2|1:2,0:2:0:0:
178,121,49133,1,10,0:2:0:0:
256,192,49296,1,4,1:2:0:0:
256,192,49785,5,4,1:2:0:0:
256,192,49866,12,0,51089,0:2:0:0:
260,23,51741,6,0,L|276:66,1,31.4999990386963,2|0,1:2|1:2,0:2:0:0:
271,160,51904,1,4,0:3:0:0:
271,160,51986,1,8,0:2:0:0:
271,160,52067,2,0,L|279:129,1,31.4999990386963,8|8,0:2|0:2,0:2:0:0:
347,80,52230,6,0,P|261:98|191:111,1,154.000004699707,6|0,1:2|1:2,0:2:0:0:
88,236,52719,1,10,0:2:0:0:
186,271,52883,2,0,P|173:226|168:177,1,77.0000023498536,2|0,1:2|1:2,0:0:0:0:
0,236,53209,2,0,P|13:280|18:330,1,77.0000023498536,2|8,1:2|0:2,0:2:0:0:
119,384,53535,1,0,1:2:0:0:
245,331,53698,6,0,L|330:358,1,77.0000023498536,2|0,1:2|1:2,0:2:0:0:
318,354,53942,1,2,1:2:0:0:
318,354,54024,1,8,0:2:0:0:
434,312,54187,2,0,L|443:272,2,38.5000011749268,2|0|0,1:2|1:2|1:2,0:0:0:0:
314,148,54513,2,0,P|321:183|327:225,1,77.0000023498536,10|0,0:2|0:2,0:2:0:0:
490,138,54839,6,0,P|430:126|409:70,1,115.50000352478,10|0,0:2|0:2,0:2:0:0:
408,80,55165,2,0,P|443:73|495:60,1,77.0000023498536,2|8,1:2|0:2,0:2:0:0:
326,0,55491,1,2,1:2:0:0:
236,112,55654,1,2,1:2:0:0:
236,112,55817,2,0,P|227:70|211:28,1,77.0000023498536,2|8,1:2|0:2,0:2:0:0:
370,166,56143,6,0,P|309:206|315:280,1,154.000004699707,2|2,1:2|1:2,0:2:0:0:
509,319,56633,1,10,0:2:0:0:
422,257,56796,1,2,1:2:0:0:
422,257,56877,1,0,1:2:0:0:
422,257,56959,1,8,0:2:0:0:
371,366,57122,2,0,P|401:357|431:353,1,56,10|0,0:2|1:2,0:2:0:0:
246,206,57448,6,0,P|185:221|127:227,1,115.50000352478,12|0,0:2|0:2,0:2:0:0:
132,226,57774,2,0,P|106:198|108:160,1,77.0000023498536,2|10,1:2|0:2,0:2:0:0:
172,7,58100,1,4,0:3:0:0:
46,59,58263,1,2,1:2:0:0:
46,59,58426,1,2,1:2:0:0:
204,130,58589,1,10,0:2:0:0:
269,64,58752,1,2,1:2:0:0:
391,161,58915,5,2,1:2:0:0:
439,84,59078,2,0,P|433:43|428:-1,1,77.0000023498536,2|8,1:2|0:2,0:2:0:0:
296,157,59404,2,0,P|302:198|307:242,1,77.0000023498536,2|0,1:2|1:2,0:2:0:0:
412,300,59730,1,2,1:2:0:0:
412,300,59812,1,0,1:2:0:0:
412,300,59893,1,8,0:2:0:0:
206,256,60056,6,0,B|163:274|163:274|141:338|141:338|106:356,1,154.000004699707,14|0,0:2|1:2,0:2:0:0:
22,328,60546,1,8,0:2:0:0:
242,330,60709,2,0,B|262:335|262:335|292:366|292:366|309:368,1,77.0000023498536,6|8,1:2|0:2,0:2:0:0:
412,300,61035,1,2,1:2:0:0:
351,193,61198,1,10,0:2:0:0:
443,150,61361,1,6,1:2:0:0:
339,50,61524,6,0,P|372:58|431:69,1,70,2|0,0:2|1:2,0:2:0:0:
263,140,61850,2,0,P|217:128|151:118,1,105,10|0,0:2|0:2,0:2:0:0:
160,118,62176,1,2,1:2:0:0:
73,172,62339,2,0,P|51:145|54:111,1,70,2|8,1:2|0:2,0:2:0:0:
240,247,62665,6,0,P|167:251|144:320,1,154.000004699707,6|0,1:2|1:2,0:2:0:0:
319,384,63154,1,10,0:2:0:0:
386,309,63317,2,0,P|380:266|370:219,1,77.0000023498536,2|0,1:2|1:2,0:2:0:0:
499,119,63643,2,0,P|505:162|515:209,1,77.0000023498536,2|8,1:2|0:2,0:0:0:0:
393,91,63969,1,0,1:2:0:0:
279,202,64133,6,0,L|182:221,1,77.0000023498536,2|0,1:2|1:2,0:2:0:0:
203,216,64377,1,2,1:2:0:0:
203,216,64459,1,8,0:2:0:0:
111,147,64622,2,0,L|119:109,2,38.5000011749268,2|0|0,1:2|1:2|1:2,0:0:0:0:
17,309,64948,2,0,P|8:271|-1:231,1,77.0000023498536,10|0,0:2|0:2,0:2:0:0:
156,378,65274,6,0,P|196:340|249:356,1,115.50000352478,10|0,0:2|0:2,0:2:0:0:
249,356,65600,2,0,P|259:308|265:278,1,77.0000023498536,2|8,1:2|0:2,0:2:0:0:
207,175,65926,1,2,1:2:0:0:
370,122,66089,1,2,1:2:0:0:
370,122,66252,2,0,L|284:101,1,77.0000023498536,2|8,1:2|0:2,0:2:0:0:
334,218,66578,1,2,1:2:0:0:
464,123,66741,5,2,1:2:0:0:
512,213,66904,1,2,1:2:0:0:
417,258,67067,1,10,0:2:0:0:
489,367,67230,1,2,1:2:0:0:
489,367,67312,1,0,1:2:0:0:
489,367,67393,1,8,0:2:0:0:
329,363,67556,2,0,L|389:348,1,56,10|0,0:2|1:2,0:2:0:0:
226,136,67883,6,0,P|217:209|148:231,1,154.000004699707,14|2,0:2|1:2,0:2:0:0:
41,343,68372,2,0,L|23:264,1,77.0000023498536,10|4,0:2|0:3,0:2:0:0:
115,143,68698,1,2,1:2:0:0:
115,143,68861,1,2,1:2:0:0:
2,85,69024,1,10,0:2:0:0:
2,85,69187,1,2,1:2:0:0:
126,0,69350,5,2,1:2:0:0:
226,48,69513,1,2,1:2:0:0:
230,157,69676,1,10,0:2:0:0:
107,243,69839,2,0,L|31:226,1,77.0000023498536,2|0,1:2|1:2,0:2:0:0:
165,359,70165,1,2,1:2:0:0:
165,359,70247,1,0,1:2:0:0:
165,359,70328,1,8,0:2:0:0:
315,236,70491,1,10,0:2:0:0:
384,304,70654,6,0,L|375:350,2,41.9999987182618,10|8|8,0:2|0:2|0:2,0:2:0:0:
448,261,71469,1,2,0:2:0:0:
401,198,71633,2,0,L|409:156,1,41.9999987182618,10|0,0:2|0:2,0:2:0:0:
256,70,71959,5,10,0:2:0:0:
256,70,72529,6,0,B|231:53|203:65|203:65|187:103|150:108,1,125.999996154785,2|0,0:2|0:2,0:2:0:0:
130,34,72937,1,8,1:2:0:0:
254,163,73100,6,0,B|303:179|343:142|311:134|350:102|387:111,1,154.000004699707,6|0,1:2|1:2,0:2:0:0:
495,240,73589,2,0,L|515:154,1,77.0000023498536,8|0,0:2|1:2,0:0:0:0:
512,165,73834,1,0,1:2:0:0:
512,165,73915,1,0,1:2:0:0:
389,204,74078,1,8,0:2:0:0:
512,329,74241,2,0,P|472:333|415:346,1,77.0000023498536,0|0,1:2|1:2,0:0:0:0:
218,300,74567,6,0,B|197:268|197:268|216:234,1,77.0000023498536,10|0,0:2|1:3,0:2:0:0:
216,234,74812,1,0,1:3:0:0:
216,234,74893,2,0,L|313:251,1,77.0000023498536,2|8,1:2|0:2,0:2:0:0:
181,384,75219,1,10,1:1:0:0:
78,245,75383,1,10,1:1:0:0:
78,245,75709,6,0,B|116:199|116:199|119:142|71:124,1,154.000004699707,6|0,1:2|1:2,0:2:0:0:
246,1,76198,2,0,L|230:79,1,77.0000023498536,8|0,0:2|1:2,0:0:0:0:
230,76,76442,1,0,1:2:0:0:
230,76,76524,1,0,1:2:0:0:
113,0,76687,1,10,0:2:0:0:
71,124,76850,2,0,L|14:136,2,38.5000011749268,2|0|0,1:2|1:2|1:2,0:2:0:0:
198,196,77176,6,0,L|177:284,1,77.0000023498536,10|0,0:2|1:3,0:2:0:0:
180,270,77421,1,0,1:3:0:0:
180,270,77502,1,2,1:2:0:0:
74,341,77665,2,0,P|36:327|-1:319,1,77.0000023498536,10|8,0:2|1:3,0:0:0:0:
88,228,77991,1,8,1:3:0:0:
184,377,78154,1,8,0:2:0:0:
308,275,78317,6,0,P|378:256|424:312,1,154.000004699707,6|0,1:2|1:2,0:2:0:0:
512,134,78806,2,0,L|420:160,1,77.0000023498536,8|0,0:2|1:2,0:0:0:0:
437,154,79051,1,0,1:2:0:0:
437,154,79133,1,8,0:2:0:0:
347,83,79296,1,0,1:2:0:0:
347,83,79377,1,0,1:2:0:0:
347,83,79459,1,8,0:2:0:0:
231,197,79622,6,0,B|189:173|189:173|184:108|184:108|149:87,1,154.000004699707,4|0,1:2|1:2,0:2:0:0:
149,87,80029,1,0,1:2:0:0:
149,87,80111,2,0,P|194:77|235:65,1,77.0000023498536,8|8,0:2|0:3,0:0:0:0:
126,261,80437,1,10,0:1:0:0:
126,261,80518,1,8,0:2:0:0:
126,261,80600,1,10,0:1:0:0:
126,261,80681,1,4,0:3:0:0:
126,261,80763,2,0,P|70:240|9:229,1,105,12|0,0:2|0:2,0:2:0:0:
25,230,81089,6,0,L|35:189,2,41.9999987182618,10|2|8,1:2|0:2|0:2,0:2:0:0:
59,108,81578,2,0,L|68:67,1,41.9999987182618,2|8,0:2|0:2,0:2:0:0:
145,26,81904,2,0,L|190:34,1,41.9999987182618,2|8,1:2|0:2,0:2:0:0:
253,86,82230,2,0,L|236:169,1,83.9999974365235,2|2,1:2|0:2,0:2:0:0:
236,168,82719,1,8,0:2:0:0:
327,229,82883,6,0,P|349:224|367:218,1,41.9999987182618,2|8,1:2|0:2,0:2:0:0:
437,323,83209,2,0,P|416:315|396:312,1,41.9999987182618,2|8,1:2|0:2,0:2:0:0:
462,162,83535,1,2,1:2:0:0:
462,162,83616,1,0,1:2:0:0:
462,162,83698,2,0,P|470:197|487:245,2,83.9999974365235,8|8|8,0:2|0:2|0:2,0:2:0:0:
441,62,84513,1,0,1:2:0:0:
441,62,84676,1,8,0:2:0:0:
334,125,84839,6,0,L|288:137,1,41.9999987182618,2|8,1:2|0:2,0:2:0:0:
205,100,85165,2,0,L|193:52,1,41.9999987182618,2|8,0:2|0:2,0:2:0:0:
155,181,85491,2,0,L|114:190,1,41.9999987182618,2|8,1:2|0:2,0:2:0:0:
252,259,85817,2,0,L|242:219,2,41.9999987182618,2|8|2,1:2|0:2|0:3,0:2:0:0:
219,351,86306,5,10,1:2:0:0:
141,288,86469,1,2,1:2:0:0:
96,382,86633,2,0,L|142:367,2,41.9999987182618,10|2|8,0:2|0:2|0:2,0:2:0:0:
15,341,87122,2,0,L|0:295,1,41.9999987182618,2|8,1:2|0:2,0:2:0:0:
73,198,87448,2,0,L|30:211,1,41.9999987182618,2|8,1:2|0:2,0:2:0:0:
117,117,87774,2,0,L|102:71,1,41.9999987182618,2|8,0:2|0:2,0:2:0:0:
162,0,88100,1,0,1:2:0:0:
162,0,88181,1,0,1:2:0:0:
162,0,88263,1,8,0:2:0:0:
292,80,88426,5,0,1:2:0:0:
292,80,88508,1,0,1:2:0:0:
292,80,88589,2,0,P|261:107|262:147,1,84,10|0,0:2|0:2,0:2:0:0:
262,147,88915,6,0,P|363:161|403:259,1,210,6|0,1:2|0:2,0:2:0:0:
305,253,90056,1,0,1:2:0:0:
305,253,90138,1,0,1:2:0:0:
305,253,90219,1,8,0:2:0:0:
408,352,90383,2,0,L|455:339,3,35,8|8|4|4,0:3|0:3|1:3|0:3,0:0:0:0:
503,265,90709,1,10,0:2:0:0:
503,265,90790,1,0,3:2:0:0:
503,265,90872,2,0,L|484:212,1,35,4|4,0:3|0:3,0:0:0:0:
512,143,91035,1,8,0:3:0:0:
512,143,91116,1,8,0:2:0:0:
512,143,91198,1,8,0:2:0:0:
409,30,91361,6,0,P|361:86|286:71,1,154.000004699707,6|0,1:2|1:2,0:2:0:0:
154,156,91850,2,0,P|146:104|140:73,1,77.0000023498536,8|0,0:2|1:2,0:0:0:0:
141,80,92094,1,0,1:2:0:0:
141,80,92176,1,0,1:2:0:0:
261,163,92339,1,8,0:2:0:0:
98,235,92502,2,0,L|19:213,1,77.0000023498536,0|0,1:2|1:2,0:2:0:0:
193,384,92828,6,0,B|214:295,1,77.0000023498536,10|0,0:2|1:3,0:2:0:0:
210,309,93073,1,0,1:3:0:0:
210,309,93154,2,0,L|298:329,1,77.0000023498536,2|8,1:2|0:2,0:2:0:0:
410,211,93480,1,10,1:1:0:0:
470,378,93643,1,10,1:1:0:0:
470,378,93969,6,0,B|516:348|516:348|534:295|489:259,1,154.000004699707,6|0,1:2|1:2,0:2:0:0:
376,127,94459,2,0,L|468:104,1,77.0000023498536,8|0,0:2|1:2,0:0:0:0:
450,108,94703,1,0,1:2:0:0:
450,108,94785,1,0,1:2:0:0:
389,263,94948,1,8,0:2:0:0:
281,132,95111,2,0,P|274:172|267:215,1,77.0000023498536,0|0,1:2|1:2,0:2:0:0:
148,327,95437,6,0,B|112:317|112:317|109:319|109:319|65:307,1,77.0000023498536,10|0,0:2|1:3,0:2:0:0:
74,310,95681,1,0,1:3:0:0:
74,310,95763,2,0,P|83:266|90:229,1,77.0000023498536,2|8,1:2|0:2,0:2:0:0:
10,66,96089,1,10,1:1:0:0:
187,117,96252,1,10,1:1:0:0:
94,144,96415,1,8,0:2:0:0:
162,26,96578,6,0,P|235:44|323:58,1,154.000004699707,6|0,1:2|1:2,0:2:0:0:
440,192,97067,2,0,L|463:106,1,77.0000023498536,8|0,0:2|1:2,0:0:0:0:
459,117,97312,1,0,1:2:0:0:
459,117,97393,1,0,1:2:0:0:
334,149,97556,1,8,0:2:0:0:
437,291,97719,2,0,L|520:271,1,77.0000023498536,0|0,1:2|1:2,0:2:0:0:
288,250,98046,6,0,L|195:272,1,77.0000023498536,10|0,0:2|1:3,0:2:0:0:
213,267,98290,1,0,1:3:0:0:
213,267,98372,2,0,B|191:300|191:300|214:329,1,77.0000023498536,2|8,1:2|0:2,0:0:0:0:
373,238,98698,1,10,1:1:0:0:
202,146,98861,1,10,1:1:0:0:
202,146,99187,6,0,B|161:142|127:176|155:184|126:231|83:225,1,154.000004699707,6|0,1:2|1:2,0:2:0:0:
0,65,99676,2,0,L|90:89,1,77.0000023498536,8|0,0:2|1:2,0:0:0:0:
74,84,99921,1,0,1:2:0:0:
74,84,100002,1,8,0:2:0:0:
182,0,100165,1,0,1:2:0:0:
261,114,100328,1,8,0:2:0:0:
402,19,100491,6,0,B|437:34|437:34|459:112|459:112|490:128,1,154.000004699707,6|0,1:2|1:2,0:2:0:0:
489,127,100899,1,0,1:2:0:0:
489,127,100980,2,0,P|451:133|394:152,1,77.0000023498536,8|8,0:2|0:3,0:0:0:0:
370,310,101306,1,10,0:1:0:0:
370,310,101388,1,8,0:2:0:0:
370,310,101469,1,10,0:1:0:0:
370,310,101551,1,4,0:3:0:0:
370,310,101633,2,0,P|358:259|346:223,1,83.9999974365235,12|2,0:2|0:2,0:2:0:0:
87,189,112393,5,2,1:2:0:0:
37,295,112556,2,0,L|24:246,1,48.9999985046387,2|0,0:2|0:2,0:2:0:0:
107,340,112883,2,0,P|152:324|202:319,1,97.9999970092774,2|2,0:2|0:2,0:2:0:0:
281,357,113372,1,2,0:2:0:0:
332,287,113535,2,0,P|318:236|312:180,1,97.9999970092774,2|2,0:2|0:2,0:2:0:0:
367,124,114024,1,2,0:2:0:0:
437,178,114187,1,2,0:2:0:0:
437,178,114513,1,2,0:2:0:0:
501,115,114676,2,0,L|494:65,1,48.9999985046387,2|0,0:2|0:2,0:2:0:0:
345,10,115002,6,0,P|293:18|235:23,1,97.9999970092774,2|2,1:2|0:2,0:2:0:0:
166,55,115491,2,0,P|143:96|164:139,1,97.9999970092774,2|2,0:2|0:2,0:2:0:0:
226,204,115980,2,0,L|210:271,1,48.9999985046387,2|2,0:2|0:2,0:2:0:0:
297,306,116306,5,2,0:2:0:0:
196,358,116469,2,0,L|243:369,1,48.9999985046387,2|0,0:2|0:2,0:2:0:0:
140,293,116796,2,0,L|85:282,1,48.9999985046387,2|0,0:2|0:2,0:2:0:0:
5,261,117122,1,0,1:2:0:0:
92,98,117285,2,0,L|102:154,1,48.9999985046387,10|2,0:2|0:2,0:2:0:0:
211,225,117611,6,0,P|263:239|307:208,1,112,8|0,0:2|1:2,0:2:0:0:
383,87,118100,1,10,0:2:0:0:
452,158,118263,2,0,L|441:223,1,56,2|8,1:2|0:2,0:0:0:0:
371,278,118589,1,0,1:2:0:0:
468,323,118752,1,2,1:2:0:0:
468,323,118834,1,8,0:2:0:0:
468,323,118915,5,10,0:2:0:0:
387,378,119078,2,0,L|332:362,1,56,10|2,0:2|1:2,0:0:0:0:
204,371,119404,2,0,L|220:308,1,56,10|8,0:2|0:2,0:2:0:0:
150,218,119730,1,2,1:2:0:0:
150,218,119893,1,8,1:2:0:0:
325,172,120056,6,0,P|272:183|231:148,1,112,8|2,0:2|0:2,0:0:0:0:
231,148,120464,1,8,0:2:0:0:
231,148,120546,1,8,0:2:0:0:
310,64,120709,1,10,0:2:0:0:
310,64,120790,1,8,0:2:0:0:
310,64,120872,1,0,1:2:0:0:
198,8,121035,2,0,L|133:24,1,56,10|0,0:2|1:2,0:2:0:0:
372,116,121361,6,0,P|444:105|509:91,1,125.999996154785,10|2,0:2|0:2,0:2:0:0:
512,192,121850,2,0,P|482:196|433:208,1,62.9999980773926,10|2,0:2|0:2,0:2:0:0:
352,334,122176,1,8,0:2:0:0:
352,334,122258,1,8,0:2:0:0:
352,334,122339,1,8,0:3:0:0:
352,334,122421,1,8,0:3:0:0:
352,334,122502,2,0,L|345:283,3,31.4999990386963,8|4|4|4,0:2|0:3|0:3|0:3,0:2:0:0:
280,244,122828,6,0,B|235:238|208:266|232:275|199:301|158:296,1,140,4|0,1:2|1:2,0:2:0:0:
52,273,123317,1,8,0:2:0:0:
52,273,123399,1,8,0:2:0:0:
52,273,123480,1,2,1:2:0:0:
109,203,123643,2,0,L|102:163,2,35,8|8|0,0:2|0:2|1:2,0:2:0:0:
16,111,123969,5,8,0:2:0:0:
16,111,124051,1,8,0:2:0:0:
16,111,124133,1,2,1:2:0:0:
70,36,124296,2,0,L|117:27,2,35,8|8|0,0:2|0:2|1:2,0:2:0:0:
192,102,124622,5,8,0:2:0:0:
192,102,124703,1,8,0:2:0:0:
192,102,124785,1,2,1:2:0:0:
259,34,124948,2,0,L|252:-2,2,35,8|8|0,0:2|0:2|1:2,0:2:0:0:
354,111,125274,5,8,0:2:0:0:
354,111,125355,1,8,0:2:0:0:
354,111,125437,1,2,1:2:0:0:
426,38,125600,2,0,L|468:49,3,35,8|8|8|8,0:2|0:2|1:2|0:2,0:0:0:0:
512,117,125926,5,8,0:2:0:0:
512,117,126008,1,8,0:2:0:0:
512,117,126089,2,0,L|495:184,1,70,2|8,1:2|0:2,0:2:0:0:
495,184,126334,1,8,0:2:0:0:
495,184,126415,1,0,1:2:0:0:
366,199,126578,1,8,0:2:0:0:
366,199,126660,1,8,0:2:0:0:
366,199,126741,2,0,P|371:232|377:275,1,70,2|8,1:2|0:2,0:2:0:0:
376,268,126986,1,8,0:2:0:0:
376,268,127067,1,0,1:2:0:0:
478,338,127230,5,8,0:2:0:0:
478,338,127312,1,8,0:2:0:0:
478,338,127393,1,2,1:2:0:0:
355,376,127556,2,0,L|308:360,3,35,8|8|8|8,0:2|0:2|1:2|0:2,0:2:0:0:
252,305,127883,5,8,0:2:0:0:
252,305,127964,1,8,0:2:0:0:
252,305,128046,2,0,B|210:350|131:355|47:336|-2:260|16:177|90:84|188:98|262:160|249:243|212:275|149:268|145:232,1,560,6|2,1:2|0:2,0:2:0:0:
148,241,131306,1,2,0:2:0:0:
148,241,131959,2,0,P|179:249|207:255,1,48.9999985046387,2|0,0:2|0:2,0:2:0:0:
294,305,132285,2,0,P|326:287|361:276,1,73.4999977569581,2|0,0:2|0:2,0:2:0:0:
361,276,132611,6,0,L|345:223,1,41.9999987182618,0|0,1:2|1:2,0:2:0:0:
434,148,132774,1,4,0:3:0:0:
434,148,132855,1,8,0:2:0:0:
434,148,132937,2,0,L|423:200,1,41.9999987182618,8|8,0:2|0:2,0:2:0:0:
512,114,133100,6,0,P|439:124|395:65,1,154.000004699707,6|0,1:2|1:2,0:2:0:0:
207,108,133589,1,10,0:2:0:0:
201,7,133752,2,0,L|273:29,1,77.0000023498536,2|0,1:2|1:2,0:0:0:0:
220,200,134078,2,0,P|183:187|142:175,1,77.0000023498536,2|8,1:2|0:2,0:2:0:0:
63,87,134404,1,0,1:2:0:0:
0,228,134567,6,0,L|19:322,1,77.0000023498536,2|0,1:2|1:2,0:2:0:0:
15,303,134812,1,2,1:2:0:0:
15,303,134893,1,8,0:2:0:0:
124,372,135056,2,0,L|161:364,2,38.5000011749268,2|0|0,1:2|1:2|1:2,0:0:0:0:
292,224,135383,2,0,L|220:200,1,77.0000023498536,10|0,0:2|0:2,0:2:0:0:
372,382,135709,6,0,P|410:341|464:350,1,115.50000352478,10|0,0:2|0:2,0:2:0:0:
464,350,136035,2,0,P|471:306|483:273,1,77.0000023498536,2|8,1:2|0:2,0:2:0:0:
358,156,136361,1,2,1:2:0:0:
469,119,136524,1,0,1:0:0:0:
469,119,136605,1,2,1:2:0:0:
469,119,136687,1,0,1:0:0:0:
381,257,136850,1,10,0:2:0:0:
252,126,137013,6,0,B|209:124|188:164|213:168|195:213|146:218,1,154.000004699707,2|0,1:2|1:2,0:2:0:0:
6,91,137502,1,10,0:2:0:0:
113,125,137665,1,2,1:2:0:0:
113,125,137747,1,0,1:2:0:0:
113,125,137828,1,8,0:2:0:0:
36,239,137991,2,0,L|22:179,1,56,10|0,0:2|1:2,0:2:0:0:
238,53,138317,6,0,P|227:104|214:214,1,154.000004699707,12|2,0:2|1:2,0:2:0:0:
370,328,138806,2,0,P|406:315|457:303,1,77.0000023498536,10|4,0:2|0:3,0:0:0:0:
385,161,139133,1,2,1:2:0:0:
385,161,139296,1,2,1:2:0:0:
287,265,139459,1,10,0:2:0:0:
215,205,139622,1,2,1:2:0:0:
67,311,139785,5,2,1:2:0:0:
143,360,139948,2,0,P|180:348|235:340,1,77.0000023498536,2|8,1:2|0:2,0:2:0:0:
85,188,140274,2,0,P|47:199|-7:208,1,77.0000023498536,2|0,1:2|1:2,0:2:0:0:
99,83,140600,1,2,1:2:0:0:
99,83,140681,1,0,1:2:0:0:
99,83,140763,1,8,0:2:0:0:
259,174,140926,6,0,B|288:126|343:123|343:123|387:148,1,154.000004699707,14|0,0:2|1:2,0:2:0:0:
468,211,141415,1,8,0:2:0:0:
276,324,141578,2,0,B|249:304|224:299|224:299|205:301,1,77.0000023498536,6|8,1:2|0:2,0:2:0:0:
75,278,141904,1,2,1:2:0:0:
152,162,142067,1,10,0:2:0:0:
103,80,142230,1,6,1:2:0:0:
236,28,142393,6,0,P|202:19|169:11,1,70,2|0,0:2|1:2,0:2:0:0:
282,159,142719,2,0,P|336:143|391:130,1,105,10|0,0:2|0:2,0:2:0:0:
383,131,143046,1,2,1:2:0:0:
482,214,143209,2,0,P|507:191|508:156,1,70,2|8,1:2|0:2,0:2:0:0:
264,267,143535,6,0,P|337:270|368:336,1,154.000004699707,6|0,1:2|1:2,0:2:0:0:
191,365,144024,1,10,0:2:0:0:
158,273,144187,2,0,P|166:234|176:199,1,77.0000023498536,2|0,1:2|1:2,0:2:0:0:
99,76,144513,2,0,P|65:56|29:63,1,77.0000023498536,2|8,1:2|0:2,0:0:0:0:
45,169,144839,1,0,1:2:0:0:
254,85,145002,6,0,P|262:47|271:10,1,77.0000023498536,2|0,1:2|1:2,0:2:0:0:
271,9,145247,1,2,1:2:0:0:
271,9,145328,1,8,0:2:0:0:
383,90,145491,2,0,L|432:76,2,38.5000011749268,2|0|0,1:2|1:2|1:2,0:0:0:0:
260,207,145817,2,0,L|185:187,1,77.0000023498536,10|0,0:2|0:2,0:2:0:0:
399,338,146143,6,0,P|431:292|486:289,1,115.50000352478,10|0,0:2|0:2,0:2:0:0:
486,289,146469,2,0,P|478:324|469:371,1,77.0000023498536,2|8,1:2|0:2,0:2:0:0:
344,238,146796,1,2,1:2:0:0:
484,178,146959,1,2,1:2:0:0:
484,178,147122,2,0,P|450:170|409:159,1,77.0000023498536,0|10,1:2|0:2,0:0:0:0:
336,60,147448,1,2,1:2:0:0:
207,151,147611,6,0,L|225:231,1,77.0000023498536,2|0,1:2|1:2,0:2:0:0:
361,353,147937,1,10,0:2:0:0:
348,250,148100,1,2,1:2:0:0:
348,250,148181,1,0,1:2:0:0:
348,250,148263,1,8,0:2:0:0:
206,338,148426,2,0,P|238:343|276:352,1,56,10|0,0:2|1:2,0:2:0:0:
166,147,148752,6,0,P|130:210|57:204,1,154.000004699707,12|2,0:2|1:2,0:2:0:0:
0,47,149241,2,0,L|80:68,1,77.0000023498536,10|4,0:2|0:3,0:2:0:0:
223,0,149567,1,2,1:2:0:0:
223,0,149730,1,2,1:2:0:0:
308,117,149893,1,10,0:2:0:0:
399,34,150056,1,2,1:2:0:0:
470,185,150219,6,0,P|473:149|481:109,1,77.0000023498536,2|0,1:2|1:2,0:2:0:0:
343,263,150546,1,10,0:2:0:0:
414,322,150709,2,0,P|449:310|499:301,1,77.0000023498536,2|0,1:2|1:2,0:2:0:0:
367,178,151035,1,2,1:2:0:0:
367,178,151116,1,0,1:2:0:0:
367,178,151198,1,8,0:2:0:0:
219,313,151361,1,10,0:2:0:0:
150,239,151524,6,0,L|138:190,2,41.9999987182618,10|8|8,0:2|0:2|0:2,0:2:0:0:
109,303,152339,1,2,0:2:0:0:
37,277,152502,2,0,L|25:228,1,41.9999987182618,10|0,0:2|0:2,0:2:0:0:
202,116,152828,5,10,0:2:0:0:
202,116,153399,6,0,B|239:109|264:139|244:141|266:175|304:173,1,125.999996154785,2|0,0:2|0:2,0:2:0:0:
321,99,153806,1,8,1:2:0:0:
186,200,153969,6,0,P|112:199|76:263,1,154.000004699707,6|0,1:2|1:2,0:2:0:0:
252,384,154459,2,0,L|270:298,1,77.0000023498536,8|0,0:2|1:2,0:0:0:0:
266,308,154703,1,0,1:2:0:0:
266,308,154785,1,0,1:2:0:0:
157,277,154948,1,8,0:2:0:0:
321,230,155111,2,0,P|359:243|404:252,1,77.0000023498536,0|0,1:2|1:2,0:0:0:0:
277,82,155437,6,0,B|242:98|242:98|248:136,1,77.0000023498536,10|0,0:2|1:2,0:2:0:0:
248,136,155681,1,0,1:2:0:0:
248,136,155763,2,0,P|209:122|165:114,1,77.0000023498536,2|8,1:2|0:2,0:2:0:0:
335,0,156089,1,10,1:1:0:0:
406,141,156252,1,10,1:1:0:0:
406,141,156578,6,0,P|472:172|469:249,1,154.000004699707,6|0,1:2|1:2,0:2:0:0:
360,345,157067,2,0,P|401:354|448:365,1,77.0000023498536,8|0,0:2|1:2,0:0:0:0:
435,361,157312,1,0,1:2:0:0:
435,361,157393,1,0,1:2:0:0:
354,220,157556,1,10,0:2:0:0:
256,345,157719,2,0,L|261:383,2,38.5000011749268,2|0|0,1:2|1:2|1:2,0:2:0:0:
117,272,158046,6,0,P|84:279|23:287,1,77.0000023498536,10|0,0:2|1:2,0:2:0:0:
41,285,158290,1,0,1:2:0:0:
41,285,158372,1,2,1:2:0:0:
167,170,158535,2,0,P|154:132|149:89,1,77.0000023498536,10|8,0:2|1:3,0:0:0:0:
144,0,158861,1,8,1:3:0:0:
49,141,159024,1,10,0:2:0:0:
250,114,159187,6,0,B|301:102|325:139|303:144|332:191|375:175,1,154.000004699707,6|0,1:2|1:2,0:2:0:0:
512,60,159676,2,0,P|501:100|490:150,1,77.0000023498536,8|0,0:2|1:2,0:0:0:0:
493,134,159921,1,0,1:2:0:0:
493,134,160002,1,0,1:2:0:0:
381,83,160165,1,8,0:2:0:0:
419,269,160328,2,0,P|457:252|514:243,1,77.0000023498536,0|0,1:2|1:2,0:2:0:0:
266,165,160654,6,0,P|232:178|178:194,1,77.0000023498536,10|0,0:2|1:2,0:2:0:0:
193,190,160899,1,0,1:2:0:0:
193,190,160980,2,0,B|164:166|164:166|176:128,1,77.0000023498536,2|8,1:2|0:2,0:2:0:0:
367,179,161306,1,10,1:1:0:0:
259,323,161469,1,10,1:1:0:0:
259,323,161796,6,0,B|217:293|217:293|152:288|138:348,1,154.000004699707,6|0,1:2|1:2,0:2:0:0:
0,218,162285,2,0,L|87:242,1,77.0000023498536,8|0,0:2|1:2,0:0:0:0:
74,238,162529,1,0,1:2:0:0:
74,238,162611,1,0,1:2:0:0:
202,168,162774,1,10,0:2:0:0:
88,78,162937,2,0,L|75:129,2,38.5000011749268,2|0|0,1:2|1:2|1:2,0:2:0:0:
277,238,163263,6,0,P|309:228|374:212,1,77.0000023498536,10|0,0:2|1:2,0:2:0:0:
351,217,163508,1,0,1:2:0:0:
351,217,163589,1,2,1:2:0:0:
464,127,163752,2,0,P|453:88|448:47,1,77.0000023498536,10|8,0:2|1:3,0:0:0:0:
344,119,164078,1,8,1:3:0:0:
475,235,164241,1,10,0:2:0:0:
326,308,164404,6,0,B|280:325|241:285|264:278|236:246|193:254,1,154.000004699707,6|0,1:2|1:2,0:2:0:0:
64,365,164893,2,0,P|57:329|40:281,1,77.0000023498536,8|0,0:2|1:2,0:0:0:0:
44,290,165138,1,0,1:2:0:0:
44,290,165219,1,0,1:2:0:0:
180,337,165383,1,8,0:2:0:0:
105,184,165546,2,0,P|69:193|9:205,1,77.0000023498536,0|0,1:2|1:2,0:2:0:0:
166,39,165872,6,0,B|196:66|196:66|183:100,1,77.0000023498536,10|0,0:2|1:2,0:2:0:0:
182,100,166116,1,0,1:2:0:0:
181,100,166198,2,0,P|222:92|258:84,1,77.0000023498536,2|8,1:2|0:2,0:2:0:0:
402,0,166524,1,10,1:1:0:0:
419,178,166687,1,10,1:1:0:0:
419,178,167013,6,0,P|345:172|306:233,1,154.000004699707,4|0,1:2|1:2,0:2:0:0:
420,384,167502,2,0,P|455:371|509:359,1,77.0000023498536,10|0,0:2|1:2,0:0:0:0:
493,361,167747,1,0,1:2:0:0:
493,361,167828,1,0,1:2:0:0:
385,252,167991,1,10,0:2:0:0:
281,380,168154,2,0,L|227:361,2,38.5000011749268,2|0|0,1:2|1:2|1:2,0:2:0:0:
132,255,168480,6,0,L|156:167,1,77.0000023498536,10|0,0:2|1:2,0:2:0:0:
153,180,168725,1,0,1:2:0:0:
153,180,168806,1,2,1:2:0:0:
77,79,168969,2,0,P|39:71|-2:59,1,77.0000023498536,10|8,0:2|1:3,0:0:0:0:
54,177,169296,1,8,1:3:0:0:
188,68,169459,1,10,0:2:0:0:
349,191,169622,6,0,P|422:201|467:142,1,154.000004699707,6|0,1:2|1:2,0:2:0:0:
396,4,170111,2,0,L|375:87,1,77.0000023498536,10|0,0:2|1:2,0:0:0:0:
260,217,170437,1,10,0:2:0:0:
223,146,170600,1,0,1:2:0:0:
444,218,170763,1,10,0:2:0:0:
404,287,170926,1,0,1:2:0:0:
207,317,171089,6,0,P|169:305|115:295,1,77.0000023498536,14|0,0:2|1:2,0:2:0:0:
308,145,171415,2,0,P|345:156|400:167,1,77.0000023498536,10|0,0:2|1:2,0:2:0:0:
280,39,171741,1,10,0:2:0:0:
163,145,171904,1,10,0:2:0:0:
281,246,172067,1,10,0:2:0:0:
93,58,172230,6,0,P|74:129|-5:140,1,154.000004699707,6|0,1:2|1:2,0:2:0:0:
177,307,172719,2,0,P|183:262|193:226,1,77.0000023498536,8|0,0:2|1:2,0:0:0:0:
191,231,172964,1,8,0:2:0:0:
191,231,173046,1,8,0:2:0:0:
82,171,173209,1,0,1:2:0:0:
35,236,173372,1,8,0:2:0:0:
277,305,173535,6,0,B|325:309|343:268|343:268|341:227|375:208,1,154.000004699707,6|0,1:2|1:2,0:2:0:0:
375,208,173942,1,0,1:2:0:0:
375,208,174024,2,0,P|342:203|294:189,1,77.0000023498536,8|8,0:2|0:3,0:0:0:0:
326,2,174350,1,10,0:2:0:0:
338,14,174431,1,8,0:2:0:0:
346,26,174513,1,4,0:3:0:0:
349,41,174594,1,4,0:3:0:0:
347,55,174676,1,10,0:0:0:0:
459,126,175002,6,0,B|451:88|408:59|360:62|318:88|294:122|337:131|292:180|250:198|218:198|152:180|144:116|136:70|192:44|237:42|244:85,1,472.499985580445,12|0,0:2|0:2,0:2:0:0:
241,75,177611,6,0,L|238:100,3,19.2500005874634,8|8|8|8,1:2|0:2|0:2|0:2,0:2:0:0:
169,131,177937,2,0,L|166:159,3,19.2500005874634,8|8|8|8,1:2|0:2|0:2|0:2,0:2:0:0:
96,186,178263,5,8,1:2:0:0:
96,186,178344,1,8,0:2:0:0:
96,186,178426,2,0,L|90:228,1,24.4999992523194,8|8,0:2|0:2,0:2:0:0:
22,242,178589,1,8,1:2:0:0:
22,242,178670,1,8,0:2:0:0:
22,242,178752,2,0,L|17:278,1,24.4999992523194,8|8,0:2|0:2,0:2:0:0:
85,341,178915,5,8,1:2:0:0:
92,349,178996,1,8,0:2:0:0:
92,349,179078,2,0,L|141:335,1,28,8|8,0:2|0:2,0:0:0:0:
202,280,179241,1,8,1:2:0:0:
202,280,179322,1,8,0:2:0:0:
202,280,179404,2,0,L|251:289,1,28,8|8,0:2|0:2,0:0:0:0:
327,367,179567,1,8,1:2:0:0:
348,361,179649,1,8,0:2:0:0:
363,348,179730,1,8,0:2:0:0:
368,330,179812,1,8,0:2:0:0:
367,310,179893,2,0,L|320:300,1,38.5000011749268,10|8,1:2|0:2,0:2:0:0:
291,214,180056,6,0,L|297:185,1,20.9999993591309,6|0,1:3|0:2,0:2:0:0:
