osu file format v14

[General]
AudioFilename: audio.mp3
AudioLeadIn: 0
PreviewTime: 101796
Countdown: 0
SampleSet: Soft
StackLeniency: 0.4
Mode: 0
LetterboxInBreaks: 0
WidescreenStoryboard: 1

[Editor]
Bookmarks: 15671,34095,49747,52192,70616,81051,91323,101921,112355,133225,154095,174964
DistanceSpacing: 1.2
BeatDivisor: 4
GridSize: 8
TimelineZoom: 1.7

[Metadata]
Title:VIVID VICE
TitleUnicode:VIVID VICE
Artist:Who-ya Extended
ArtistUnicode:Who-ya Extended
Creator:AirinCat
Version:Hard
Source:呪術廻戦
Tags:jujutsu kaisen anime op opening 2 second two sorcery fight japanese jrock rock pop jpop full gojo satoru fushiguro megumi
BeatmapID:2924076
BeatmapSetID:1415518

[Difficulty]
HPDrainRate:4
CircleSize:3.8
OverallDifficulty:6
ApproachRate:8
SliderMultiplier:1.2
SliderTickRate:1

[Events]
//Background and Video events
0,0,"Jujutsu.Kaisen.full.3259622.jpg",0,0
//Break Periods
2,101959,111643
//Storyboard Layer 0 (Background)
//Storyboard Layer 1 (Fail)
//Storyboard Layer 2 (Pass)
//Storyboard Layer 3 (Foreground)
//Storyboard Layer 4 (Overlay)
//Storyboard Sound Samples

[TimingPoints]
220,326.086956521739,4,2,1,50,1,0
4948,-100,4,2,1,10,0,0
5437,-142.857142857143,4,2,1,50,0,0
13263,-142.857142857143,4,2,1,60,0,0
14404,-100,4,2,1,60,0,0
15709,-90.9090909090909,4,2,1,70,0,0
23372,-125,4,2,1,60,0,0
23698,-125,4,2,1,60,0,0
32665,-99.9999999999999,4,2,1,70,0,0
33643,-142.857142857143,4,2,1,60,0,0
34133,-111.111111111111,4,2,1,55,0,0
43100,-99.9999999999999,4,2,1,60,0,0
44567,-125,4,2,1,50,0,0
45219,-153.846153846154,4,2,1,50,0,0
45872,-125,4,2,1,50,0,0
46524,-153.846153846154,4,2,1,50,0,0
47176,-125,4,2,1,50,0,0
47828,-153.846153846154,4,2,1,50,0,0
48480,-142.857142857143,4,2,1,50,0,0
51741,-111.111111111111,4,2,1,60,0,0
52230,-90.9090909090909,4,2,1,75,0,1
57122,-125,4,2,1,75,0,1
57448,-90.9090909090909,4,2,1,75,0,1
61524,-100,4,2,1,75,0,1
62665,-90.9090909090909,4,2,1,75,0,1
67556,-125,4,2,1,75,0,1
67883,-90.9090909090909,4,2,1,75,0,1
70654,-200,4,2,2,50,0,0
71633,-125,4,2,2,50,0,0
72448,-111.111111111111,4,2,1,70,0,0
72937,-83.3333333333333,4,2,1,70,0,0
73100,-90.9090909090909,4,2,1,70,0,0
80763,-100,4,2,1,70,0,0
81089,-142.857142857142,4,2,2,60,0,0
88589,-142.857142857142,4,2,1,70,0,0
88915,-142.857142857142,4,2,1,60,0,0
90383,-99.9999999999998,4,2,1,70,0,0
91361,-90.9090909090909,4,2,1,70,0,0
101633,-166.666666666667,4,2,1,60,0,0
112393,-142.857142857143,4,2,1,40,0,0
117611,-125,4,2,1,50,0,0
120056,-125,4,2,1,60,0,0
121361,-111.111111111111,4,2,1,60,0,0
122828,-100,4,2,1,50,0,0
127393,-100,4,2,1,60,0,0
128046,-200,4,2,1,50,0,0
128127,-200,4,2,1,5,0,0
130654,-200,4,2,1,45,0,0
131959,-142.857142857143,4,2,1,50,0,0
132611,-100,4,2,1,70,0,0
133100,-90.9090909090909,4,2,1,75,0,1
137991,-125,4,2,1,75,0,1
138317,-90.9090909090909,4,2,1,75,0,1
142393,-100,4,2,1,75,0,1
143535,-90.9090909090909,4,2,1,75,0,1
148426,-125,4,2,1,75,0,1
148752,-90.9090909090909,4,2,1,75,0,1
151524,-200,4,2,2,50,0,0
152339,-142.857142857143,4,2,2,50,0,0
153399,-111.111111111111,4,2,1,70,0,0
153806,-90.9090909090909,4,2,1,70,0,0
175002,-181.818181818182,4,2,1,70,0,0
175165,-181.818181818182,4,2,1,5,0,0
177448,-153.846153846154,4,2,1,45,0,0
178263,-142.857142857143,4,2,1,60,0,0
178915,-142.857142857143,4,2,1,70,0,0
179893,-90.909090909091,4,2,1,70,0,0
180056,-142.857142857143,4,2,1,70,0,0
180219,-142.857142857143,4,2,1,15,0,0

[Colours]
Combo1 : 154,157,226
Combo2 : 177,177,177
Combo3 : 155,174,202
Combo4 : 187,164,223

[HitObjects]
256,191,220,5,4,1:2:0:0:
256,192,301,12,4,2828,0:2:0:0:
256,192,2910,12,0,4948,0:0:0:0:
41,343,5437,6,0,L|0:350,2,41.9999987182618,10|2|10,0:2|0:2|0:2,0:2:0:0:
90,264,5926,2,0,L|80:219,1,41.9999987182618,2|8,0:2|0:2,0:2:0:0:
126,139,6252,2,0,P|169:130|212:121,2,83.9999974365235,2|2|2,1:2|1:2|0:2,0:2:0:0:
80,223,7067,1,8,0:2:0:0:
160,262,7230,2,0,L|170:308,1,41.9999987182618,2|8,1:2|0:2,0:2:0:0:
247,243,7556,2,0,L|255:285,1,41.9999987182618,2|8,1:2|0:2,0:2:0:0:
334,341,7883,5,2,1:2:0:0:
334,341,7964,1,0,1:2:0:0:
334,341,8046,2,0,L|424:324,2,83.9999974365235,8|8|8,0:2|0:2|0:2,0:2:0:0:
254,284,8861,2,0,L|246:242,1,41.9999987182618,0|8,1:2|0:2,0:0:0:0:
292,172,9187,6,0,L|339:164,1,41.9999987182618,2|8,1:2|0:0,0:0:0:0:
221,132,9513,2,0,L|211:82,1,41.9999987182618,2|8,0:0|0:0,0:0:0:0:
177,200,9839,2,0,L|128:211,1,41.9999987182618,2|8,1:2|0:0,0:0:0:0:
246,242,10165,2,0,L|254:284,1,41.9999987182618,2|8,1:2|0:2,0:0:0:0:
505,368,10654,5,10,0:2:0:0:
505,368,10817,1,2,1:2:0:0:
431,321,10980,2,0,L|389:327,2,41.9999987182618,10|2|8,0:2|0:2|0:2,0:2:0:0:
500,254,11469,2,0,P|494:212|486:166,2,83.9999974365235,2|2|2,1:2|1:2|0:2,0:2:0:0:
431,321,12285,1,8,0:2:0:0:
356,269,12448,2,0,L|331:275,2,20.9999993591309,2|0|8,1:2|1:2|0:2,0:0:0:0:
410,203,12774,1,2,1:2:0:0:
410,203,12855,1,0,1:2:0:0:
410,203,12937,1,12,0:2:0:0:
340,17,13263,6,0,B|291:0|256:17|242:67|242:67|253:119|227:157|184:157,1,251.999992309571,4|0,1:2|0:2,0:2:0:0:
98,121,14404,1,0,1:2:0:0:
98,121,14486,1,0,1:2:0:0:
98,121,14567,1,10,0:2:0:0:
27,176,14730,6,0,L|-11:159,2,30,8|8|4,0:3|0:3|1:3,0:0:0:0:
97,229,15056,2,0,L|135:211,2,30,10|0|4,0:2|3:2|1:3,0:2:0:0:
28,288,15383,2,0,L|-15:273,2,30,8|8|8,0:3|0:2|0:2,0:2:0:0:
97,364,15709,6,0,P|147:329|210:354,1,132.00000402832,6|0,1:2|1:2,0:2:0:0:
279,282,16198,2,0,L|265:215,1,66.0000020141602,8|0,0:2|1:2,0:0:0:0:
322,148,16524,1,0,1:2:0:0:
322,148,16687,1,8,0:2:0:0:
405,183,16850,2,0,P|441:177|475:173,1,66.0000020141602,0|0,1:2|1:2,0:0:0:0:
510,90,17176,6,0,L|499:22,1,66.0000020141602,10|0,0:2|1:3,0:2:0:0:
505,19,17421,1,0,1:3:0:0:
512,14,17502,2,0,L|439:26,1,66.0000020141602,2|8,1:2|0:2,0:2:0:0:
355,73,17828,1,10,1:1:0:0:
294,0,17991,1,10,1:1:0:0:
294,0,18317,6,0,P|251:47|266:109,1,132.00000402832,6|0,1:2|1:2,0:2:0:0:
317,191,18806,2,0,L|296:259,1,66.0000020141602,8|0,0:2|1:2,0:0:0:0:
346,338,19133,1,0,1:2:0:0:
346,338,19296,1,8,0:2:0:0:
254,362,19459,2,0,P|224:353|183:345,1,66.0000020141602,0|0,1:2|1:2,0:2:0:0:
129,285,19785,5,10,0:2:0:0:
53,337,19948,2,0,P|35:308|38:276,1,66.0000020141602,2|0,1:2|1:2,0:2:0:0:
106,198,20274,2,0,P|139:204|179:208,1,66.0000020141602,10|0,0:2|1:2,0:2:0:0:
236,136,20600,2,0,P|226:103|223:71,1,66.0000020141602,2|8,1:2|0:2,0:0:0:0:
305,12,20926,6,0,P|361:26|444:43,1,132.00000402832,6|0,1:2|1:2,0:2:0:0:
500,116,21415,2,0,P|490:146|482:184,1,66.0000020141602,8|0,0:2|1:2,0:0:0:0:
485,188,21660,1,0,1:2:0:0:
489,195,21741,2,0,P|496:226|503:267,1,66.0000020141602,0|0,1:2|1:2,0:0:0:0:
448,323,22067,1,8,0:2:0:0:
372,282,22230,6,0,B|332:295|332:295|311:339|311:339|272:352,1,132.00000402832,6|0,1:2|1:2,0:2:0:0:
182,328,22719,1,8,0:2:0:0:
182,328,23046,2,0,L|193:290,4,33.0000010070801,10|0|10|0|10,1:1|1:2|1:1|1:2|0:2,0:2:0:0:
39,226,23698,6,0,L|51:278,2,48,2|2|8,1:3|1:2|0:2,0:0:0:0:
77,92,24350,1,10,0:2:0:0:
151,134,24513,2,0,P|204:123|257:114,1,96,0|10,1:2|0:2,0:2:0:0:
311,53,25002,2,0,L|302:1,2,48,2|2|10,0:2|1:2|0:2,0:0:0:0:
392,97,25491,1,2,0:2:0:0:
295,200,25817,2,0,L|305:265,1,48,2|8,1:2|0:2,0:2:0:0:
378,299,26143,5,2,1:2:0:0:
378,299,26225,1,0,1:2:0:0:
378,299,26306,2,0,L|437:287,2,48,0|2|8,1:2|1:2|0:2,0:0:0:0:
342,372,26796,2,0,L|281:383,1,48,2|8,0:2|0:2,0:2:0:0:
228,329,27122,1,0,1:2:0:0:
228,329,27448,2,0,P|185:311|141:328,1,96,10|0,0:2|1:2,0:2:0:0:
76,263,27937,2,0,L|87:201,1,48,10|0,0:2|1:2,0:2:0:0:
21,148,28263,1,10,0:2:0:0:
200,37,28752,5,8,0:2:0:0:
200,37,28834,1,8,0:2:0:0:
200,37,28915,2,0,P|192:82|187:145,1,96,2|10,1:2|0:2,0:2:0:0:
267,259,29567,1,10,0:2:0:0:
333,206,29730,2,0,L|390:216,1,48,0|0,1:2|0:2,0:2:0:0:
464,176,30056,2,0,P|484:133|471:89,1,96,10|2,0:2|1:2,0:0:0:0:
421,23,30546,1,8,0:2:0:0:
347,64,30709,2,0,P|296:54|249:48,1,96,2|2,0:2|1:2,0:2:0:0:
116,29,31361,5,2,1:2:0:0:
116,29,31442,1,0,1:2:0:0:
116,29,31524,2,0,L|103:83,2,48,0|10|0,1:2|0:2|1:2,0:0:0:0:
10,81,32013,2,0,L|20:133,1,48,2|8,1:2|0:2,0:0:0:0:
109,159,32339,2,0,L|99:220,1,48,2|8,1:2|0:2,0:0:0:0:
44,278,32665,6,0,B|93:249|93:249|129:248|156:278,1,120,2|2,1:2|1:2,0:2:0:0:
250,283,33154,2,0,P|256:315|262:341,2,60,8|10|10,0:2|0:2|0:2,0:0:0:0:
351,240,33643,1,4,1:2:0:0:
351,240,34133,6,0,P|400:255|444:226,1,107.999996704102,2|10,1:3|0:2,0:2:0:0:
494,141,34622,2,0,P|479:89|468:32,1,107.999996704102,4|0,0:3|1:2,0:2:0:0:
468,36,35029,1,0,1:2:0:0:
468,36,35111,1,10,0:2:0:0:
382,25,35274,6,0,P|332:37|272:45,1,107.999996704102,2|4,1:2|0:3,0:2:0:0:
198,9,35763,1,8,0:2:0:0:
149,84,35926,1,4,0:3:0:0:
149,84,36252,2,0,L|156:114,2,26.9999991760254,2|0|10,1:2|1:2|0:2,0:0:0:0:
58,49,36578,2,0,L|45:4,2,26.9999991760254,0|0|2,1:2|1:2|1:2,0:0:0:0:
8,127,36904,2,0,L|24:187,1,53.9999983520508,4|8,0:3|0:2,0:2:0:0:
0,271,37230,2,0,P|51:278|88:242,1,107.999996704102,4|0,0:3|1:2,0:2:0:0:
171,202,37719,2,0,L|222:219,1,53.9999983520508,10|2,0:2|1:2,0:0:0:0:
320,194,38046,6,0,P|350:150|340:98,1,107.999996704102,2|8,0:2|0:2,0:2:0:0:
274,42,38535,2,0,L|281:2,2,26.9999991760254,2|8|0,0:2|0:2|0:0,0:0:0:0:
439,8,39024,2,0,L|427:65,1,53.9999983520508,10|2,0:2|1:3,0:0:0:0:
432,70,39268,1,0,1:2:0:0:
437,78,39350,2,0,L|500:90,1,53.9999983520508,4|4,1:3|0:3,0:0:0:0:
470,166,39676,2,0,L|407:154,2,53.9999983520508,10|4|2,0:2|0:3|0:0,0:0:0:0:
512,294,40328,2,0,L|499:347,1,53.9999983520508,10|2,0:2|1:2,0:0:0:0:
415,318,40654,6,0,L|432:256,2,53.9999983520508,2|4|10,0:2|0:3|0:2,0:2:0:0:
338,366,41143,1,4,0:3:0:0:
232,263,41469,1,2,1:2:0:0:
232,263,41551,1,0,1:2:0:0:
232,263,41633,1,10,0:2:0:0:
163,316,41796,6,0,P|114:334|69:307,1,107.999996704102,6|2,1:2|1:2,0:2:0:0:
9,236,42285,1,8,0:2:0:0:
72,176,42448,2,0,P|62:124|56:60,1,107.999996704102,2|2,1:2|1:2,0:2:0:0:
121,7,42937,1,8,0:2:0:0:
201,69,43100,6,0,P|249:37|305:54,1,120,6|4,1:2|0:3,0:2:0:0:
372,113,43589,1,8,0:2:0:0:
449,56,43752,2,0,L|446:23,2,30,2|8|8,0:2|0:2|0:2,0:0:0:0:
512,122,44078,2,0,L|496:185,1,60,8|4,0:3|0:3,0:0:0:0:
413,222,44404,1,4,0:3:0:0:
482,287,44567,6,0,P|413:267|345:287,1,144,6|0,1:2|1:2,0:2:0:0:
342,295,45138,1,0,1:2:0:0:
338,302,45219,2,0,P|285:325|232:304,1,116.999994644165,10|0,0:2|0:2,0:2:0:0:
170,239,45872,5,2,0:2:0:0:
220,176,46035,2,0,P|212:127|209:73,1,96,0|0,1:2|1:2,0:2:0:0:
148,28,46524,2,0,P|93:18|54:58,1,116.999994644165,10|0,0:2|0:0,0:2:0:0:
2,141,47176,6,0,P|32:205|45:276,1,144,2|0,1:2|1:2,0:2:0:0:
42,286,47747,1,0,1:2:0:0:
37,294,47828,2,0,P|91:274|143:297,1,116.999994644165,10|0,0:2|0:2,0:2:0:0:
215,353,48480,5,2,0:2:0:0:
269,299,48643,2,0,L|259:205,1,83.9999974365235,0|0,1:2|1:2,0:2:0:0:
301,147,49133,1,10,0:0:0:0:
353,202,49296,1,4,1:2:0:0:
471,54,49785,5,4,1:2:0:0:
256,192,49948,12,0,51089,0:2:0:0:
213,26,51741,6,0,L|206:59,4,26.9999991760254,2|0|4|8|8,1:2|1:2|0:3|0:2|0:2,0:2:0:0:
142,99,52230,6,0,P|203:79|253:118,1,132.00000402832,6|0,1:2|1:2,0:2:0:0:
309,191,52719,1,10,0:2:0:0:
230,242,52883,2,0,P|237:276|243:318,1,66.0000020141602,2|0,1:2|1:2,0:0:0:0:
335,358,53209,1,2,1:2:0:0:
335,358,53372,2,0,P|367:350|406:348,1,66.0000020141602,8|0,0:2|1:2,0:0:0:0:
481,260,53698,6,0,P|491:213|464:173,1,99.0000030212403,2|2,1:2|1:2,0:2:0:0:
464,173,54024,1,8,0:2:0:0:
376,137,54187,2,0,L|393:65,1,66.0000020141602,2|0,1:2|1:2,0:0:0:0:
319,8,54513,1,10,0:2:0:0:
319,8,54839,6,0,P|257:19|179:35,1,132.00000402832,10|2,0:2|1:2,0:2:0:0:
92,14,55328,2,0,L|109:84,1,66.0000020141602,8|2,0:2|1:2,0:0:0:0:
40,146,55654,1,2,1:2:0:0:
112,197,55817,2,0,L|191:177,1,66.0000020141602,2|8,1:2|0:2,0:2:0:0:
260,145,56143,6,0,P|214:189|227:251,1,132.00000402832,2|2,1:2|1:2,0:2:0:0:
299,311,56633,1,10,0:2:0:0:
386,281,56796,1,2,1:2:0:0:
386,281,56877,1,0,1:2:0:0:
386,281,56959,1,8,0:2:0:0:
464,342,57122,1,10,0:2:0:0:
464,342,57448,6,0,P|470:275|485:196,1,132.00000402832,12|2,0:2|1:2,0:2:0:0:
512,131,57937,2,0,P|476:123|429:108,1,66.0000020141602,10|4,0:2|0:3,0:0:0:0:
382,53,58263,2,0,P|353:61|308:66,1,66.0000020141602,2|2,1:2|1:2,0:0:0:0:
231,16,58589,1,10,0:2:0:0:
231,16,58752,1,2,1:2:0:0:
168,88,58915,5,2,1:2:0:0:
239,143,59078,2,0,P|232:173|223:219,1,66.0000020141602,2|8,1:2|0:2,0:2:0:0:
151,267,59404,2,0,P|88:275|49:225,1,132.00000402832,2|2,1:2|1:2,0:2:0:0:
128,180,59893,1,8,0:2:0:0:
225,207,60056,6,0,B|268:217|268:217|291:253|291:253|345:269,1,132.00000402832,14|0,0:2|1:2,0:2:0:0:
415,218,60546,1,8,0:2:0:0:
334,265,60709,2,0,B|291:275|291:275|268:311|268:311|214:327,1,132.00000402832,6|2,1:2|1:2,0:2:0:0:
138,374,61198,2,0,P|131:333|124:302,1,66.0000020141602,10|6,0:2|1:2,0:0:0:0:
46,253,61524,6,0,P|20:202|48:152,1,120,2|10,0:2|0:2,0:2:0:0:
251,29,62176,1,2,1:2:0:0:
159,6,62339,2,0,L|173:64,1,60,2|8,1:2|0:2,0:2:0:0:
232,147,62665,6,0,P|293:161|339:117,1,132.00000402832,6|0,1:2|1:2,0:2:0:0:
392,40,63154,1,10,0:2:0:0:
472,91,63317,2,0,L|461:158,1,66.0000020141602,2|0,1:2|1:2,0:2:0:0:
395,226,63643,1,2,1:2:0:0:
395,226,63806,2,0,L|409:297,1,66.0000020141602,8|0,0:2|1:2,0:0:0:0:
316,356,64133,6,0,P|268:362|233:329,1,99.0000030212403,2|2,1:2|1:2,0:2:0:0:
233,329,64459,1,8,0:2:0:0:
151,294,64622,2,0,L|84:314,1,66.0000020141602,2|0,1:2|1:2,0:0:0:0:
7,260,64948,1,10,0:2:0:0:
7,260,65274,6,0,P|49:212|37:150,1,132.00000402832,10|2,0:2|1:2,0:2:0:0:
3,52,65763,2,0,L|72:67,1,66.0000020141602,8|2,0:2|1:2,0:0:0:0:
152,10,66089,1,2,1:2:0:0:
197,85,66252,2,0,L|180:158,1,66.0000020141602,2|8,1:2|0:2,0:2:0:0:
111,201,66578,1,2,1:2:0:0:
158,275,66741,6,0,P|187:282|233:297,1,66.0000020141602,2|2,1:2|1:2,0:0:0:0:
301,247,67067,1,10,0:2:0:0:
363,320,67230,1,2,1:2:0:0:
363,320,67312,1,0,1:2:0:0:
363,320,67393,1,8,0:2:0:0:
440,268,67556,1,10,0:2:0:0:
440,268,67883,6,0,P|430:202|422:138,1,132.00000402832,14|2,0:2|1:2,0:2:0:0:
436,41,68372,2,0,L|361:62,1,66.0000020141602,10|4,0:2|0:3,0:2:0:0:
329,142,68698,2,0,L|251:116,1,66.0000020141602,2|2,1:2|1:2,0:0:0:0:
218,37,69024,2,0,L|143:58,1,66.0000020141602,10|2,0:2|1:2,0:0:0:0:
101,137,69350,5,2,1:2:0:0:
101,137,69513,1,2,1:2:0:0:
47,65,69676,1,10,0:2:0:0:
1,148,69839,2,0,L|24:227,1,66.0000020141602,2|0,1:2|1:2,0:2:0:0:
112,242,70165,2,0,L|148:229,2,33.0000010070801,2|0|8,1:2|1:2|0:2,0:0:0:0:
58,318,70491,1,10,0:2:0:0:
143,351,70654,6,0,L|212:328,2,60,10|8|8,0:2|0:2|0:2,0:2:0:0:
58,318,71469,1,2,0:2:0:0:
112,242,71633,2,0,L|174:223,1,48,10|0,0:2|0:2,0:2:0:0:
250,256,71959,5,10,0:2:0:0:
250,256,72529,2,0,B|290:244|313:266|313:266|319:304|357:316,1,134.999995880127,2|8,0:2|1:2,0:2:0:0:
458,314,73100,6,0,P|502:265|480:203,1,132.00000402832,6|0,1:2|1:2,0:2:0:0:
415,145,73589,2,0,L|435:72,1,66.0000020141602,8|0,0:2|1:2,0:0:0:0:
377,5,73915,1,0,1:2:0:0:
377,5,74078,1,8,0:2:0:0:
293,39,74241,2,0,L|225:24,1,66.0000020141602,0|0,1:2|1:2,0:0:0:0:
148,84,74567,6,0,L|160:159,1,66.0000020141602,10|0,0:2|1:3,0:2:0:0:
164,155,74812,1,0,1:3:0:0:
171,158,74893,2,0,L|103:172,1,66.0000020141602,2|8,1:2|0:2,0:2:0:0:
27,226,75219,1,10,1:1:0:0:
93,297,75383,1,10,1:1:0:0:
93,297,75709,6,0,P|155:300|184:356,1,132.00000402832,6|0,1:2|1:2,0:2:0:0:
273,383,76198,2,0,L|343:371,1,66.0000020141602,8|0,0:2|1:2,0:0:0:0:
418,324,76524,1,0,1:2:0:0:
340,269,76687,1,10,0:2:0:0:
421,215,76850,2,0,L|469:223,2,33.0000010070801,2|0|0,1:2|1:2|1:2,0:2:0:0:
327,147,77176,6,0,P|310:87|354:42,1,132.00000402832,10|2,0:2|1:2,0:2:0:0:
450,32,77665,1,10,0:2:0:0:
450,32,77991,1,8,1:3:0:0:
491,114,78154,1,8,0:2:0:0:
414,170,78317,6,0,P|353:148|289:158,1,132.00000402832,6|0,1:2|1:2,0:2:0:0:
214,219,78806,2,0,L|229:285,1,66.0000020141602,8|0,0:2|1:2,0:0:0:0:
235,291,79051,1,0,1:2:0:0:
242,297,79133,2,0,L|168:310,1,66.0000020141602,8|0,0:2|1:2,0:0:0:0:
91,346,79459,1,8,0:2:0:0:
31,275,79622,6,0,B|45:232|45:232|31:185|31:185|45:146,1,132.00000402832,4|0,1:2|1:2,0:2:0:0:
64,46,80111,1,8,0:2:0:0:
64,46,80437,2,0,L|106:62,4,33.0000010070801,10|8|10|4|12,0:1|0:2|0:1|0:3|0:2,0:0:0:0:
230,100,81089,6,0,L|276:116,2,41.9999987182618,10|2|8,1:2|0:2|0:2,0:2:0:0:
151,133,81578,2,0,L|140:178,1,41.9999987182618,2|8,0:2|0:2,0:2:0:0:
145,266,81904,2,0,P|103:266|73:238,2,83.9999974365235,2|2|2,1:2|1:2|0:2,0:2:0:0:
233,227,82719,1,8,0:2:0:0:
286,305,82883,2,0,L|273:356,1,41.9999987182618,2|8,1:2|0:2,0:2:0:0:
366,370,83209,2,0,L|379:319,1,41.9999987182618,2|8,1:2|0:2,0:2:0:0:
444,263,83535,5,2,1:2:0:0:
444,263,83616,1,0,1:2:0:0:
444,263,83698,2,0,P|455:215|467:178,2,83.9999974365235,8|8|8,0:2|0:2|0:2,0:2:0:0:
360,251,84513,1,0,1:0:0:0:
360,251,84676,1,8,0:2:0:0:
285,304,84839,6,0,L|238:289,1,41.9999987182618,2|8,1:2|0:2,0:2:0:0:
162,323,85165,2,0,L|151:368,1,41.9999987182618,2|8,0:0|0:2,0:0:0:0:
125,244,85491,2,0,L|78:230,1,41.9999987182618,2|8,1:2|0:0,0:0:0:0:
208,204,85817,2,0,L|221:157,1,41.9999987182618,2|8,1:2|0:2,0:0:0:0:
219,163,86306,5,10,1:2:0:0:
154,101,86469,1,2,1:2:0:0:
224,50,86633,2,0,L|269:59,2,41.9999987182618,10|2|8,0:2|0:2|0:2,0:2:0:0:
154,101,87122,2,0,L|59:83,2,83.9999974365235,2|2|2,1:2|1:2|0:2,0:2:0:0:
226,152,87937,1,8,0:2:0:0:
136,190,88100,2,0,L|143:221,2,20.9999993591309,0|0|8,1:2|1:2|0:2,0:0:0:0:
51,219,88426,1,0,1:2:0:0:
51,219,88508,1,0,1:2:0:0:
51,219,88589,1,10,0:2:0:0:
173,315,88915,6,0,B|211:279|261:281|303:322|262:333|318:372|358:376|394:348,1,251.999992309571,6|0,1:2|0:2,0:2:0:0:
470,288,90056,1,0,1:2:0:0:
470,288,90138,1,0,1:2:0:0:
470,288,90219,1,8,0:2:0:0:
384,226,90383,6,0,L|376:255,2,30,8|8|4,0:3|0:3|1:3,0:0:0:0:
472,173,90709,2,0,L|480:202,2,30,10|0|4,0:2|3:2|0:3,0:2:0:0:
399,108,91035,2,0,L|391:137,2,30,8|8|8,0:3|0:2|0:2,0:2:0:0:
481,57,91361,6,0,P|418:69|374:23,1,132.00000402832,6|0,1:2|1:2,0:2:0:0:
294,74,91850,2,0,P|264:61|228:50,1,66.0000020141602,8|0,0:2|1:2,0:0:0:0:
143,94,92176,1,0,1:2:0:0:
143,94,92339,1,8,0:2:0:0:
71,25,92502,2,0,P|47:47|44:79,1,66.0000020141602,0|0,1:2|1:2,0:2:0:0:
43,179,92828,6,0,L|117:203,1,66.0000020141602,10|0,0:2|1:3,0:2:0:0:
115,197,93073,1,0,1:3:0:0:
123,194,93154,2,0,L|107:260,1,66.0000020141602,2|8,1:2|0:2,0:2:0:0:
172,335,93480,1,10,1:1:0:0:
249,284,93643,1,10,1:1:0:0:
249,284,93969,6,0,P|312:274|356:325,1,132.00000402832,6|0,1:2|1:2,0:2:0:0:
454,326,94459,2,0,L|475:258,1,66.0000020141602,8|0,0:2|1:2,0:0:0:0:
453,163,94785,1,0,1:2:0:0:
453,163,94948,1,8,0:2:0:0:
370,206,95111,2,0,L|306:186,1,66.0000020141602,0|0,1:2|1:2,0:2:0:0:
254,108,95437,6,0,L|273:41,1,66.0000020141602,10|0,0:2|1:3,0:2:0:0:
279,40,95681,1,0,1:3:0:0:
285,35,95763,2,0,L|213:20,1,66.0000020141602,2|8,1:2|0:2,0:2:0:0:
155,83,96089,1,10,1:1:0:0:
67,72,96252,2,0,P|60:36|49:-5,1,66.0000020141602,10|8,1:1|0:2,0:0:0:0:
0,145,96578,6,0,P|60:164|74:226,1,132.00000402832,6|0,1:2|1:2,0:2:0:0:
159,269,97067,2,0,L|224:253,1,66.0000020141602,8|0,0:2|1:2,0:0:0:0:
268,172,97393,1,0,1:2:0:0:
268,172,97556,1,8,0:2:0:0:
345,225,97719,2,0,L|335:299,1,66.0000020141602,0|0,1:2|1:2,0:2:0:0:
403,353,98046,6,0,P|432:367|463:359,1,66.0000020141602,10|0,0:2|1:3,0:2:0:0:
473,354,98290,1,0,1:3:0:0:
480,348,98372,2,0,L|486:272,1,66.0000020141602,2|8,1:2|0:2,0:0:0:0:
433,196,98698,1,10,1:1:0:0:
508,146,98861,1,10,1:1:0:0:
508,146,99187,6,0,P|467:98|404:106,1,132.00000402832,6|0,1:2|1:2,0:2:0:0:
311,161,99676,2,0,L|299:92,1,66.0000020141602,8|0,0:2|1:2,0:0:0:0:
216,44,100002,2,0,L|151:56,1,66.0000020141602,8|0,0:2|1:2,0:0:0:0:
75,116,100328,1,8,0:2:0:0:
14,65,100491,6,0,B|38:84|52:108|52:108|37:144|24:186,1,132.00000402832,6|0,1:2|1:2,0:2:0:0:
100,225,100980,1,8,0:2:0:0:
100,225,101306,2,0,L|136:210,4,33.0000010070801,10|8|10|4|12,0:1|0:2|0:1|0:3|0:2,0:0:0:0:
133,280,112393,6,0,L|93:269,2,41.9999987182618,2|2|0,1:2|0:2|0:2,0:0:0:0:
199,328,112883,2,0,P|237:318|296:307,1,83.9999974365235,2|2,0:2|0:2,0:2:0:0:
332,248,113372,1,2,0:2:0:0:
332,248,113535,2,0,P|308:214|315:173,1,83.9999974365235,2|2,0:2|0:2,0:2:0:0:
372,117,114024,2,0,L|429:128,1,41.9999987182618,2|2,0:2|0:2,0:0:0:0:
470,289,114513,2,0,L|512:282,2,41.9999987182618,2|2|0,0:2|0:2|0:2,0:0:0:0:
382,354,115002,6,0,P|338:344|299:335,1,83.9999974365235,2|2,1:2|0:2,0:2:0:0:
227,359,115491,2,0,P|186:354|160:322,1,83.9999974365235,2|2,0:2|0:2,0:2:0:0:
98,273,115980,2,0,L|49:286,1,41.9999987182618,2|2,0:2|0:2,0:2:0:0:
33,205,116306,5,2,0:2:0:0:
33,205,116469,2,0,L|78:194,1,41.9999987182618,2|0,0:2|0:2,0:2:0:0:
129,134,116796,2,0,P|114:91|108:45,1,83.9999974365235,2|0,0:2|1:2,0:2:0:0:
162,0,117285,1,10,0:2:0:0:
260,123,117611,6,0,P|301:102|346:116,1,96,8|0,0:2|1:2,0:2:0:0:
423,165,118100,1,10,0:2:0:0:
369,241,118263,2,0,L|379:287,2,48,2|8|0,1:2|0:2|1:2,0:0:0:0:
285,264,118752,1,2,1:2:0:0:
285,264,118834,1,8,0:2:0:0:
285,264,118915,2,0,L|295:314,2,48,10|10|2,0:2|0:2|1:2,0:0:0:0:
199,220,119404,1,10,0:2:0:0:
44,380,119730,1,2,1:2:0:0:
5,308,119893,1,8,1:2:0:0:
89,309,120056,6,0,P|132:320|194:340,1,96,8|2,0:2|0:2,0:0:0:0:
181,335,120464,1,8,0:2:0:0:
181,335,120546,1,8,0:2:0:0:
261,293,120709,2,0,L|320:307,1,48,10|0,0:2|1:2,0:0:0:0:
400,322,121035,1,10,0:0:0:0:
399,322,121361,6,0,P|437:286|436:234,1,107.999996704102,10|2,0:2|0:2,0:2:0:0:
387,161,121850,1,10,0:2:0:0:
449,99,122013,2,0,P|438:67|432:41,1,53.9999983520508,2|8,0:2|0:2,0:0:0:0:
341,21,122339,1,8,0:3:0:0:
285,98,122502,2,0,L|295:139,3,26.9999991760254,8|4|4|4,0:2|0:3|0:3|0:3,0:2:0:0:
284,141,122828,6,0,P|234:171|179:150,1,120,4|0,1:2|1:2,0:2:0:0:
49,269,123480,2,0,P|107:237|161:263,1,120,2|0,1:2|1:2,0:0:0:0:
226,320,123969,1,8,0:2:0:0:
226,320,124051,1,8,0:2:0:0:
226,320,124133,6,0,P|280:304|349:293,1,120,2|0,1:2|1:2,0:0:0:0:
504,227,124785,2,0,P|445:225|408:179,1,120,2|0,1:2|1:2,0:0:0:0:
493,140,125274,1,8,0:2:0:0:
493,140,125355,1,8,0:2:0:0:
493,140,125437,2,0,P|502:73|514:16,1,120,2|0,1:2|1:0,0:0:0:0:
293,15,126089,6,0,P|299:62|304:136,1,120,2|0,1:2|1:2,0:2:0:0:
223,197,126578,1,8,0:2:0:0:
223,197,126660,1,8,0:2:0:0:
223,197,126741,2,0,P|166:210|119:175,1,120,2|0,1:2|1:2,0:2:0:0:
30,227,127230,1,8,0:2:0:0:
30,227,127312,1,8,0:2:0:0:
30,227,127393,2,0,L|19:274,3,30,2|8|8|8,1:2|0:2|0:2|0:2,0:2:0:0:
52,294,127719,2,0,L|41:341,3,30,8|8|8|8,1:2|0:2|0:2|0:2,0:0:0:0:
59,359,128046,6,0,B|102:374|161:367|198:329|166:310|224:272|281:288|329:307|316:342|316:342|260:352|243:291|246:230|292:212,1,480,6|2,1:2|0:2,0:2:0:0:
286,214,131306,1,2,0:2:0:0:
286,214,131959,1,2,0:2:0:0:
389,323,132285,2,0,L|398:282,1,41.9999987182618,2|0,0:2|0:0,0:2:0:0:
446,209,132611,6,0,L|437:174,4,30,0|0|4|8|8,1:2|1:2|0:3|0:2|0:2,0:2:0:0:
479,108,133100,6,0,P|428:146|366:130,1,132.00000402832,6|0,1:2|1:2,0:2:0:0:
298,53,133589,1,10,0:2:0:0:
255,138,133752,2,0,P|225:143|181:154,1,66.0000020141602,2|0,1:2|1:2,0:0:0:0:
92,131,134078,1,2,1:2:0:0:
92,131,134241,2,0,L|78:60,1,66.0000020141602,8|0,0:2|1:2,0:0:0:0:
0,197,134567,6,0,P|47:206|69:249,1,99.0000030212403,2|2,1:2|1:2,0:2:0:0:
68,248,134893,1,8,0:2:0:0:
143,304,135056,2,0,P|179:290|213:286,1,66.0000020141602,2|0,1:2|1:2,0:0:0:0:
272,200,135383,1,10,0:2:0:0:
272,200,135709,6,0,P|308:252|371:252,1,132.00000402832,10|2,0:2|1:2,0:2:0:0:
456,285,136198,2,0,L|469:220,1,66.0000020141602,8|2,0:2|1:2,0:0:0:0:
512,140,136524,1,0,1:0:0:0:
512,140,136605,1,2,1:2:0:0:
512,140,136687,2,0,L|432:123,1,66.0000020141602,0|10,1:2|0:2,0:0:0:0:
369,54,137013,6,0,P|306:61|281:119,1,132.00000402832,2|0,1:2|1:2,0:2:0:0:
209,194,137502,1,10,0:2:0:0:
121,151,137665,1,2,1:2:0:0:
121,151,137747,1,0,1:2:0:0:
121,151,137828,1,8,0:2:0:0:
53,216,137991,1,10,0:2:0:0:
53,216,138317,6,0,B|90:238|90:238|114:281|83:323,1,132.00000402832,12|2,0:2|1:2,0:2:0:0:
160,375,138806,2,0,L|233:355,1,66.0000020141602,10|4,0:2|0:3,0:0:0:0:
240,260,139133,2,0,L|313:280,1,66.0000020141602,2|2,1:2|1:2,0:0:0:0:
344,358,139459,2,0,P|375:348|417:338,1,66.0000020141602,10|2,0:2|1:2,0:0:0:0:
419,246,139785,5,2,1:2:0:0:
494,302,139948,2,0,P|513:275|512:243,1,66.0000020141602,2|8,1:2|0:2,0:2:0:0:
465,165,140274,2,0,P|404:146|348:189,1,132.00000402832,2|2,1:2|1:2,0:2:0:0:
296,257,140763,1,8,0:2:0:0:
217,201,140926,6,0,B|199:153|199:153|164:125|164:125|154:90,1,132.00000402832,14|0,0:2|1:2,0:2:0:0:
155,2,141415,1,8,0:2:0:0:
155,90,141578,2,0,B|145:124|145:124|110:152|110:152|92:200,1,132.00000402832,6|2,1:2|1:2,0:2:0:0:
8,235,142067,2,0,L|26:307,1,66.0000020141602,10|6,0:2|1:2,0:0:0:0:
112,358,142393,6,0,P|156:320|212:334,1,120,2|10,0:2|0:2,0:2:0:0:
432,300,143046,1,2,1:2:0:0:
359,361,143209,2,0,P|350:321|340:293,1,60,2|8,1:2|0:2,0:2:0:0:
253,237,143535,6,0,P|220:182|248:125,1,132.00000402832,6|0,1:2|1:2,0:2:0:0:
328,67,144024,1,10,0:2:0:0:
404,131,144187,2,0,P|434:123|473:116,1,66.0000020141602,2|0,1:2|1:2,0:2:0:0:
502,208,144513,1,2,1:2:0:0:
502,208,144676,2,0,P|469:214|437:222,1,66.0000020141602,8|0,0:2|1:2,0:0:0:0:
368,316,145002,6,0,P|312:299|245:280,1,99.0000030212403,2|2,1:2|1:2,0:2:0:0:
273,288,145328,1,8,0:2:0:0:
199,227,145491,2,0,P|176:250|176:282,1,66.0000020141602,2|0,1:2|1:2,0:0:0:0:
61,251,145817,1,10,0:2:0:0:
61,251,146143,6,0,P|99:199|83:137,1,132.00000402832,10|2,0:2|1:2,0:2:0:0:
7,63,146633,2,0,P|43:49|87:31,1,66.0000020141602,8|2,0:2|1:2,0:0:0:0:
162,75,146959,1,2,1:2:0:0:
230,4,147122,2,0,P|252:27|255:59,1,66.0000020141602,0|10,1:2|0:2,0:0:0:0:
211,147,147448,1,2,1:2:0:0:
300,176,147611,6,0,P|365:158|444:146,1,132.00000402832,2|10,1:2|0:2,0:2:0:0:
501,218,148100,1,2,1:2:0:0:
501,218,148181,1,0,1:2:0:0:
501,218,148263,1,8,0:2:0:0:
446,298,148426,1,10,0:2:0:0:
446,298,148752,6,0,B|397:276|397:276|348:287|346:344,1,132.00000402832,12|2,0:2|1:2,0:2:0:0:
252,312,149241,2,0,P|246:276|239:236,1,66.0000020141602,10|4,0:2|0:3,0:2:0:0:
320,181,149567,2,0,P|323:149|329:111,1,66.0000020141602,2|2,1:2|1:2,0:0:0:0:
262,35,149893,1,10,0:2:0:0:
262,35,150056,1,2,1:2:0:0:
179,90,150219,6,0,P|115:84|85:28,1,132.00000402832,2|10,1:2|0:2,0:2:0:0:
0,106,150709,2,0,P|48:147|45:211,1,132.00000402832,2|2,1:2|1:2,0:2:0:0:
45,211,151116,1,0,1:2:0:0:
45,211,151198,1,8,0:2:0:0:
134,285,151361,1,10,0:2:0:0:
58,346,151524,6,0,L|-10:330,2,60,10|8|8,0:2|0:2|0:2,0:2:0:0:
134,285,152339,1,2,0:2:0:0:
198,358,152502,2,0,L|256:371,1,41.9999987182618,10|0,0:2|0:2,0:2:0:0:
324,305,152828,5,10,0:2:0:0:
324,305,153399,2,0,B|322:275|303:245|289:262|258:230|263:191,1,134.999995880127,2|8,0:2|1:2,0:2:0:0:
205,121,153969,6,0,P|261:136|354:154,1,132.00000402832,6|0,1:2|1:2,0:2:0:0:
433,115,154459,2,0,L|420:192,1,66.0000020141602,8|0,0:2|1:2,0:0:0:0:
489,252,154785,1,0,1:2:0:0:
489,252,154948,1,8,0:2:0:0:
418,313,155111,2,0,L|346:298,1,66.0000020141602,0|0,1:2|1:2,0:0:0:0:
248,283,155437,6,0,P|228:308|228:340,1,66.0000020141602,10|0,0:2|1:2,0:2:0:0:
233,350,155681,1,0,1:2:0:0:
238,357,155763,2,0,P|197:349|167:346,1,66.0000020141602,2|8,1:2|0:2,0:2:0:0:
66,359,156089,1,10,1:1:0:0:
103,277,156252,1,10,1:1:0:0:
103,277,156578,6,0,P|62:227|78:166,1,132.00000402832,6|0,1:2|1:2,0:2:0:0:
57,62,157067,2,0,L|135:85,1,66.0000020141602,8|0,0:2|1:2,0:0:0:0:
205,32,157393,1,0,1:2:0:0:
263,101,157556,1,10,0:2:0:0:
339,51,157719,2,0,L|334:17,2,33.0000010070801,2|0|0,1:2|1:2|1:2,0:2:0:0:
431,103,158046,6,0,P|413:159|401:239,1,132.00000402832,10|2,0:2|1:2,0:2:0:0:
438,316,158535,1,10,0:2:0:0:
438,316,158861,1,8,1:3:0:0:
361,371,159024,1,10,0:2:0:0:
289,305,159187,6,0,P|227:288|179:329,1,132.00000402832,6|0,1:2|1:2,0:2:0:0:
84,330,159676,2,0,L|71:258,1,66.0000020141602,8|0,0:2|1:2,0:0:0:0:
0,205,160002,1,0,1:2:0:0:
0,205,160165,1,8,0:2:0:0:
62,132,160328,2,0,P|94:126|130:118,1,66.0000020141602,0|0,1:2|1:2,0:2:0:0:
223,159,160654,6,0,P|228:187|236:227,1,66.0000020141602,10|0,0:2|1:2,0:2:0:0:
235,233,160899,1,0,1:2:0:0:
237,241,160980,2,0,L|312:226,1,66.0000020141602,2|8,1:2|0:2,0:2:0:0:
393,281,161306,1,10,1:1:0:0:
457,214,161469,1,10,1:1:0:0:
457,214,161796,6,0,P|425:160|455:104,1,132.00000402832,6|0,1:2|1:2,0:2:0:0:
410,29,162285,2,0,L|343:17,1,66.0000020141602,8|0,0:2|1:2,0:0:0:0:
262,68,162611,1,0,1:2:0:0:
199,6,162774,1,10,0:2:0:0:
142,76,162937,2,0,L|148:111,2,33.0000010070801,2|0|0,1:2|1:2|1:2,0:2:0:0:
63,30,163263,6,0,P|11:65|16:128,1,132.00000402832,10|2,0:2|1:2,0:2:0:0:
81,199,163752,1,10,0:2:0:0:
81,199,164078,1,8,1:3:0:0:
36,279,164241,1,10,0:2:0:0:
113,332,164404,6,0,P|165:316|250:301,1,132.00000402832,6|0,1:2|1:2,0:2:0:0:
330,356,164893,2,0,P|347:328|344:296,1,66.0000020141602,8|0,0:2|1:2,0:0:0:0:
299,207,165219,1,0,1:2:0:0:
299,207,165383,1,8,0:2:0:0:
194,213,165546,2,0,P|198:175|203:140,1,66.0000020141602,0|0,1:2|1:2,0:2:0:0:
285,62,165872,6,0,L|355:74,1,66.0000020141602,10|0,0:2|1:2,0:2:0:0:
358,69,166116,1,0,1:2:0:0:
366,67,166198,2,0,L|355:139,1,66.0000020141602,2|8,1:2|0:2,0:2:0:0:
426,193,166524,1,10,1:1:0:0:
509,164,166687,1,10,1:1:0:0:
509,164,167013,6,0,B|466:186|466:186|447:218|464:268,1,132.00000402832,4|0,1:2|1:2,0:2:0:0:
401,338,167502,2,0,P|369:331|329:326,1,66.0000020141602,10|0,0:2|1:2,0:0:0:0:
261,279,167828,1,0,1:2:0:0:
198,343,167991,1,10,0:2:0:0:
121,295,168154,2,0,L|83:302,2,33.0000010070801,2|0|0,1:2|1:2|1:2,0:2:0:0:
176,216,168480,6,0,P|189:153|147:105,1,132.00000402832,10|2,0:2|1:2,0:2:0:0:
51,81,168969,1,10,0:2:0:0:
51,81,169296,1,8,1:3:0:0:
119,17,169459,1,10,0:2:0:0:
217,41,169622,6,0,B|252:39|275:13|275:13|316:18|332:39,1,132.00000402832,6|0,1:2|1:2,0:2:0:0:
432,70,170111,2,0,P|423:106|420:148,1,66.0000020141602,10|0,0:2|1:2,0:0:0:0:
307,127,170437,2,0,P|315:161|319:205,1,66.0000020141602,10|0,0:2|1:2,0:0:0:0:
421,229,170763,2,0,P|411:266|409:307,1,66.0000020141602,10|0,0:2|1:2,0:0:0:0:
318,353,171089,6,0,P|289:338|256:339,1,66.0000020141602,14|0,0:2|1:2,0:2:0:0:
212,258,171415,2,0,P|183:272|150:271,1,66.0000020141602,10|0,0:2|1:2,0:2:0:0:
79,334,171741,1,10,0:2:0:0:
11,271,171904,1,10,0:2:0:0:
69,198,172067,1,10,0:2:0:0:
13,141,172230,6,0,P|79:159|160:169,1,132.00000402832,6|0,1:2|1:2,0:2:0:0:
233,131,172719,2,0,P|238:100|249:60,1,66.0000020141602,8|0,0:2|1:2,0:0:0:0:
243,56,172964,1,8,0:2:0:0:
241,47,173046,2,0,P|271:55|308:62,1,66.0000020141602,8|0,0:2|1:2,0:0:0:0:
382,20,173372,1,8,0:2:0:0:
459,95,173535,6,0,P|452:144|442:231,1,132.00000402832,6|0,1:2|1:2,0:2:0:0:
406,316,174024,1,8,0:2:0:0:
406,316,174350,2,0,L|440:325,4,33.0000010070801,10|8|4|4|12,0:2|0:2|0:3|0:3|0:2,0:0:0:0:
310,203,175002,6,0,B|340:188|343:126|304:94|254:91|197:121|180:182|201:250|266:274|296:307|283:371|245:404|195:400|156:385|149:337|160:324,1,495.000015106202,12|0,0:2|0:2,0:2:0:0:
108,248,177611,6,0,L|118:224,2,19.4999991073609,8|8|8,1:2|0:2|0:2,0:2:0:0:
30,199,177937,2,0,L|20:175,2,19.4999991073609,8|8|8,1:2|0:2|0:2,0:2:0:0:
108,134,178263,2,0,L|116:104,2,20.9999993591309,8|8|8,1:2|0:2|0:2,0:0:0:0:
29,85,178589,2,0,L|21:55,2,20.9999993591309,8|8|8,1:2|0:2|0:2,0:0:0:0:
123,17,178915,6,0,L|147:23,3,20.9999993591309,8|8|8|8,1:2|0:2|0:2|0:2,0:0:0:0:
166,46,179241,2,0,L|190:52,3,20.9999993591309,8|8|8|8,1:2|0:2|0:2|0:2,0:0:0:0:
213,83,179567,2,0,L|244:89,3,20.9999993591309,8|8|8|8,1:2|0:2|0:2|0:2,0:0:0:0:
258,104,179893,1,10,1:2:0:0:
268,101,179975,1,8,0:2:0:0:
276,97,180056,6,0,L|269:140,1,41.9999987182618,6|0,1:3|0:2,0:2:0:0:
