osu file format v14

[General]
AudioFilename: audio.mp3
AudioLeadIn: 0
PreviewTime: 101796
Countdown: 0
SampleSet: Soft
StackLeniency: 0.3
Mode: 0
LetterboxInBreaks: 0
WidescreenStoryboard: 0

[Editor]
Bookmarks: 15671,34095,49747,52192,70616,81051,91323,101921,112355,133225,154095,174964
DistanceSpacing: 1.1
BeatDivisor: 4
GridSize: 16
TimelineZoom: 1.7

[Metadata]
Title:VIVID VICE
TitleUnicode:VIVID VICE
Artist:Who-ya Extended
ArtistUnicode:Who-ya Extended
Creator:AirinCat
Version:Extra
Source:呪術廻戦
Tags:jujutsu kaisen anime op opening 2 second two sorcery fight japanese jrock rock pop jpop full gojo satoru fushiguro megumi
BeatmapID:2917347
BeatmapSetID:1415518

[Difficulty]
HPDrainRate:6
CircleSize:4
OverallDifficulty:8.6
ApproachRate:9.2
SliderMultiplier:1.6
SliderTickRate:1

[Events]
//Background and Video events
0,0,"Jujutsu.Kaisen.full.3259622.jpg",0,0
//Break Periods
2,102159,111823
//Storyboard Layer 0 (Background)
//Storyboard Layer 1 (Fail)
//Storyboard Layer 2 (Pass)
//Storyboard Layer 3 (Foreground)
//Storyboard Layer 4 (Overlay)
//Storyboard Sound Samples

[TimingPoints]
220,326.086956521739,4,2,1,50,1,0
5274,-100,4,2,1,10,0,0
5437,-200,4,2,1,50,0,0
13263,-166.666666666667,4,2,1,60,0,0
14404,-100,4,2,1,60,0,0
15709,-83.3333333333333,4,2,1,70,0,0
23372,-125,4,2,1,60,0,0
23698,-125,4,2,1,60,0,0
32665,-99.9999999999999,4,2,1,70,0,0
33643,-142.857142857143,4,2,1,60,0,0
34133,-111.111111111111,4,2,1,55,0,0
43100,-99.9999999999999,4,2,1,60,0,0
44567,-125,4,2,1,50,0,0
45219,-142.857142857143,4,2,1,50,0,0
45872,-125,4,2,1,50,0,0
46524,-142.857142857143,4,2,1,50,0,0
47176,-125,4,2,1,50,0,0
47828,-142.857142857143,4,2,1,50,0,0
49622,-142.857142857143,4,2,1,5,0,0
49785,-142.857142857143,4,2,1,50,0,0
51741,-111.111111111111,4,2,1,60,0,0
52230,-83.3333333333334,4,2,1,75,0,1
57122,-125,4,2,1,75,0,1
57448,-83.3333333333334,4,2,1,75,0,1
61524,-90.9090909090909,4,2,1,75,0,1
62665,-83.3333333333334,4,2,1,75,0,1
67556,-125,4,2,1,75,0,1
67883,-83.3333333333334,4,2,1,75,0,1
70654,-333.333333333333,4,2,2,50,0,0
71633,-166.666666666667,4,2,2,50,0,0
72448,-111.111111111111,4,2,1,70,0,0
72937,-83.3333333333333,4,2,1,70,0,0
73018,-83.3333333333333,4,2,1,5,0,0
73100,-83.3333333333333,4,2,1,70,0,0
80763,-100,4,2,1,70,0,0
81089,-166.666666666666,4,2,2,60,0,0
88589,-125,4,2,1,70,0,0
88834,-125,4,2,1,5,0,0
88915,-199.999999999999,4,2,1,60,0,0
90383,-99.9999999999998,4,2,1,70,0,0
91361,-83.3333333333333,4,2,1,70,0,0
101633,-166.666666666667,4,2,1,60,0,0
112393,-142.857142857143,4,2,1,40,0,0
117611,-125,4,2,1,50,0,0
120056,-125,4,2,1,60,0,0
121361,-111.111111111111,4,2,1,60,0,0
122828,-100,4,2,1,50,0,0
127393,-100,4,2,1,60,0,0
128046,-217.391304347826,4,2,1,50,0,0
128127,-217.391304347826,4,2,1,5,0,0
130654,-217.391304347826,4,2,1,45,0,0
131959,-142.857142857143,4,2,1,50,0,0
132611,-83.3333333333333,4,2,1,70,0,0
133100,-83.3333333333333,4,2,1,75,0,1
137991,-125,4,2,1,75,0,1
138317,-83.3333333333333,4,2,1,75,0,1
142393,-90.9090909090909,4,2,1,75,0,1
143535,-83.3333333333333,4,2,1,75,0,1
148426,-125,4,2,1,75,0,1
148752,-83.3333333333333,4,2,1,75,0,1
151524,-333.333333333333,4,2,2,50,0,0
152339,-166.666666666667,4,2,2,50,0,0
153399,-111.111111111111,4,2,1,70,0,0
153806,-83.3333333333334,4,2,1,70,0,0
153888,-83.3333333333334,4,2,1,5,0,0
153969,-83.3333333333334,4,2,1,70,0,0
175002,-200,4,2,1,70,0,0
175165,-200,4,2,1,5,0,0
177448,-200,4,2,1,45,0,0
178263,-142.857142857143,4,2,1,60,0,0
178915,-142.857142857143,4,2,1,70,0,0
179893,-90.909090909091,4,2,1,70,0,0
180056,-333.333333333334,4,2,1,70,0,0
180219,-333.333333333334,4,2,1,15,0,0

[Colours]
Combo1 : 154,157,226
Combo2 : 177,177,177
Combo3 : 155,174,202
Combo4 : 187,164,223

[HitObjects]
256,192,220,5,4,1:2:0:0:
256,192,301,12,4,2828,0:2:0:0:
256,192,2910,12,0,5274,0:2:0:0:
39,319,5437,6,0,L|-6:329,1,40,10|2,0:2|0:2,0:2:0:0:
75,227,5763,1,10,0:2:0:0:
75,227,5926,2,0,L|64:182,1,40,2|8,0:2|0:2,0:2:0:0:
156,291,6252,2,0,L|210:277,1,40,2|8,1:2|0:2,0:2:0:0:
283,182,6578,2,0,L|268:227,1,40,2|8,1:2|0:2,0:2:0:0:
300,354,6904,2,0,L|272:306,1,40,2|8,0:2|0:2,0:2:0:0:
416,266,7230,6,0,L|378:255,1,40,2|8,1:2|0:2,0:2:0:0:
506,169,7556,2,0,L|463:186,1,40,2|8,1:2|0:2,0:2:0:0:
483,364,7883,1,2,1:2:0:0:
483,364,7964,1,0,1:2:0:0:
483,364,8046,2,0,P|497:323|513:289,2,80,8|8|8,0:2|0:2|0:2,0:2:0:0:
250,258,8861,1,0,1:2:0:0:
250,258,9024,1,8,0:2:0:0:
268,344,9187,6,0,L|276:388,1,40,2|8,1:2|0:2,0:2:0:0:
162,281,9513,2,0,L|111:291,1,40,2|8,0:2|0:2,0:2:0:0:
237,172,9839,2,0,L|230:132,1,40,2|8,1:2|0:2,0:2:0:0:
385,239,10165,2,0,L|345:246,2,40,2|8|2,1:2|0:2|0:3,0:2:0:0:
512,163,10654,5,10,0:2:0:0:
420,112,10817,1,2,1:2:0:0:
512,40,10980,2,0,L|499:92,2,40,10|2|8,0:2|0:2|0:2,0:2:0:0:
363,2,11469,2,0,L|352:52,1,40,2|8,1:2|0:2,0:2:0:0:
209,80,11796,2,0,L|258:95,1,40,2|8,1:2|0:2,0:2:0:0:
307,215,12122,2,0,L|319:166,1,40,2|8,0:2|0:2,0:2:0:0:
425,138,12448,1,2,1:2:0:0:
425,138,12529,1,0,1:2:0:0:
425,138,12611,1,8,0:2:0:0:
196,170,12774,5,2,1:2:0:0:
196,170,12855,1,0,1:2:0:0:
196,170,12937,2,0,L|215:234,1,60,12|0,0:2|0:2,0:2:0:0:
151,272,13263,6,0,B|180:235|237:231|254:266|226:277|273:307|348:309|371:276|362:218|321:192|280:228|306:256,1,287.999991210938,4|0,1:2|0:2,0:2:0:0:
210,347,14404,1,0,1:2:0:0:
210,347,14486,1,0,1:2:0:0:
210,347,14567,1,10,0:2:0:0:
406,368,14730,5,8,0:3:0:0:
406,368,14812,1,8,0:3:0:0:
406,368,14893,1,4,1:3:0:0:
406,368,14975,1,4,0:3:0:0:
406,368,15056,2,0,L|418:305,1,40,10|0,0:2|3:2,0:2:0:0:
512,220,15219,1,4,1:3:0:0:
512,220,15301,1,4,1:3:0:0:
512,220,15383,2,0,P|478:227|456:232,1,40,8|8,0:3|0:2,0:2:0:0:
396,143,15546,2,0,P|398:118|403:97,1,40,8|0,0:2|3:2,0:2:0:0:
488,19,15709,6,0,B|474:67|416:74|416:74|370:35|329:62,1,191.999994140625,6|0,1:2|1:2,0:2:0:0:
118,166,16198,1,8,0:2:0:0:
78,28,16361,1,0,1:2:0:0:
78,28,16442,1,0,1:2:0:0:
78,28,16524,1,0,1:2:0:0:
216,99,16687,1,8,0:2:0:0:
116,256,16850,1,0,1:2:0:0:
20,150,17013,1,0,1:2:0:0:
285,175,17176,6,0,B|328:184|328:184|333:188|333:188|386:199,1,95.9999970703126,10|0,0:2|1:3,0:2:0:0:
461,256,17421,1,0,1:3:0:0:
461,256,17502,2,0,B|498:226|498:226|476:181,1,95.9999970703126,2|8,1:2|0:2,0:2:0:0:
390,39,17828,1,10,1:1:0:0:
301,293,17991,1,10,1:1:0:0:
301,293,18317,6,0,B|239:268|206:317|232:333|194:374|137:354,1,191.999994140625,6|0,1:2|1:2,0:2:0:0:
0,181,18806,1,8,0:2:0:0:
150,251,18969,1,0,1:2:0:0:
150,251,19051,1,0,1:2:0:0:
150,251,19133,1,0,1:2:0:0:
9,329,19296,1,8,0:2:0:0:
116,111,19459,2,0,P|69:103|13:90,1,95.9999970703126,0|0,1:2|1:2,0:2:0:0:
249,228,19785,5,10,0:2:0:0:
326,28,19948,2,0,B|335:65|335:65|333:73|333:73|346:129,1,95.9999970703126,2|0,1:2|1:2,0:2:0:0:
489,256,20274,2,0,B|499:211|499:211|506:205|506:205|514:157,1,95.9999970703126,10|0,0:2|1:2,0:2:0:0:
285,350,20600,1,2,1:2:0:0:
327,230,20763,5,8,0:2:0:0:
331,222,20844,1,8,0:2:0:0:
335,215,20926,2,0,B|387:242|387:242|399:326|399:326|448:347,1,191.999994140625,6|0,1:2|1:2,0:2:0:0:
495,44,21415,1,8,0:2:0:0:
325,105,21578,1,0,1:2:0:0:
325,105,21660,1,0,1:2:0:0:
325,105,21741,1,0,1:2:0:0:
489,256,21904,1,0,1:2:0:0:
260,348,22067,2,0,P|256:319|246:301,1,47.9999985351563,8|0,0:2|1:2,0:2:0:0:
180,219,22230,6,0,B|130:204|99:255|99:255|94:316|41:319,1,191.999994140625,6|0,1:2|1:2,0:2:0:0:
48,326,22638,1,0,1:2:0:0:
48,326,22719,2,0,B|85:331|85:331|98:344|98:344|150:353,1,95.9999970703126,8|4,0:2|0:3,0:2:0:0:
7,161,23046,2,0,P|16:130|18:96,1,47.9999985351563,10|0,1:1|1:2,0:2:0:0:
141,25,23209,2,0,P|135:48|131:71,1,47.9999985351563,10|0,1:1|1:2,0:2:0:0:
236,170,23372,6,0,P|291:171|322:115,1,96,10|0,0:2|0:2,0:2:0:0:
316,143,23698,5,2,1:3:0:0:
410,292,23861,2,0,P|416:261|424:230,1,64,2|8,1:2|0:2,0:2:0:0:
424,230,24350,1,10,0:2:0:0:
314,342,24513,2,0,P|267:302|206:312,1,128,0|10,1:2|0:2,0:2:0:0:
36,341,25002,1,2,0:2:0:0:
95,267,25165,1,2,1:2:0:0:
6,165,25328,1,10,0:2:0:0:
114,102,25491,1,2,0:2:0:0:
114,102,25817,2,0,L|99:188,1,64,2|8,1:2|0:2,0:2:0:0:
228,266,26143,5,2,1:2:0:0:
228,266,26225,1,0,1:2:0:0:
228,266,26306,1,0,1:2:0:0:
167,342,26469,2,0,P|136:331|105:323,1,64,2|8,1:2|0:2,0:2:0:0:
324,256,26796,2,0,P|358:267|393:275,1,64,2|8,0:2|0:2,0:2:0:0:
477,208,27122,1,0,1:2:0:0:
477,208,27448,2,0,P|437:155|472:97,1,128,10|0,0:2|1:2,0:2:0:0:
329,0,27937,2,0,L|341:78,1,64,10|0,0:2|1:2,0:2:0:0:
233,139,28263,1,10,0:2:0:0:
313,194,28426,1,0,1:2:0:0:
91,74,28752,5,8,0:2:0:0:
91,74,28834,1,8,0:2:0:0:
91,74,28915,2,0,L|154:59,1,64,2|0,1:2|1:2,0:2:0:0:
34,184,29241,1,10,0:2:0:0:
34,184,29567,1,10,0:2:0:0:
159,267,29730,2,0,L|173:190,1,64,0|0,1:2|0:2,0:2:0:0:
74,335,30056,1,10,0:2:0:0:
74,335,30383,2,0,L|8:321,1,64,2|8,1:2|0:2,0:2:0:0:
246,265,30710,2,0,L|308:282,1,64,2|0,0:2|0:2,0:2:0:0:
398,238,31035,2,0,L|416:174,1,64,2|8,1:2|0:2,0:2:0:0:
335,82,31361,5,2,1:2:0:0:
335,82,31442,1,0,1:2:0:0:
335,82,31524,1,0,1:2:0:0:
512,49,31687,2,0,L|431:25,1,64,10|0,0:2|1:2,0:2:0:0:
499,234,32013,1,2,1:2:0:0:
353,195,32176,2,0,L|419:174,1,64,8|2,0:2|1:2,0:2:0:0:
337,377,32502,1,8,0:2:0:0:
159,276,32665,6,0,P|151:234|138:183,1,80,2|0,1:2|0:2,0:2:0:0:
260,25,32991,1,2,1:2:0:0:
138,75,33154,1,8,0:2:0:0:
276,248,33317,1,10,0:2:0:0:
381,30,33480,1,10,0:2:0:0:
142,197,33643,6,0,P|79:204|45:158,1,111.999996582031,4|0,1:2|3:2,0:2:0:0:
54,162,34051,1,0,3:2:0:0:
60,156,34133,6,0,L|42:233,1,71.9999978027344,2|4,1:3|0:3,0:2:0:0:
102,335,34459,1,10,0:2:0:0:
287,284,34622,2,0,B|333:280|356:320|330:322|357:362|395:360,1,143.999995605469,4|0,0:3|1:2,0:2:0:0:
395,360,35029,1,0,1:2:0:0:
395,360,35111,1,10,0:2:0:0:
508,224,35274,2,0,P|456:215|421:254,1,107.999996704102,2|0,1:2|0:2,0:2:0:0:
421,252,35600,1,4,0:3:0:0:
504,319,35763,1,8,0:2:0:0:
369,165,35926,2,0,L|298:181,1,71.9999978027344,4|0,0:3|0:2,0:2:0:0:
457,70,36252,5,2,1:2:0:0:
457,70,36334,1,0,1:2:0:0:
457,70,36415,2,0,L|439:-3,1,71.9999978027344,10|0,0:2|1:2,0:2:0:0:
439,0,36660,1,0,1:2:0:0:
439,0,36741,1,2,1:2:0:0:
244,42,36904,2,0,P|278:52|313:60,1,71.9999978027344,4|8,0:3|0:2,0:2:0:0:
407,174,37230,2,0,B|328:177|370:237|288:241,1,143.999995605469,4|0,0:3|1:2,0:2:0:0:
288,241,37638,1,0,1:2:0:0:
288,241,37719,5,10,0:2:0:0:
184,166,37883,1,2,1:2:0:0:
177,348,38046,2,0,L|197:263,1,71.9999978027344,2|4,0:2|0:3,0:2:0:0:
193,277,38290,1,2,0:2:0:0:
193,277,38372,1,8,0:2:0:0:
60,131,38535,1,2,0:2:0:0:
60,131,38616,2,0,P|67:182|81:255,1,107.999996704102,8|0,0:2|1:2,0:2:0:0:
9,316,39024,1,10,0:2:0:0:
184,166,39187,5,2,1:3:0:0:
184,166,39268,1,0,1:2:0:0:
184,166,39350,1,0,1:2:0:0:
273,205,39513,1,4,0:3:0:0:
361,154,39676,1,10,0:2:0:0:
438,212,39839,1,4,0:3:0:0:
405,301,40002,2,0,L|320:318,1,71.9999978027344,2|0,0:0|1:0,0:0:0:0:
334,314,40247,1,0,1:2:0:0:
334,314,40328,1,10,0:2:0:0:
273,384,40491,1,2,1:2:0:0:
144,296,40654,6,0,L|227:316,1,71.9999978027344,2|4,0:2|0:3,0:2:0:0:
89,378,40980,1,10,0:2:0:0:
46,212,41143,2,0,P|38:247|28:282,1,71.9999978027344,4|0,0:3|0:2,0:2:0:0:
190,168,41469,1,2,1:2:0:0:
190,168,41551,1,0,1:2:0:0:
190,168,41633,1,10,0:2:0:0:
0,55,41796,6,0,P|57:43|123:32,1,107.999996704102,6|0,1:2|0:2,0:2:0:0:
106,34,42122,1,2,1:2:0:0:
69,152,42285,1,8,0:2:0:0:
238,94,42448,2,0,P|228:57|223:15,1,71.9999978027344,2|0,1:2|0:2,0:2:0:0:
133,236,42774,2,0,P|142:272|148:315,1,71.9999978027344,2|8,1:2|0:2,0:2:0:0:
477,174,43100,6,0,B|446:152|405:174|405:174|387:218|340:215,1,160,6|4,1:2|0:3,0:2:0:0:
144,116,43589,1,8,0:2:0:0:
330,2,43752,1,2,0:2:0:0:
330,2,43834,1,8,0:2:0:0:
330,2,43915,1,8,0:2:0:0:
266,121,44078,1,8,0:3:0:0:
340,215,44241,1,4,0:3:0:0:
283,278,44404,1,4,0:3:0:0:
198,265,44567,6,0,B|252:248|289:305|247:314|287:375|336:365,1,192,6|0,1:2|1:2,0:2:0:0:
340,352,45138,1,0,1:2:0:0:
341,343,45219,2,0,P|256:345|168:375,1,167.999994873047,10|0,0:2|0:2,0:2:0:0:
1,323,45872,5,2,0:2:0:0:
51,267,46035,2,0,P|59:204|13:155,1,128,0|0,1:2|1:2,0:2:0:0:
153,26,46524,2,0,B|185:88|241:103|302:67|282:10|251:23,1,195.999994018555,10|0,0:2|0:2,0:2:0:0:
253,22,47176,6,0,P|231:67|241:205,1,192,2|0,1:2|1:2,0:2:0:0:
252,207,47747,1,0,1:2:0:0:
261,207,47828,2,0,B|214:196|177:235|226:245|174:302|133:286,1,167.999994873047,10|0,0:2|0:2,0:2:0:0:
259,360,48480,5,2,0:2:0:0:
327,319,48643,2,0,P|389:336|458:357,1,111.999996582031,0|0,1:2|1:2,0:2:0:0:
512,186,49133,1,10,0:2:0:0:
452,133,49296,2,0,P|393:163|396:229,1,139.999995727539,4|0,1:2|0:2,0:2:0:0:
396,230,49785,5,4,1:2:0:0:
256,192,49866,12,0,51089,0:2:0:0:
114,171,51741,6,0,L|102:120,1,35.9999989013672,2|0,1:2|1:2,0:2:0:0:
274,3,51904,1,4,0:3:0:0:
274,3,51986,1,8,0:2:0:0:
274,3,52067,2,0,L|257:49,1,35.9999989013672,8|8,0:2|0:2,0:2:0:0:
91,47,52230,6,0,B|139:24|175:63|175:63|184:126|245:125,1,191.999994140625,6|0,1:2|1:2,0:2:0:0:
471,41,52719,1,10,0:2:0:0:
394,319,52883,1,2,1:2:0:0:
321,181,53046,1,0,1:2:0:0:
512,175,53209,2,0,L|493:275,1,95.9999970703126,2|8,1:2|0:2,0:2:0:0:
386,89,53535,1,0,1:2:0:0:
300,276,53698,6,0,P|255:285|190:301,1,95.9999970703126,2|0,1:2|1:2,0:2:0:0:
206,296,53942,1,2,1:2:0:0:
206,296,54024,1,8,0:2:0:0:
149,146,54187,1,2,1:2:0:0:
149,146,54268,1,0,1:2:0:0:
149,146,54350,1,0,1:2:0:0:
32,279,54513,2,0,P|-2:247|-1:201,1,95.9999970703126,10|0,0:2|0:2,0:2:0:0:
230,28,54839,6,0,P|294:51|347:6,1,143.999995605469,10|0,0:2|0:2,0:2:0:0:
347,6,55165,2,0,P|355:56|367:117,1,95.9999970703126,2|8,1:2|0:2,0:2:0:0:
388,335,55491,1,2,1:2:0:0:
512,148,55654,1,2,1:2:0:0:
278,209,55817,2,0,P|321:217|378:232,1,95.9999970703126,2|8,1:2|0:2,0:2:0:0:
179,384,56143,6,0,P|149:347|158:301,1,95.9999970703126,2|0,1:2|1:2,0:2:0:0:
316,106,56469,1,2,1:2:0:0:
65,47,56633,1,10,0:2:0:0:
181,163,56796,1,2,1:2:0:0:
181,163,56877,1,0,1:2:0:0:
181,163,56959,1,8,0:2:0:0:
391,21,57122,2,0,P|360:15|329:7,1,64,10|0,0:2|1:2,0:2:0:0:
104,292,57448,6,0,P|172:269|242:252,1,143.999995605469,12|0,0:2|0:2,0:2:0:0:
242,251,57774,2,0,P|272:286|265:332,1,95.9999970703126,2|10,1:2|0:2,0:2:0:0:
17,168,58100,1,4,0:3:0:0:
17,168,58181,1,4,0:3:0:0:
17,168,58263,1,2,1:2:0:0:
102,75,58426,1,2,1:2:0:0:
311,176,58589,1,10,0:2:0:0:
411,88,58752,1,2,1:2:0:0:
212,0,58915,5,2,1:2:0:0:
412,183,59078,2,0,B|400:226|400:226|400:230|400:230|385:292,1,95.9999970703126,2|8,1:2|0:2,0:2:0:0:
161,384,59404,2,0,B|149:340|149:340|149:336|149:336|134:275,1,95.9999970703126,2|0,1:2|1:2,0:2:0:0:
265,236,59730,1,2,1:2:0:0:
265,236,59812,1,0,1:2:0:0:
265,236,59893,1,8,0:2:0:0:
124,89,60056,6,0,B|80:109|80:109|51:207|51:207|14:227,1,191.999994140625,14|0,0:2|1:2,0:2:0:0:
14,226,60546,1,8,0:2:0:0:
251,98,60709,2,0,B|270:105|270:105|298:156|298:156|314:162,1,95.9999970703126,6|8,1:2|0:2,0:2:0:0:
507,68,61035,1,2,1:2:0:0:
327,11,61198,1,10,0:2:0:0:
484,263,61361,1,6,1:2:0:0:
394,185,61524,6,0,P|440:171|499:154,1,88.000002685547,2|0,0:2|1:2,0:2:0:0:
349,357,61850,2,0,P|285:338|191:324,1,132.00000402832,10|0,0:2|0:2,0:2:0:0:
220,326,62176,1,2,1:2:0:0:
61,217,62339,2,0,P|25:247|27:293,1,88.000002685547,2|8,1:2|0:2,0:2:0:0:
300,151,62665,6,0,P|238:87|278:7,1,191.999994140625,6|0,1:2|1:2,0:2:0:0:
443,203,63154,1,10,0:2:0:0:
503,37,63317,2,0,P|459:48|395:63,1,95.9999970703126,2|0,1:2|1:2,0:2:0:0:
289,237,63643,1,2,1:2:0:0:
512,308,63806,1,8,0:2:0:0:
512,144,63969,1,0,1:2:0:0:
346,364,64133,6,0,P|304:351|252:340,1,95.9999970703126,2|0,1:2|1:2,0:2:0:0:
253,340,64377,1,2,1:2:0:0:
253,340,64459,1,8,0:2:0:0:
144,206,64622,1,2,1:2:0:0:
144,206,64703,1,0,1:2:0:0:
144,206,64785,1,0,1:2:0:0:
22,357,64948,2,0,P|-7:320|2:275,1,95.9999970703126,10|0,0:2|0:2,0:2:0:0:
195,54,65274,6,0,P|245:99|232:168,1,143.999995605469,10|0,0:2|0:2,0:2:0:0:
231,168,65600,2,0,P|274:197|319:178,1,95.9999970703126,2|8,1:2|0:2,0:2:0:0:
512,25,65926,1,2,1:2:0:0:
301,29,66089,1,2,1:2:0:0:
447,252,66252,2,0,P|455:201|467:154,1,95.9999970703126,2|8,1:2|0:2,0:2:0:0:
398,45,66578,1,2,1:2:0:0:
265,275,66741,5,2,1:2:0:0:
78,173,66904,1,2,1:2:0:0:
209,63,67067,1,10,0:2:0:0:
128,296,67230,1,2,1:2:0:0:
128,296,67312,1,0,1:2:0:0:
128,296,67393,1,8,0:2:0:0:
274,374,67556,2,0,L|354:355,1,64,10|0,0:2|1:2,0:2:0:0:
509,53,67883,6,0,P|433:66|389:4,1,143.999995605469,14|0,0:2|0:2,0:2:0:0:
392,20,68209,1,2,1:2:0:0:
218,147,68372,2,0,P|206:93|193:41,1,95.9999970703126,10|4,0:2|0:3,0:2:0:0:
435,343,68698,1,2,1:2:0:0:
512,171,68861,1,2,1:2:0:0:
253,262,69024,1,10,0:2:0:0:
333,90,69187,1,2,1:2:0:0:
397,254,69350,5,2,1:2:0:0:
267,384,69513,1,2,1:2:0:0:
110,295,69676,1,10,0:2:0:0:
149,155,69839,2,0,P|106:161|36:176,1,95.9999970703126,2|0,1:2|1:2,0:2:0:0:
202,7,70165,1,2,1:2:0:0:
202,7,70247,1,0,1:2:0:0:
202,7,70328,1,8,0:2:0:0:
332,168,70491,1,10,0:2:0:0:
409,104,70654,6,0,L|402:52,2,47.9999985351563,10|8|8,0:2|0:2|0:2,0:2:0:0:
473,149,71469,1,2,0:2:0:0:
409,104,71633,2,0,L|402:52,1,47.9999985351563,10|0,0:2|0:2,0:2:0:0:
256,194,71959,5,10,0:2:0:0:
256,194,72529,6,0,B|201:194|191:243|221:241|200:290|149:290,1,143.999995605469,2|0,0:2|0:2,0:2:0:0:
86,321,72937,2,0,P|60:309|21:297,1,47.9999985351563,8|0,1:2|0:2,0:2:0:0:
290,284,73100,6,0,B|335:251|377:287|377:287|395:346|446:339,1,191.999994140625,6|0,1:2|1:2,0:2:0:0:
508,110,73589,1,8,0:2:0:0:
366,170,73752,1,0,1:2:0:0:
366,170,73834,1,0,1:2:0:0:
366,170,73915,1,0,1:2:0:0:
466,242,74078,1,8,0:2:0:0:
371,44,74241,1,0,1:2:0:0:
257,209,74404,1,0,1:2:0:0:
58,91,74567,6,0,B|99:77|99:77|110:80|110:80|154:67,1,95.9999970703126,10|0,0:2|1:3,0:2:0:0:
210,0,74812,1,0,1:3:0:0:
210,0,74893,2,0,B|247:31|247:31|231:76,1,95.9999970703126,2|8,1:2|0:2,0:2:0:0:
46,201,75219,1,10,1:1:0:0:
246,339,75383,1,10,1:1:0:0:
246,339,75709,6,0,B|182:303|182:303|107:313|116:390,1,191.999994140625,6|0,1:2|1:2,0:2:0:0:
319,234,76198,1,8,0:2:0:0:
194,119,76361,1,0,1:2:0:0:
194,119,76442,1,0,1:2:0:0:
194,119,76524,1,0,1:2:0:0:
349,114,76687,1,10,0:2:0:0:
135,245,76850,2,0,L|74:223,2,47.9999985351563,2|0|0,1:2|1:2|1:2,0:2:0:0:
330,361,77176,6,0,P|370:348|434:331,1,95.9999970703126,10|0,0:2|1:3,0:2:0:0:
422,334,77421,1,0,1:3:0:0:
422,334,77502,1,2,1:2:0:0:
500,227,77665,1,10,0:2:0:0:
431,119,77828,1,8,1:3:0:0:
287,131,77991,1,8,1:3:0:0:
444,9,78154,1,8,0:2:0:0:
357,213,78317,6,0,B|311:235|254:187|295:169|252:117|202:136,1,191.999994140625,6|0,1:2|1:2,0:2:0:0:
0,237,78806,1,8,0:2:0:0:
156,323,78969,1,0,1:2:0:0:
162,314,79051,1,0,1:2:0:0:
167,304,79133,1,8,0:2:0:0:
76,117,79296,1,0,1:2:0:0:
71,129,79377,1,0,1:2:0:0:
67,141,79459,1,8,0:2:0:0:
176,9,79622,6,0,B|207:53|275:46|275:46|303:9|343:9,1,191.999994140625,4|0,1:2|1:2,0:2:0:0:
343,9,80029,1,0,1:2:0:0:
343,9,80111,1,8,0:2:0:0:
274,159,80274,1,8,0:3:0:0:
512,153,80437,1,10,0:1:0:0:
504,115,80518,1,8,0:2:0:0:
478,85,80600,1,10,0:1:0:0:
440,78,80681,1,4,0:3:0:0:
400,96,80763,2,0,P|416:161|419:226,1,120,12|0,0:2|0:2,0:2:0:0:
419,213,81089,6,0,L|368:202,2,47.9999985351563,10|2|8,1:2|0:2|0:2,0:2:0:0:
340,319,81578,2,0,L|387:311,1,47.9999985351563,2|8,0:2|0:2,0:2:0:0:
224,234,81904,2,0,L|270:243,1,47.9999985351563,2|8,1:2|0:2,0:2:0:0:
144,363,82230,2,0,L|244:338,1,95.9999970703126,2|2,1:2|0:2,0:2:0:0:
237,339,82719,1,8,0:2:0:0:
132,260,82883,6,0,L|119:210,1,47.9999985351563,2|8,1:2|0:2,0:2:0:0:
239,97,83209,2,0,L|226:147,1,47.9999985351563,2|8,1:2|0:2,0:2:0:0:
47,110,83535,1,2,1:2:0:0:
47,110,83616,1,0,1:2:0:0:
47,110,83698,2,0,P|97:105|132:62,2,95.9999970703126,8|8|8,0:2|0:2|0:2,0:2:0:0:
1,202,84513,1,0,1:2:0:0:
91,252,84676,1,8,0:2:0:0:
37,366,84839,6,0,L|22:314,1,47.9999985351563,2|8,1:2|0:2,0:2:0:0:
177,299,85165,2,0,L|161:357,1,47.9999985351563,2|8,0:2|0:2,0:2:0:0:
91,252,85491,2,0,L|77:200,1,47.9999985351563,2|8,1:2|0:2,0:2:0:0:
196,145,85817,2,0,L|180:203,2,47.9999985351563,2|8|2,1:2|0:2|0:3,0:2:0:0:
100,0,86306,5,10,1:2:0:0:
103,110,86469,1,2,1:2:0:0:
254,54,86633,2,0,L|194:36,2,47.9999985351563,10|2|8,0:2|0:2|0:2,0:2:0:0:
307,178,87122,2,0,L|322:133,1,47.9999985351563,2|8,1:2|0:2,0:2:0:0:
405,33,87448,2,0,L|419:78,1,47.9999985351563,2|8,1:2|0:2,0:2:0:0:
499,187,87774,2,0,L|513:141,1,47.9999985351563,2|8,0:2|0:2,0:2:0:0:
398,236,88100,1,0,1:2:0:0:
399,245,88181,1,0,1:2:0:0:
400,254,88263,1,8,0:2:0:0:
502,374,88426,5,0,1:2:0:0:
502,366,88508,1,0,1:2:0:0:
502,358,88589,2,0,P|474:334|416:362,1,96,10|0,0:2|0:2,0:2:0:0:
422,350,88915,6,0,B|388:372|340:363|306:307|343:297|303:250|285:239|254:243|236:256,1,240,6|0,1:2|0:2,0:2:0:0:
167,345,90056,1,0,1:2:0:0:
174,347,90138,1,0,1:2:0:0:
181,349,90219,1,8,0:2:0:0:
32,368,90383,5,8,0:3:0:0:
32,368,90464,1,8,0:3:0:0:
32,368,90546,1,4,1:3:0:0:
32,368,90627,1,4,0:3:0:0:
32,368,90709,2,0,L|20:306,1,40,10|0,0:2|3:2,0:2:0:0:
98,259,90872,1,4,0:3:0:0:
98,259,90953,1,4,0:3:0:0:
98,259,91035,2,0,L|109:208,1,40,8|8,0:3|0:2,0:2:0:0:
8,149,91198,2,0,L|0:109,1,40,8|0,0:2|3:2,0:2:0:0:
78,28,91361,6,0,B|128:5|164:44|164:44|173:104|229:106,1,191.999994140625,6|0,1:2|1:2,0:2:0:0:
465,27,91850,1,8,0:2:0:0:
278,1,92013,1,0,1:2:0:0:
278,1,92094,1,0,1:2:0:0:
278,1,92176,1,0,1:2:0:0:
420,143,92339,1,8,0:2:0:0:
236,179,92502,2,0,B|200:143|200:143|233:95,1,95.9999970703126,0|0,1:2|1:2,0:2:0:0:
506,210,92828,6,0,L|477:320,1,95.9999970703126,10|0,0:2|1:3,0:2:0:0:
410,357,93073,1,0,1:3:0:0:
410,357,93154,2,0,B|367:346|367:346|357:350|357:350|312:337,1,95.9999970703126,2|8,1:2|0:2,0:2:0:0:
101,273,93480,1,10,1:1:0:0:
314,133,93643,1,10,1:1:0:0:
314,133,93969,6,0,B|360:108|360:108|439:152|395:227,1,191.999994140625,6|0,1:2|1:2,0:2:0:0:
189,383,94459,1,8,0:2:0:0:
224,201,94622,1,0,1:2:0:0:
224,201,94703,1,0,1:2:0:0:
224,201,94785,1,0,1:2:0:0:
322,369,94948,1,8,0:2:0:0:
110,312,95111,2,0,B|73:317|73:317|63:329|63:329|7:342,1,95.9999970703126,0|0,1:2|1:2,0:2:0:0:
336,248,95437,6,0,B|373:253|373:253|383:265|383:265|439:278,1,95.9999970703126,10|0,0:2|1:3,0:2:0:0:
500,229,95681,1,0,1:3:0:0:
500,229,95763,2,0,B|529:190|529:190|502:148,1,95.9999970703126,2|8,1:2|0:2,0:2:0:0:
370,0,96089,1,10,1:1:0:0:
233,209,96252,1,10,1:1:0:0:
399,164,96415,1,8,0:2:0:0:
158,80,96578,6,0,B|95:87|95:87|73:162|73:162|27:184,1,191.999994140625,6|0,1:2|1:2,0:2:0:0:
204,384,97067,1,8,0:2:0:0:
240,216,97230,1,0,1:2:0:0:
240,216,97312,1,0,1:2:0:0:
240,216,97393,1,0,1:2:0:0:
87,305,97556,1,8,0:2:0:0:
311,321,97719,2,0,L|371:303,2,47.9999985351563,0|0|0,1:2|1:2|1:2,0:2:0:0:
132,190,98046,6,0,B|100:153|100:153|123:111,1,95.9999970703126,10|0,0:2|1:3,0:2:0:0:
123,110,98290,1,0,1:3:0:0:
123,110,98372,1,2,1:2:0:0:
23,40,98535,1,8,0:2:0:0:
270,98,98698,1,10,1:1:0:0:
91,299,98861,1,10,1:1:0:0:
91,299,99187,6,0,B|130:268|198:304|154:319|212:371|259:335,1,191.999994140625,6|0,1:2|1:2,0:2:0:0:
415,158,99676,1,8,0:2:0:0:
467,333,99839,1,0,1:2:0:0:
467,333,99921,1,0,1:2:0:0:
467,333,100002,1,8,0:2:0:0:
260,225,100165,1,0,1:2:0:0:
470,62,100328,2,0,B|492:78|492:78|480:116,1,47.9999985351563,8|0,0:2|3:2,0:2:0:0:
415,158,100491,6,0,B|362:137|362:137|335:49|335:49|294:34,1,191.999994140625,6|0,1:2|1:2,0:2:0:0:
294,34,100899,1,0,1:2:0:0:
294,34,100980,1,8,0:2:0:0:
183,193,101143,1,8,0:3:0:0:
91,26,101306,1,10,0:1:0:0:
47,26,101388,1,8,0:2:0:0:
17,57,101469,1,10,0:1:0:0:
21,100,101551,1,4,0:3:0:0:
58,125,101633,2,0,P|103:111|151:105,1,95.9999970703126,12|2,0:2|0:2,0:2:0:0:
99,171,112393,5,2,1:2:0:0:
51,289,112556,2,0,P|45:255|38:229,1,55.9999982910157,2|0,0:2|0:2,0:2:0:0:
133,331,112883,2,0,P|188:304|240:323,1,111.999996582031,2|2,0:2|0:2,0:2:0:0:
313,366,113372,1,2,0:2:0:0:
379,296,113535,2,0,P|368:237|363:177,1,111.999996582031,2|2,0:2|0:2,0:2:0:0:
427,112,114024,1,2,0:2:0:0:
343,65,114187,1,2,0:2:0:0:
343,65,114513,1,2,0:2:0:0:
427,14,114676,2,0,L|482:29,1,55.9999982910157,2|0,0:2|0:2,0:2:0:0:
284,137,115002,6,0,P|232:118|162:103,1,111.999996582031,2|2,1:2|0:2,0:2:0:0:
96,55,115491,2,0,P|66:99|85:150,1,111.999996582031,2|2,0:2|0:2,0:2:0:0:
59,247,115980,2,0,P|32:252|-4:259,1,55.9999982910157,2|2,0:2|0:2,0:2:0:0:
131,352,116306,5,2,0:2:0:0:
178,282,116469,2,0,B|179:296|164:211,1,55.9999982910157,2|0,0:2|0:2,0:2:0:0:
241,166,116796,2,0,L|313:179,1,55.9999982910157,2|0,0:2|0:2,0:2:0:0:
384,131,117122,1,0,1:2:0:0:
493,257,117285,2,0,L|510:196,1,55.9999982910157,10|2,0:2|0:2,0:2:0:0:
387,354,117611,6,0,P|322:333|262:317,1,128,8|0,0:2|1:2,0:2:0:0:
111,343,118100,1,10,0:2:0:0:
156,192,118263,1,2,1:2:0:0:
156,192,118426,2,0,L|173:265,1,64,8|0,0:2|1:2,0:2:0:0:
27,181,118752,5,2,1:2:0:0:
27,181,118834,1,8,0:2:0:0:
27,181,118915,1,10,0:2:0:0:
101,114,119078,1,10,0:2:0:0:
43,43,119241,1,2,1:2:0:0:
200,17,119404,2,0,L|138:6,1,64,10|8,0:2|0:2,0:2:0:0:
252,108,119730,1,2,1:2:0:0:
252,108,119893,1,8,1:2:0:0:
371,41,120056,5,8,0:2:0:0:
478,151,120219,2,0,L|489:78,1,64,6|2,1:2|0:2,0:2:0:0:
487,87,120464,1,8,0:2:0:0:
487,87,120546,1,8,0:2:0:0:
372,223,120709,1,10,0:2:0:0:
372,223,120790,1,8,0:2:0:0:
372,223,120872,1,0,1:2:0:0:
451,302,121035,2,0,P|484:290|528:285,1,64,10|0,0:2|1:2,0:2:0:0:
268,144,121361,6,0,P|211:162|125:180,1,143.999995605469,10|2,0:2|0:2,0:2:0:0:
27,164,121850,2,0,P|9:138|19:99,1,71.9999978027344,10|2,0:2|0:2,0:2:0:0:
179,285,122176,1,8,0:2:0:0:
179,285,122258,1,8,0:2:0:0:
179,285,122339,1,8,0:3:0:0:
179,285,122421,1,8,0:3:0:0:
179,285,122502,2,0,L|159:339,1,35.9999989013672,8|4,0:2|0:3,0:2:0:0:
68,381,122665,2,0,L|49:324,1,35.9999989013672,4|4,0:3|0:3,0:2:0:0:
252,239,122828,6,0,B|287:217|325:230|325:230|342:278|389:274,1,160,4|0,1:2|1:2,0:2:0:0:
507,229,123317,1,8,0:2:0:0:
507,229,123399,1,8,0:2:0:0:
507,229,123480,1,2,1:2:0:0:
421,139,123643,2,0,P|416:162|409:185,2,40,8|8|0,0:2|0:2|1:2,0:2:0:0:
506,100,123969,5,8,0:2:0:0:
506,100,124051,1,8,0:2:0:0:
506,100,124133,1,2,1:2:0:0:
416,1,124296,2,0,P|437:7|464:11,2,40,8|8|0,0:2|0:2|1:2,0:2:0:0:
330,94,124622,5,8,0:2:0:0:
330,94,124703,1,8,0:2:0:0:
330,94,124785,1,2,1:2:0:0:
236,1,124948,2,0,L|225:43,2,40,8|8|0,0:2|0:2|1:2,0:2:0:0:
127,89,125274,5,8,0:2:0:0:
127,89,125355,1,8,0:2:0:0:
127,89,125437,2,0,L|134:135,1,40,2|8,1:2|0:0,0:0:0:0:
234,190,125600,1,8,0:2:0:0:
234,190,125681,1,8,0:2:0:0:
234,190,125763,1,8,1:2:0:0:
234,190,125844,1,8,0:2:0:0:
234,190,125926,2,0,L|244:146,1,40,8|8,0:2|0:2,0:2:0:0:
124,248,126089,6,0,L|40:224,1,80,2|8,1:2|0:2,0:2:0:0:
47,226,126334,1,8,0:2:0:0:
47,226,126415,1,0,1:2:0:0:
175,371,126578,1,8,0:2:0:0:
175,371,126660,1,8,0:2:0:0:
175,371,126741,2,0,P|213:362|252:351,1,80,2|8,1:2|0:2,0:2:0:0:
252,351,126986,1,8,0:2:0:0:
252,351,127067,1,0,1:2:0:0:
425,384,127230,5,8,0:2:0:0:
425,384,127312,1,8,0:2:0:0:
425,384,127393,2,0,L|434:343,1,40,2|8,1:2|0:0,0:0:0:0:
303,248,127556,1,8,0:0:0:0:
302,258,127638,1,8,0:0:0:0:
302,268,127719,1,8,1:2:0:0:
336,296,127801,1,8,0:2:0:0:
379,288,127883,1,8,0:2:0:0:
400,249,127964,1,8,0:2:0:0:
381,208,128046,6,0,B|396:222|435:228|463:186|465:122|415:95|363:100|323:136|300:162|300:162|251:215|225:233|172:246|121:210|110:172|122:123|179:95|208:137,1,588.799980234376,6|2,1:2|0:2,0:2:0:0:
208,137,131306,1,2,0:2:0:0:
208,137,131959,2,0,P|235:144|265:148,1,55.9999982910157,2|0,0:2|0:2,0:2:0:0:
400,254,132285,2,0,P|355:267|315:287,1,83.9999974365235,2|0,0:2|0:2,0:2:0:0:
321,283,132611,6,0,P|307:263|306:240,1,47.9999985351563,0|0,1:2|1:2,0:2:0:0:
456,113,132774,1,4,0:3:0:0:
456,113,132855,1,8,0:2:0:0:
456,113,132937,2,0,P|469:132|470:155,1,47.9999985351563,8|8,0:2|0:2,0:2:0:0:
342,65,133100,6,0,P|299:144|208:137,1,191.999994140625,6|0,1:2|1:2,0:2:0:0:
68,8,133589,1,10,0:2:0:0:
0,246,133752,1,2,1:2:0:0:
115,169,133915,1,0,1:2:0:0:
167,372,134078,2,0,P|114:357|56:346,1,95.9999970703126,2|8,1:2|0:2,0:2:0:0:
215,216,134404,1,0,1:2:0:0:
419,378,134567,6,0,P|430:328|445:277,1,95.9999970703126,2|0,1:2|1:2,0:2:0:0:
442,284,134812,1,2,1:2:0:0:
442,284,134893,1,8,0:2:0:0:
311,177,135056,1,2,1:2:0:0:
311,177,135138,1,0,1:2:0:0:
311,177,135219,1,0,1:2:0:0:
428,82,135383,2,0,P|472:68|511:94,1,95.9999970703126,10|0,0:2|0:2,0:2:0:0:
254,348,135709,6,0,P|196:328|111:317,1,143.999995605469,10|0,0:2|0:2,0:2:0:0:
114,317,136035,2,0,P|81:283|89:237,1,95.9999970703126,2|8,1:2|0:2,0:2:0:0:
220,26,136361,1,2,1:2:0:0:
13,98,136524,1,0,1:2:0:0:
13,98,136605,1,2,1:2:0:0:
13,98,136687,1,0,1:2:0:0:
193,217,136850,1,10,0:2:0:0:
343,16,137013,6,0,P|333:55|321:114,1,95.9999970703126,2|0,1:2|1:2,0:2:0:0:
426,269,137339,1,0,1:2:0:0:
483,83,137502,1,10,0:2:0:0:
293,249,137665,1,2,1:2:0:0:
293,249,137747,1,0,1:2:0:0:
293,249,137828,1,8,0:2:0:0:
418,369,137991,2,0,L|500:348,1,64,10|0,0:2|1:2,0:2:0:0:
222,89,138317,6,0,P|156:111|70:130,1,143.999995605469,12|0,0:2|0:2,0:2:0:0:
83,127,138643,1,2,1:2:0:0:
190,235,138806,1,10,0:2:0:0:
98,371,138969,1,4,0:3:0:0:
98,371,139051,1,4,0:3:0:0:
98,371,139133,1,2,1:2:0:0:
42,258,139296,1,2,1:2:0:0:
240,144,139459,1,10,0:2:0:0:
186,29,139622,1,2,1:2:0:0:
0,153,139785,5,2,1:2:0:0:
234,309,139948,2,0,B|281:300|281:300|283:298|283:298|341:288,1,95.9999970703126,2|8,1:2|0:2,0:2:0:0:
483,107,140274,2,0,B|438:99|438:99|436:97|436:97|389:88,1,95.9999970703126,2|0,1:2|1:2,0:2:0:0:
323,187,140600,1,2,1:2:0:0:
323,187,140681,1,0,1:2:0:0:
323,187,140763,1,8,0:2:0:0:
154,56,140926,6,0,B|131:94|131:94|149:198|149:198|130:235,1,191.999994140625,14|0,0:2|1:2,0:2:0:0:
129,235,141415,1,8,0:2:0:0:
386,368,141578,2,0,B|376:344|376:344|384:293|384:293|376:276,1,95.9999970703126,6|8,1:2|0:2,0:2:0:0:
246,125,141904,1,2,1:2:0:0:
240,337,142067,1,10,0:2:0:0:
501,226,142230,1,6,1:2:0:0:
423,150,142393,6,0,P|376:160|329:169,1,88.000002685547,2|0,0:2|1:2,0:2:0:0:
70,19,142719,2,0,P|125:30|215:44,1,132.00000402832,10|0,0:2|0:2,0:2:0:0:
199,41,143046,1,2,1:2:0:0:
64,211,143209,2,0,P|28:181|30:134,1,88.000002685547,2|8,1:2|0:2,0:2:0:0:
307,291,143535,6,0,P|217:297|193:384,1,191.999994140625,6|0,1:2|1:2,0:2:0:0:
402,254,144024,1,10,0:2:0:0:
268,165,144187,2,0,P|279:118|289:71,1,95.9999970703126,2|0,1:2|1:2,0:2:0:0:
512,0,144513,1,2,1:2:0:0:
494,187,144676,1,8,0:2:0:0:
392,101,144839,1,0,1:2:0:0:
367,345,145002,6,0,P|413:330|475:321,1,95.9999970703126,2|0,1:2|1:2,0:2:0:0:
459,322,145247,1,2,1:2:0:0:
459,322,145328,1,8,0:2:0:0:
319,214,145491,1,2,1:2:0:0:
319,214,145573,1,0,1:2:0:0:
319,214,145654,1,0,1:2:0:0:
211,384,145817,2,0,P|178:350|190:298,1,95.9999970703126,10|0,0:2|0:2,0:2:0:0:
121,6,146143,6,0,P|115:74|54:105,1,143.999995605469,10|0,0:2|0:2,0:2:0:0:
52,105,146469,2,0,P|99:113|145:127,1,95.9999970703126,2|8,1:2|0:2,0:2:0:0:
302,18,146796,1,2,1:2:0:0:
421,210,146959,1,2,1:2:0:0:
457,98,147122,1,0,1:2:0:0:
315,195,147285,1,10,0:2:0:0:
475,304,147448,1,2,1:2:0:0:
234,311,147611,6,0,P|190:318|137:334,1,95.9999970703126,2|0,1:2|1:2,0:2:0:0:
0,241,147937,1,10,0:2:0:0:
172,126,148100,1,2,1:2:0:0:
172,126,148181,1,0,1:2:0:0:
172,126,148263,1,8,0:2:0:0:
14,23,148426,2,0,L|30:107,1,64,10|0,0:2|1:2,0:2:0:0:
296,357,148752,6,0,P|345:309|329:242,1,143.999995605469,12|0,0:2|0:2,0:2:0:0:
328,241,149078,1,2,1:2:0:0:
512,132,149241,2,0,P|500:178|491:234,1,95.9999970703126,10|4,0:2|0:3,0:2:0:0:
304,37,149567,1,2,1:2:0:0:
484,1,149730,1,2,1:2:0:0:
299,156,149893,1,10,0:2:0:0:
191,4,150056,1,2,1:2:0:0:
139,326,150219,6,0,P|129:278|119:232,1,95.9999970703126,2|0,1:2|1:2,0:2:0:0:
208,102,150546,1,10,0:2:0:0:
368,245,150709,2,0,P|410:232|467:223,1,95.9999970703126,2|0,1:2|1:2,0:2:0:0:
389,79,151035,1,2,1:2:0:0:
389,79,151116,1,0,1:2:0:0:
389,79,151198,1,8,0:2:0:0:
193,292,151361,1,10,0:2:0:0:
119,232,151524,6,0,L|68:244,2,47.9999985351563,10|8|8,0:2|0:2|0:2,0:2:0:0:
151,163,152339,1,2,0:2:0:0:
119,232,152502,2,0,L|68:244,1,47.9999985351563,10|0,0:2|0:2,0:2:0:0:
317,293,152828,5,10,0:2:0:0:
317,293,153399,6,0,B|348:263|391:286|391:286|397:323|428:334,1,143.999995605469,2|0,0:2|0:2,0:2:0:0:
477,260,153806,2,0,P|471:236|470:212,1,47.9999985351563,8|0,1:2|0:2,0:2:0:0:
219,347,153969,6,0,B|169:370|119:326|156:303|112:255|62:278,1,191.999994140625,6|0,1:2|1:2,0:2:0:0:
0,71,154459,1,8,0:2:0:0:
185,144,154622,1,0,1:2:0:0:
185,144,154703,1,0,1:2:0:0:
185,144,154785,1,0,1:2:0:0:
58,175,154948,1,8,0:2:0:0:
178,13,155111,1,0,1:2:0:0:
287,187,155274,1,0,1:2:0:0:
509,55,155437,6,0,B|464:46|464:46|463:41|463:41|418:32,1,95.9999970703126,10|0,0:2|1:2,0:2:0:0:
328,22,155681,1,0,1:2:0:0:
328,22,155763,2,0,B|294:57|294:57|316:101,1,95.9999970703126,2|8,1:2|0:2,0:2:0:0:
429,253,156089,1,10,1:1:0:0:
183,336,156252,1,10,1:1:0:0:
183,336,156578,6,0,B|211:304|255:305|255:305|302:356|302:356|358:368,1,191.999994140625,6|0,1:2|1:2,0:2:0:0:
511,202,157067,1,8,0:2:0:0:
317,176,157230,1,0,1:2:0:0:
317,176,157312,1,0,1:2:0:0:
317,176,157393,1,0,1:2:0:0:
449,332,157556,1,10,0:2:0:0:
426,139,157719,2,0,L|442:86,2,47.9999985351563,2|0|0,1:2|1:2|1:2,0:2:0:0:
208,335,158046,6,0,P|167:322|103:306,1,95.9999970703126,10|0,0:2|1:2,0:2:0:0:
115,309,158290,1,0,1:2:0:0:
115,309,158372,1,2,1:2:0:0:
11,236,158535,1,10,0:2:0:0:
47,111,158698,1,8,1:3:0:0:
179,99,158861,1,8,1:3:0:0:
0,0,159024,1,10,0:2:0:0:
145,203,159187,6,0,P|228:173|340:156,1,191.999994140625,6|0,1:2|1:2,0:2:0:0:
512,174,159676,1,8,0:2:0:0:
389,282,159839,1,0,1:2:0:0:
389,282,159921,1,0,1:2:0:0:
389,282,160002,1,0,1:2:0:0:
409,91,160165,1,8,0:2:0:0:
246,224,160328,2,0,P|254:266|263:326,1,95.9999970703126,0|0,1:2|1:2,0:2:0:0:
91,61,160654,6,0,B|47:38|47:38|13:71,1,95.9999970703126,10|0,0:2|1:2,0:2:0:0:
25,166,160899,1,0,1:2:0:0:
25,166,160980,2,0,B|68:188|68:188|102:155,1,95.9999970703126,2|8,1:2|0:2,0:2:0:0:
244,21,161306,1,10,1:1:0:0:
375,247,161469,1,10,1:1:0:0:
375,247,161796,6,0,B|308:225|308:225|239:257|265:324,1,191.999994140625,6|0,1:2|1:2,0:2:0:0:
501,251,162285,1,8,0:2:0:0:
405,132,162448,1,0,1:2:0:0:
405,132,162529,1,0,1:2:0:0:
405,132,162611,1,0,1:2:0:0:
499,37,162774,1,10,0:2:0:0:
262,108,162937,2,0,L|202:85,2,47.9999985351563,2|0|0,1:2|1:2|1:2,0:2:0:0:
379,373,163263,6,0,P|390:316|404:266,1,95.9999970703126,10|0,0:2|1:2,0:2:0:0:
400,279,163508,1,0,1:2:0:0:
400,279,163589,1,2,1:2:0:0:
303,183,163752,1,10,0:2:0:0:
191,263,163915,1,8,1:3:0:0:
259,370,164078,1,8,1:3:0:0:
422,193,164241,1,10,0:2:0:0:
160,161,164404,6,0,B|109:152|80:216|113:216|102:283|40:282,1,191.999994140625,6|0,1:2|1:2,0:2:0:0:
0,37,164893,1,8,0:2:0:0:
141,57,165056,1,0,1:2:0:0:
141,57,165138,1,0,1:2:0:0:
141,57,165219,1,0,1:2:0:0:
0,189,165383,1,8,0:2:0:0:
185,254,165546,2,0,P|229:239|293:227,1,95.9999970703126,0|0,1:2|1:2,0:2:0:0:
372,23,165872,6,0,B|354:66|354:66|388:101,1,95.9999970703126,10|0,0:2|1:2,0:2:0:0:
476,81,166116,1,0,1:2:0:0:
476,81,166198,2,0,B|493:37|493:37|459:2,1,95.9999970703126,2|8,1:2|0:2,0:2:0:0:
266,139,166524,1,10,1:1:0:0:
471,288,166687,1,10,1:1:0:0:
471,288,167013,6,0,B|425:260|383:293|383:293|372:351|318:355,1,191.999994140625,4|0,1:2|1:2,0:2:0:0:
130,263,167502,1,10,0:2:0:0:
272,243,167665,1,0,1:2:0:0:
272,243,167747,1,0,1:2:0:0:
272,243,167828,1,0,1:2:0:0:
140,384,167991,1,10,0:2:0:0:
29,207,168154,2,0,L|46:158,2,47.9999985351563,2|0|0,1:2|1:2|1:2,0:2:0:0:
319,355,168480,6,0,L|428:331,1,95.9999970703126,10|0,0:2|1:2,0:2:0:0:
412,334,168725,1,0,1:2:0:0:
412,334,168806,1,2,1:2:0:0:
507,246,168969,1,10,0:2:0:0:
421,144,169133,1,8,1:3:0:0:
314,218,169296,1,8,1:3:0:0:
281,16,169459,1,10,0:2:0:0:
60,177,169622,6,0,B|105:194|108:264|74:250|81:324|122:343,1,191.999994140625,6|0,1:2|1:2,0:2:0:0:
311,338,170111,1,10,0:2:0:0:
212,274,170274,1,0,1:2:0:0:
381,237,170437,1,10,0:2:0:0:
193,139,170600,1,0,1:2:0:0:
442,137,170763,1,10,0:2:0:0:
169,12,170926,1,0,1:2:0:0:
479,12,171089,6,0,L|369:31,1,95.9999970703126,14|0,0:2|1:2,0:2:0:0:
98,122,171415,2,0,L|208:141,1,95.9999970703126,10|0,0:2|1:2,0:2:0:0:
442,275,171741,1,10,0:2:0:0:
161,296,171904,1,10,0:2:0:0:
289,56,172067,1,10,0:2:0:0:
501,362,172230,6,0,P|447:290|350:318,1,191.999994140625,6|0,1:2|1:2,0:2:0:0:
140,154,172719,1,8,0:2:0:0:
116,359,172883,1,0,1:2:0:0:
116,359,172964,1,8,0:2:0:0:
116,359,173046,1,8,0:2:0:0:
294,217,173209,1,0,1:2:0:0:
294,217,173290,1,0,1:2:0:0:
294,217,173372,1,8,0:2:0:0:
171,61,173535,6,0,B|134:35|83:68|83:68|58:130|14:126,1,191.999994140625,6|0,1:2|1:2,0:2:0:0:
13,126,173942,1,0,1:2:0:0:
13,126,174024,1,8,0:2:0:0:
129,235,174187,1,8,0:3:0:0:
343,92,174350,1,10,0:2:0:0:
378,123,174431,1,8,0:2:0:0:
398,166,174513,1,4,0:3:0:0:
398,213,174594,1,4,0:3:0:0:
385,259,174676,1,12,0:2:0:0:
343,92,175002,6,0,B|311:146|239:152|187:138|135:81|150:23|194:2|222:8|222:8|262:18|276:84|239:116|199:117|134:104|97:153|113:208,1,600,12|0,0:2|0:2,0:2:0:0:
112,206,177611,6,0,L|145:195,3,20,8|8|8|8,1:2|0:2|0:2|0:2,0:2:0:0:
204,242,177937,2,0,L|237:253,3,20,8|8|8|8,1:2|0:2|0:2|0:2,0:2:0:0:
289,318,178263,1,8,1:2:0:0:
289,318,178344,1,8,0:2:0:0:
289,318,178426,2,0,L|276:363,1,27.9999991455078,8|8,0:2|0:2,0:2:0:0:
376,281,178589,1,8,1:2:0:0:
376,281,178670,1,8,0:2:0:0:
376,281,178752,2,0,L|416:292,1,27.9999991455078,8|8,0:2|0:2,0:2:0:0:
307,198,178915,5,8,1:2:0:0:
310,189,178997,1,8,0:2:0:0:
312,178,179078,1,8,0:2:0:0:
316,169,179160,1,8,0:2:0:0:
320,159,179241,5,8,1:2:0:0:
307,117,179323,1,8,0:2:0:0:
266,99,179404,1,8,0:2:0:0:
223,112,179486,1,8,0:2:0:0:
199,153,179567,1,8,1:2:0:0:
149,167,179649,1,8,0:2:0:0:
107,146,179730,1,8,0:2:0:0:
85,99,179812,1,8,0:2:0:0:
92,89,179893,6,0,L|77:146,1,44.0000013427735,10|8,1:2|0:2,0:2:0:0:
0,201,180056,6,0,L|6:230,1,23.9999992675781,6|0,1:3|0:2,0:2:0:0:
