osu file format v14

[General]
AudioFilename: audio.mp3
AudioLeadIn: 0
PreviewTime: 50975
Countdown: 0
SampleSet: Soft
StackLeniency: 0.7
Mode: 2
LetterboxInBreaks: 0
WidescreenStoryboard: 1

[Editor]
Bookmarks: 5486,15758,23747,34182,44616,52279,62714,73149,83747
DistanceSpacing: 2.9
BeatDivisor: 4
GridSize: 4
TimelineZoom: 1.9

[Metadata]
Title:VIVID VICE (TV Size)
TitleUnicode:VIVID VICE (TV Size)
Artist:Who-ya Extended
ArtistUnicode:Who-ya Extended
Creator:EclipZ
Version:Salad
Source:呪術廻戦
Tags:japanese anime rock j-rock jrock op opening jujutsu kaisen jjk itadori yuji yuuji 虎杖悠仁 Secre chickenbible
BeatmapID:2969159
BeatmapSetID:1375168

[Difficulty]
HPDrainRate:3
CircleSize:3
OverallDifficulty:7
ApproachRate:7
SliderMultiplier:1.4
SliderTickRate:1

[Events]
//Background and Video events
0,0,"bg.jpg",0,0
//Break Periods
//Storyboard Layer 0 (Background)
//Storyboard Layer 1 (Fail)
//Storyboard Layer 2 (Pass)
//Storyboard Layer 3 (Foreground)
//Storyboard Layer 4 (Overlay)
//Storyboard Sound Samples

[TimingPoints]
269,326.086956521739,4,2,1,65,1,0
5160,-100,4,2,1,5,0,0
5323,-100,4,2,1,5,0,0
5486,-100,4,2,1,50,0,0
13312,-100,4,2,1,60,0,0
14453,-100,4,2,1,60,0,0
15758,-100,4,2,1,70,0,0
23747,-100,4,2,1,55,0,0
34182,-100,4,2,1,60,0,0
45105,-100,4,2,1,55,0,0
45269,-100,4,2,1,55,0,0
49671,-100,4,2,1,5,0,0
49834,-100,4,2,1,55,0,0
51790,-100,4,2,1,65,0,0
52279,-100,4,2,1,75,0,1
55133,-100,4,2,1,5,0,1
55214,-100,4,2,1,75,0,1
65567,-100,4,2,1,5,0,1
65649,-100,4,2,1,75,0,1
70703,-100,4,2,1,65,0,0
72538,-100,4,2,1,70,0,0
86029,-100,4,2,1,5,0,0
86355,-100,4,2,1,65,0,0

[Colours]
Combo1 : 190,126,126
Combo2 : 255,43,43
Combo3 : 255,138,32

[HitObjects]
117,192,269,5,4,0:0:0:0:
256,192,595,12,0,5160,0:0:0:0:
154,255,5486,6,0,P|122:188|150:131,1,140,6|10,0:0|0:3,0:0:0:0:
305,122,6138,2,0,L|395:106,2,70,8|10|8,0:3|0:0|0:3,0:0:0:0:
144,84,6790,6,0,P|120:156|138:215,1,140,8|8,0:3|0:3,0:0:0:0:
293,288,7442,2,0,L|299:187,1,70,8|10,0:3|0:0,0:0:0:0:
228,263,7768,2,0,L|146:251,1,70,8|10,0:3|0:0,0:0:0:0:
240,128,8095,6,0,P|265:192|249:259,1,140,8|8,0:3|0:3,0:0:0:0:
87,229,8747,2,0,L|24:177,2,70,8|8|8,0:3|0:0|0:3,0:0:0:0:
236,253,9399,6,0,L|380:222,1,140,8|8,0:3|0:3,0:0:0:0:
209,167,10051,2,0,L|125:149,1,70,8|10,0:3|0:0,0:0:0:0:
207,150,10377,2,0,L|218:60,1,70,8|0,0:3|0:0,0:0:0:0:
131,257,10703,6,0,L|116:106,1,140,10|10,0:3|0:3,0:0:0:0:
278,228,11355,2,0,L|360:201,2,70,8|10|8,0:3|0:0|0:3,0:0:0:0:
124,156,12008,6,0,P|95:222|119:296,1,140,8|8,0:3|0:3,0:0:0:0:
166,315,12497,1,10,0:0:0:0:
256,332,12660,2,0,L|268:243,1,70,8|8,0:3|0:0,0:0:0:0:
174,246,12986,1,8,0:3:0:0:
443,140,13312,6,0,P|381:311|104:240,1,490,12|8,0:0|0:0,0:0:0:0:
287,111,14616,6,0,L|359:66,2,70,10|10|8,0:3|0:0|0:0,0:0:0:0:
203,161,15105,2,8,L|113:147,1,70,10|8,0:3|0:0,0:0:0:0:
197,101,15432,2,8,L|280:85,1,70,10|8,0:0|0:3,0:0:0:0:
444,70,15758,6,0,P|461:144|396:177,1,140,14|8,0:0|0:0,0:0:0:0:
332,168,16247,2,0,L|175:157,1,140,12|8,0:3|0:0,0:0:0:0:
252,88,16736,1,12,0:3:0:0:
334,52,16899,2,0,L|340:134,1,70,8|8,0:0|0:0,0:0:0:0:
171,158,17225,6,0,P|125:215|163:257,1,140,12|8,0:3|0:0,0:0:0:0:
245,285,17714,1,12,0:3:0:0:
410,194,17877,2,0,L|416:277,1,70,10|10,0:0|0:3,0:0:0:0:
141,53,18366,6,0,P|98:110|141:171,1,140,12|8,0:0|0:0,0:0:0:0:
234,126,18855,2,0,P|273:191|241:239,1,140,12|8,0:3|0:0,0:0:0:0:
143,269,19345,1,12,0:3:0:0:
62,245,19508,2,0,L|60:331,1,70,8|8,0:0|0:0,0:0:0:0:
228,288,19834,6,0,L|321:267,2,70,14|10|8,0:3|0:0|0:0,0:0:0:0:
124,284,20323,2,0,P|91:211|122:162,1,140,14|10,0:3|0:0,0:0:0:0:
399,128,20975,6,0,P|439:198|391:237,1,140,14|8,0:0|0:0,0:0:0:0:
301,215,21464,2,0,L|206:203,1,70,8|8,0:3|0:0,0:0:0:0:
314,142,21790,2,0,L|402:131,2,70,8|8|8,0:3|0:0|0:3,0:0:0:0:
142,238,22279,6,0,P|109:172|147:117,1,140,12|8,0:0|0:0,0:0:0:0:
224,80,22768,1,8,0:0:0:0:
388,78,23095,2,0,L|470:61,2,70,8|8|8,0:3|0:0|0:3,0:0:0:0:
104,89,23747,6,0,L|96:232,1,140,14|10,0:0|0:3,0:0:0:0:
256,75,24399,2,0,L|269:226,1,140,10|0,0:3|0:0,0:0:0:0:
204,226,24888,1,10,0:3:0:0:
274,136,25051,6,2,L|425:114,1,140,2|10,0:0|0:3,0:0:0:0:
346,54,25540,1,2,0:0:0:0:
186,124,25866,1,10,0:0:0:0:
263,125,26029,1,8,0:3:0:0:
340,120,26192,1,10,0:0:0:0:
263,125,26355,6,0,L|105:92,2,140,8|8|8,0:0|0:3|0:3,0:0:0:0:
340,146,27171,1,10,0:0:0:0:
168,98,27497,6,0,P|144:171|168:255,1,140,10|10,0:3|0:0,0:0:0:0:
212,251,27986,1,10,0:3:0:0:
373,302,28312,2,0,P|424:211|355:149,1,210,10|8,0:3|0:3,0:0:0:0:
186,91,28964,6,0,P|164:158|187:235,1,140,10|10,0:0|0:3,0:0:0:0:
343,300,29616,2,0,L|199:294,1,140,10|0,0:3|0:0,0:0:0:0:
130,254,30105,1,10,0:3:0:0:
301,199,30432,6,0,L|144:176,2,140,10|2|10,0:0|0:0|0:0,0:0:0:0:
173,183,31410,6,0,L|163:95,1,70,10|8,0:0|0:0,0:0:0:0:
262,124,31736,2,0,P|284:212|258:256,1,140,10|10,0:3|0:0,0:0:0:0:
182,284,32225,2,0,L|97:279,2,70,8|10|8,0:3|0:0|0:3,0:0:0:0:
350,117,32714,6,0,P|379:188|352:250,1,140,10|10,0:0|0:0,0:0:0:0:
263,294,33203,1,8,0:3:0:0:
159,236,33366,2,0,L|149:152,1,70,14|8,0:3|0:3,0:0:0:0:
319,132,33692,2,0,P|346:200|297:265,1,140,14|8,0:0|0:0,0:0:0:0:
143,304,34182,6,0,P|103:246|146:197,1,140,14|10,0:0|0:3,0:0:0:0:
236,218,34671,2,0,L|391:206,1,140,10|10,0:0|0:0,0:0:0:0:
335,145,35160,1,10,0:3:0:0:
251,116,35323,6,0,L|87:90,2,140,10|10|10,0:0|0:0|0:0,0:0:0:0:
422,122,36301,1,10,0:0:0:0:
337,127,36464,1,10,0:3:0:0:
252,130,36627,1,10,0:0:0:0:
343,59,36790,6,0,P|400:112|359:172,1,140,10|10,0:0|0:3,0:0:0:0:
296,228,37279,2,0,L|148:222,1,140,10|10,0:0|0:0,0:0:0:0:
76,146,37768,1,10,0:3:0:0:
229,134,38095,6,0,L|359:123,1,105,2|2,0:0|0:0,0:0:0:0:
224,231,38584,2,0,P|181:167|209:102,1,140,2|8,0:0|0:0,0:0:0:0:
282,59,39073,1,10,0:3:0:0:
454,262,39236,6,0,P|468:193|445:123,1,140,10|10,0:0|0:0,0:0:0:0:
357,90,39725,2,0,L|273:84,1,70,10|10,0:3|0:0,0:0:0:0:
196,79,40051,2,0,P|156:147|176:218,1,140,2|10,0:0|0:3,0:0:0:0:
247,247,40540,1,10,0:0:0:0:
341,212,40703,6,0,L|423:205,2,70,2|10|10,0:0|0:0|0:3,0:0:0:0:
237,261,41192,2,0,L|80:244,1,140,10|10,0:0|0:0,0:0:0:0:
155,157,41682,1,10,0:3:0:0:
320,136,41845,6,0,P|344:215|319:265,1,140,14|10,0:0|0:0,0:0:0:0:
231,316,42334,1,8,0:3:0:0:
134,264,42497,2,0,L|273:232,1,140,10|10,0:0|0:0,0:0:0:0:
366,172,42986,1,8,0:3:0:0:
198,293,43149,6,8,P|167:227|203:172,1,140,10|10,0:0|0:0,0:0:0:0:
297,145,43638,2,0,L|304:222,1,70,10|2,0:3|0:0,0:0:0:0:
217,218,43964,2,0,L|125:216,2,70,8|10|2,0:3|0:0|0:0,0:0:0:0:
484,205,44616,5,14,0:0:0:0:
240,98,45268,2,0,P|141:192|231:246,1,280,10|2,0:3|0:0,0:0:0:0:
480,256,46573,2,0,L|316:253,1,140,10|0,0:3|0:0,0:0:0:0:
73,234,47225,5,14,0:0:0:0:
322,334,47877,2,0,P|412:254|302:177,1,280,10|2,0:3|0:0,0:0:0:0:
35,144,49182,2,0,L|123:144,1,70,10|12,0:3|0:0,0:0:0:0:
473,152,49834,5,14,0:3:0:0:
256,192,50160,12,0,51138,0:0:0:0:
381,173,51790,6,8,L|471:171,2,70,10|10|8,0:0|0:0|0:3,0:0:0:0:
206,90,52279,6,0,P|168:166|207:198,1,140,14|8,0:0|0:0,0:0:0:0:
292,248,52768,2,0,L|383:247,2,70,10|10|8,0:3|0:0|0:0,0:0:0:0:
190,278,53258,2,0,P|169:205|235:173,1,140,10|8,0:0|0:0,0:0:0:0:
388,166,53747,6,8,L|493:158,2,105,10|2|10,0:0|0:0|0:0,0:0:0:0:
248,184,54562,2,0,L|236:101,1,70,10|2,0:3|0:0,0:0:0:0:
333,84,54888,1,8,0:3:0:0:
44,81,55214,6,8,L|38:230,1,140,10|10,0:0|0:0,0:0:0:0:
129,290,55703,1,10,0:0:0:0:
215,292,55866,1,10,0:0:0:0:
476,292,56192,6,8,P|482:217|456:147,1,140,10|10,0:0|0:0,0:0:0:0:
377,142,56682,1,10,0:3:0:0:
293,151,56845,1,10,0:0:0:0:
377,195,57008,2,0,L|464:190,1,70,8|10,0:3|0:3,0:0:0:0:
140,242,57497,6,8,P|94:177|136:127,1,140,12|10,0:3|0:0,0:0:0:0:
221,88,57986,1,8,0:3:0:0:
381,120,58312,2,0,L|298:119,1,70,10|10,0:0|0:0,0:0:0:0:
392,56,58638,2,0,L|401:146,1,70,10|10,0:3|0:0,0:0:0:0:
224,124,58964,6,8,L|90:123,2,105,10|2|10,0:0|0:0|0:0,0:0:0:0:
395,135,59779,2,0,L|307:130,1,70,10|8,0:0|0:3,0:0:0:0:
157,187,60105,6,8,P|102:138|156:101,1,140,10|8,0:3|0:0,0:0:0:0:
223,94,60595,1,8,0:3:0:0:
321,138,60758,2,8,P|329:213|259:227,1,140,8|10,0:0|0:0,0:0:0:0:
191,233,61247,1,10,0:3:0:0:
451,233,61573,5,6,0:0:0:0:
299,220,61899,2,0,P|262:150|304:102,1,140,10|2,0:3|0:0,0:0:0:0:
392,75,62388,1,10,0:0:0:0:
78,253,62714,6,8,P|44:194|74:135,1,140,14|8,0:0|0:0,0:0:0:0:
169,107,63203,2,0,L|250:107,2,70,10|10|10,0:3|0:0|0:0,0:0:0:0:
77,241,63692,2,0,L|72:95,1,140,10|8,0:0|0:0,0:0:0:0:
249,273,64182,6,8,L|374:272,2,105,10|2|10,0:0|0:0|0:0,0:0:0:0:
91,323,64997,2,0,L|10:322,2,70,10|2|8,0:3|0:0|0:3,0:0:0:0:
372,192,65649,6,8,P|423:246|394:313,1,140,10|10,0:0|0:0,0:0:0:0:
305,333,66138,2,0,L|298:244,1,70,10|10,0:0|0:0,0:0:0:0:
391,246,66464,2,0,L|305:248,1,70,8|10,0:3|0:0,0:0:0:0:
146,201,66790,6,0,L|58:196,2,70,10|10|10,0:0|0:0|0:3,0:0:0:0:
234,186,67279,1,10,0:0:0:0:
133,158,67442,2,0,L|49:159,1,70,8|10,0:3|0:3,0:0:0:0:
371,228,67932,6,8,P|411:176|366:118,1,140,12|10,0:3|0:0,0:0:0:0:
276,104,68421,2,0,L|273:190,1,70,10|10,0:3|0:0,0:0:0:0:
372,168,68747,1,10,0:0:0:0:
232,186,69073,2,0,L|144:173,1,70,10|10,0:3|0:0,0:0:0:0:
338,213,69399,6,8,L|480:214,1,140,10|8,0:0|0:3,0:0:0:0:
379,147,69888,1,10,0:0:0:0:
237,236,70214,2,8,L|232:316,1,70,10|8,0:0|0:3,0:0:0:0:
412,306,70540,5,10,0:3:0:0:
89,295,72538,2,0,P|39:216|88:133,1,192.5,2|8,0:0|0:3,0:0:0:0:
263,151,73149,6,0,P|296:212|259:276,1,140,14|8,0:0|0:0,0:0:0:0:
174,322,73638,2,0,L|333:316,1,140,12|8,0:3|0:0,0:0:0:0:
405,281,74127,1,12,0:3:0:0:
318,241,74290,2,0,L|233:232,1,70,8|8,0:0|0:0,0:0:0:0:
416,122,74616,6,0,P|452:189|413:241,1,140,12|8,0:3|0:0,0:0:0:0:
326,289,75105,1,12,0:3:0:0:
160,195,75268,2,0,L|155:279,1,70,10|10,0:0|0:3,0:0:0:0:
449,214,75758,6,8,P|480:155|449:89,1,140,12|8,0:0|0:0,0:0:0:0:
355,97,76247,2,0,L|201:83,1,140,12|8,0:3|0:0,0:0:0:0:
263,112,76736,1,14,0:3:0:0:
358,157,76899,2,0,L|361:246,1,70,10|8,0:0|0:0,0:0:0:0:
189,298,77225,6,0,P|158:235|198:183,1,140,14|10,0:3|0:0,0:0:0:0:
290,228,77714,2,8,L|130:225,1,140,14|10,0:3|0:0,0:0:0:0:
417,127,78366,6,8,P|448:197|417:261,1,140,14|8,0:0|0:0,0:0:0:0:
323,299,78855,2,8,L|320:218,1,70,8|8,0:3|0:0,0:0:0:0:
419,237,79182,1,8,0:3:0:0:
278,236,79508,2,8,L|200:231,1,70,8|8,0:3|0:0,0:0:0:0:
36,229,79834,5,12,0:3:0:0:
155,157,80160,2,8,L|241:157,1,70,8|8,0:3|0:0,0:0:0:0:
132,99,80486,2,0,L|128:176,1,70,8|8,0:3|0:3,0:0:0:0:
385,221,80975,6,8,P|427:157|402:103,1,140
312,70,81464,1,8,0:3:0:0:
143,82,81790,2,8,P|107:153|158:191,1,140,8|8,0:3|0:3,0:0:0:0:
314,326,82279,6,8,P|355:273|315:204,1,140,12|8,0:0|0:0,0:0:0:0:
236,164,82768,1,8,0:3:0:0:
96,148,83095,2,8,L|26:147,2,70,8|8|8,0:3|0:0|0:3,0:3:0:0:
369,154,83747,5,12,0:3:0:0:
256,192,84073,12,0,86029,0:0:0:0:
158,213,86355,6,8,L|62:197,2,70,8|8|8,0:3|0:0|0:3,0:0:0:0:
311,236,87008,1,8,0:3:0:0:
345,210,87171,1,0,0:3:0:0:
354,169,87334,1,8,0:3:0:0:
192,140,87660,6,8,L|96:127,2,70,8|8|8,0:3|0:0|0:3,0:0:0:0:
363,257,88312,1,8,0:3:0:0:
390,220,88475,1,8,0:0:0:0:
348,184,88638,1,8,0:3:0:0:
171,188,88801,1,8,0:0:0:0:
