osu file format v14

[General]
AudioFilename: audio.mp3
AudioLeadIn: 0
PreviewTime: 50975
Countdown: 0
SampleSet: Soft
StackLeniency: 0.7
Mode: 2
LetterboxInBreaks: 0
WidescreenStoryboard: 1

[Editor]
Bookmarks: 5486,15758,23747,34182,44616,52279,62714,73149,83747
DistanceSpacing: 2.9
BeatDivisor: 4
GridSize: 4
TimelineZoom: 1.5

[Metadata]
Title:VIVID VICE (TV Size)
TitleUnicode:VIVID VICE (TV Size)
Artist:Who-ya Extended
ArtistUnicode:Who-ya Extended
Creator:EclipZ
Version:Cup
Source:呪術廻戦
Tags:japanese anime rock j-rock jrock op opening jujutsu kaisen jjk itadori yuji yuuji 虎杖悠仁 Secre chickenbible
BeatmapID:2857854
BeatmapSetID:1375168

[Difficulty]
HPDrainRate:2
CircleSize:2.5
OverallDifficulty:6
ApproachRate:6
SliderMultiplier:1.2
SliderTickRate:1

[Events]
//Background and Video events
0,0,"bg.jpg",0,0
//Break Periods
//Storyboard Layer 0 (Background)
//Storyboard Layer 1 (Fail)
//Storyboard Layer 2 (Pass)
//Storyboard Layer 3 (Foreground)
//Storyboard Layer 4 (Overlay)
//Storyboard Sound Samples

[TimingPoints]
269,326.086956521739,4,2,1,65,1,0
5160,-100,4,2,1,5,0,0
5323,-100,4,2,1,5,0,0
5486,-100,4,2,1,50,0,0
13312,-133.333333333333,4,2,1,60,0,0
14290,-133.333333333333,4,2,1,5,0,0
14616,-100,4,2,1,60,0,0
15758,-100,4,2,1,70,0,0
23747,-100,4,2,1,55,0,0
34182,-100,4,2,1,60,0,0
45105,-100,4,2,1,55,0,0
45269,-100,4,2,1,55,0,0
49671,-100,4,2,1,5,0,0
49834,-100,4,2,1,55,0,0
51790,-100,4,2,1,65,0,0
52279,-100,4,2,1,75,0,1
55133,-100,4,2,1,5,0,1
55214,-100,4,2,1,75,0,1
65567,-100,4,2,1,5,0,1
65649,-100,4,2,1,75,0,1
70703,-100,4,2,1,65,0,0
72538,-100,4,2,1,70,0,0
72986,-100,4,2,1,70,0,0
86029,-100,4,2,1,5,0,0
86355,-100,4,2,1,65,0,0

[Colours]
Combo1 : 190,126,126
Combo2 : 255,43,43
Combo3 : 255,138,32

[HitObjects]
256,192,269,5,4,0:0:0:0:
256,192,595,12,0,5160,0:0:0:0:
180,106,5486,6,0,L|55:95,1,120,6|10,0:0|0:3,0:0:0:0:
168,166,6138,2,0,L|295:153,1,120,8|8,0:3|0:3,0:0:0:0:
167,217,6790,5,8,0:3:0:0:
174,294,7116,1,8,0:3:0:0:
270,320,7442,1,8,0:3:0:0:
378,319,7768,1,8,0:3:0:0:
258,201,8095,6,0,P|236:262|257:312,1,120,8|8,0:3|0:3,0:0:0:0:
364,251,8747,2,0,P|386:312|365:362,1,120,8|8,0:3|0:3,0:0:0:0:
246,314,9399,6,0,L|120:295,2,120,8|8|8,0:3|0:3|0:3,0:0:0:0:
348,324,10377,1,8,0:3:0:0:
222,234,10703,6,0,L|98:223,1,120,10|10,0:3|0:3,0:0:0:0:
211,72,11355,2,0,P|244:125|213:178,1,120,8|8,0:3|0:3,0:0:0:0:
101,191,12008,5,8,0:3:0:0:
209,189,12334,2,0,L|328:177,2,120,8|8|8,0:3|0:3|0:3,0:0:0:0:
256,192,13312,12,0,14290,0:0:0:0:
348,280,14616,6,0,L|342:220,1,60,10|10,0:3|0:0,0:0:0:0:
458,266,15105,2,8,L|470:143,1,120,10|10,0:3|0:0,0:0:0:0:
325,86,15758,6,0,L|193:80,1,120,14|8,0:0|0:0,0:0:0:0:
259,40,16247,1,12,0:3:0:0:
367,64,16573,2,0,P|392:120|382:203,1,120,8|8,0:0|0:0,0:0:0:0:
259,195,17225,6,0,L|127:188,1,120,12|8,0:3|0:0,0:0:0:0:
259,90,17877,2,0,L|276:155,1,60,10|10,0:0|0:3,0:0:0:0:
142,137,18366,6,0,P|138:202|171:249,1,120,12|8,0:0|0:0,0:0:0:0:
221,256,18855,1,12,0:3:0:0:
329,179,19182,2,0,P|362:237|333:308,1,120,8|8,0:0|0:0,0:0:0:0:
219,224,19834,6,0,L|98:224,1,120,14|8,0:3|0:0,0:0:0:0:
159,169,20323,2,0,L|292:162,1,120,14|10,0:3|0:0,0:0:0:0:
147,104,20975,6,0,P|128:163|156:220,1,120,14|8,0:0|0:0,0:0:0:0:
204,225,21464,1,8,0:3:0:0:
312,247,21790,1,8,0:3:0:0:
204,255,22116,1,8,0:3:0:0:
138,226,22279,6,0,P|120:172|157:107,1,120,12|8,0:0|0:0,0:0:0:0:
199,98,22768,1,8,0:0:0:0:
319,153,23095,1,8,0:3:0:0:
348,118,23258,1,8,0:0:0:0:
340,65,23421,1,8,0:3:0:0:
196,80,23747,6,0,L|65:80,1,120,14|10,0:0|0:3,0:0:0:0:
196,205,24399,2,0,P|221:257|212:318,1,120,10|0,0:3|0:0,0:0:0:0:
158,327,24888,1,10,0:3:0:0:
104,324,25051,5,2,0:0:0:0:
224,295,25377,2,0,L|352:297,1,120,10|0,0:3|0:0,0:0:0:0:
236,114,26029,1,8,0:3:0:0:
368,131,26355,6,0,L|489:111,2,120,8|8|8,0:0|0:3|0:3,0:0:0:0:
314,136,27171,1,10,0:0:0:0:
446,166,27497,6,0,P|477:247|391:285,1,180,10|10,0:3|0:3,0:0:0:0:
290,279,28312,2,0,L|162:261,1,120,10|0,0:3|0:0,0:0:0:0:
303,139,28964,6,0,L|428:133,1,120,10|10,0:0|0:3,0:0:0:0:
303,85,29616,2,0,P|266:146|310:180,1,120,10|0,0:3|0:0,0:0:0:0:
345,192,30105,1,10,0:3:0:0:
225,178,30432,6,0,L|105:164,2,120,10|2|10,0:0|0:0|0:0,0:0:0:0:
279,186,31247,1,8,0:3:0:0:
413,169,31573,5,8,0:0:0:0:
299,154,31899,1,8,0:0:0:0:
185,146,32225,1,8,0:3:0:0:
71,129,32551,1,8,0:3:0:0:
131,72,32714,6,0,L|253:57,1,120,10|10,0:0|0:0,0:0:0:0:
117,84,33366,1,14,0:3:0:0:
249,77,33692,1,14,0:0:0:0:
141,238,34018,1,8,0:0:0:0:
208,230,34182,6,0,L|339:219,1,120,14|10,0:0|0:3,0:0:0:0:
267,160,34671,2,0,L|139:158,1,120,10|10,0:0|0:0,0:0:0:0:
279,273,35323,6,0,L|398:264,2,120,10|10|10,0:0|0:0|0:0,0:0:0:0:
166,203,36301,1,10,0:0:0:0:
286,182,36627,1,10,0:0:0:0:
352,170,36790,6,0,L|486:132,1,120,10|10,0:0|0:3,0:0:0:0:
407,240,37279,2,0,L|398:109,1,120,10|10,0:0|0:0,0:0:0:0:
338,93,37768,1,10,0:3:0:0:
206,103,38095,6,0,L|102:80,2,90,2|2|2,0:0|0:0|0:0,0:0:0:0:
353,112,39073,1,10,0:3:0:0:
410,116,39236,1,10,0:0:0:0:
476,126,39399,6,0,P|487:195|444:234,1,120,8|10,0:0|0:3,0:0:0:0:
348,253,40051,1,2,0:0:0:0:
240,258,40377,1,10,0:3:0:0:
372,170,40703,6,0,L|494:153,1,120,2|10,0:0|0:3,0:0:0:0:
422,95,41192,2,0,L|282:88,1,120,10|10,0:0|0:0,0:0:0:0:
170,64,41845,6,0,P|148:131|182:187,1,120,14|10,0:0|0:0,0:0:0:0:
275,216,42497,2,0,L|395:208,1,120,10|10,0:0|0:0,0:0:0:0:
263,121,43149,6,8,L|126:116,1,120,10|10,0:0|0:0,0:0:0:0:
197,55,43638,1,10,0:3:0:0:
263,70,43801,2,0,P|276:160|194:177,1,180,2|2,0:0|0:0,0:0:0:0:
62,188,44616,5,14,0:0:0:0:
245,181,45268,2,0,L|492:146,2,240,10|2|10,0:3|0:0|0:3,0:0:0:0:
483,188,47225,5,14,0:0:0:0:
289,169,47877,2,0,L|42:134,2,240,10|2|10,0:3|0:0|0:3,0:0:0:0:
49,198,49834,5,14,0:3:0:0:
256,192,50160,12,0,51138,0:0:0:0:
376,189,51790,5,10,0:0:0:0:
382,121,51953,1,10,0:0:0:0:
226,103,52279,6,0,P|196:159|223:230,1,120,14|8,0:0|0:0,0:0:0:0:
262,225,52768,1,10,0:3:0:0:
317,224,52932,1,10,0:0:0:0:
173,223,53258,1,10,0:0:0:0:
389,119,53747,5,10,0:0:0:0:
295,119,53991,1,2,0:0:0:0:
201,116,54236,1,10,0:0:0:0:
321,52,54562,1,10,0:3:0:0:
177,57,54888,1,8,0:3:0:0:
322,140,55214,6,8,P|336:190|310:254,1,120,10|10,0:0|0:0,0:0:0:0:
252,270,55703,2,0,L|191:262,1,60,10|10,0:0|0:0,0:0:0:0:
336,239,56192,6,8,L|482:222,1,120,10|10,0:0|0:0,0:0:0:0:
401,167,56682,1,10,0:3:0:0:
269,101,57008,2,0,L|223:63,1,60,8|10,0:3|0:3,0:0:0:0:
367,165,57497,6,8,P|381:229|347:293,1,120,12|10,0:3|0:0,0:0:0:0:
301,290,57986,1,8,0:3:0:0:
181,301,58312,1,10,0:0:0:0:
313,271,58638,1,10,0:3:0:0:
169,163,58964,6,8,L|76:160,2,90,10|2|10,0:0|0:0|0:0,0:0:0:0:
294,155,59779,1,10,0:0:0:0:
150,133,60105,6,8,L|29:125,1,120,10|8,0:3|0:0,0:0:0:0:
151,67,60758,2,8,L|287:52,1,120,8|10,0:0|0:0,0:0:0:0:
340,64,61247,1,10,0:3:0:0:
196,117,61573,5,6,0:0:0:0:
316,198,61899,1,10,0:3:0:0:
184,227,62225,2,0,L|181:307,1,60,2|10,0:0|0:0,0:0:0:0:
338,293,62714,6,8,P|400:247|398:205,1,120,14|8,0:0|0:0,0:0:0:0:
340,190,63203,1,10,0:3:0:0:
280,186,63366,1,10,0:0:0:0:
424,177,63692,1,10,0:0:0:0:
208,142,64182,5,10,0:0:0:0:
302,140,64426,1,2,0:0:0:0:
397,132,64671,1,10,0:0:0:0:
277,68,64997,1,10,0:3:0:0:
421,61,65323,1,8,0:3:0:0:
277,124,65649,6,8,L|140:126,1,120,10|10,0:0|0:0,0:0:0:0:
217,46,66138,2,0,L|223:134,1,60,10|10,0:0|0:0,0:0:0:0:
77,168,66627,6,0,P|52:226|83:294,1,120,10|10,0:0|0:0,0:0:0:0:
128,294,67116,1,10,0:3:0:0:
260,201,67442,2,0,L|309:257,1,60,8|10,0:3|0:3,0:0:0:0:
155,181,67932,6,8,P|144:237|176:318,1,120,12|10,0:3|0:0,0:0:0:0:
215,314,68421,1,10,0:3:0:0:
335,226,68747,1,10,0:0:0:0:
203,162,69073,1,10,0:3:0:0:
347,122,69399,5,10,0:0:0:0:
215,120,69725,1,8,0:3:0:0:
155,152,69888,2,8,P|133:210|149:289,1,120,10|10,0:0|0:0,0:0:0:0:
283,264,70540,5,10,0:3:0:0:
204,206,72986,1,8,0:3:0:0:
132,203,73149,6,0,P|99:260|120:327,1,120,14|8,0:0|0:0,0:0:0:0:
163,315,73638,1,12,0:3:0:0:
271,198,73964,2,0,P|316:257|287:315,1,120,8|8,0:0|0:0,0:0:0:0:
173,216,74616,6,0,L|47:210,1,120,12|8,0:3|0:0,0:0:0:0:
173,90,75268,2,0,L|180:173,1,60,10|10,0:0|0:3,0:0:0:0:
45,159,75758,6,8,L|32:302,1,120,12|8,0:0|0:0,0:0:0:0:
88,297,76247,1,12,0:3:0:0:
196,285,76573,1,8,0:0:0:0:
88,248,76899,1,10,0:0:0:0:
220,111,77225,6,0,L|354:93,1,120,14|10,0:3|0:0,0:0:0:0:
393,75,77714,1,14,0:3:0:0:
285,65,78040,1,10,0:0:0:0:
141,143,78366,6,8,P|117:213|153:264,1,120,14|8,0:0|0:0,0:0:0:0:
190,257,78855,1,8,0:3:0:0:
298,269,79182,1,8,0:3:0:0:
406,268,79508,1,8,0:3:0:0:
274,202,79834,5,12,0:3:0:0:
166,193,80160,1,8,0:3:0:0:
286,102,80486,2,0,L|292:180,1,60,8|8,0:3|0:3,0:0:0:0:
159,90,80975,6,8,P|134:146|159:215,1,120
202,216,81464,1,8,0:3:0:0:
310,127,81790,2,8,P|340:182|315:238,1,120,8|8,0:3|0:3,0:0:0:0:
255,205,82279,6,8,L|131:196,1,120,12|8,0:0|0:0,0:0:0:0:
190,127,82768,1,8,0:3:0:0:
310,185,83095,1,8,0:3:0:0:
349,133,83258,1,8,0:0:0:0:
325,72,83421,1,8,0:3:0:0:
181,79,83747,5,12,0:3:0:0:
256,192,84073,12,0,86029,0:0:0:0:
265,115,86355,6,8,L|268:254,1,120,8|8,0:3|0:3,0:0:0:0:
130,118,87008,2,8,L|66:246,1,120,8|8,0:3|0:3,0:0:0:0:
234,173,87660,6,8,L|341:260,1,120,8|8,0:3|0:3,0:0:0:0:
171,168,88312,2,8,L|52:185,1,120,8|8,0:3|0:3,0:0:0:0:
44,162,88801,1,8,0:0:0:0:
