osu file format v14

[General]
AudioFilename: audio.mp3
AudioLeadIn: 0
PreviewTime: 41750
Countdown: 0
SampleSet: Normal
StackLeniency: 0.7
Mode: 3
LetterboxInBreaks: 0
SpecialStyle: 0
WidescreenStoryboard: 0

[Editor]
DistanceSpacing: 0.8
BeatDivisor: 12
GridSize: 32
TimelineZoom: 1.5

[Metadata]
Title:Cantarella ~ Grace Edition ~
TitleUnicode:カンタレラ ~ Grace Edition ~
Artist:WhiteFlame (kurousaP) feat. KAITO&Miku
ArtistUnicode:WhiteFlame (kurousaP) feat. KAITO&MIKU
Creator:daemul010
Version:Aut Caesar, aut nihil
Source:
Tags:KAITO hastune miku vocaloid cantarella カンタレラ project sekai coloful stage feat.hatsune miku プロジェクトセカイ カラフルステージ! feat. 初音ミク
BeatmapID:4255414
BeatmapSetID:2040004

[Difficulty]
HPDrainRate:7
CircleSize:4
OverallDifficulty:7
ApproachRate:5
SliderMultiplier:1.4
SliderTickRate:1

[Events]
//Background and Video events
0,0,"post-image-21971146.jpeg",0,0
//Break Periods
//Storyboard Layer 0 (Background)
//Storyboard Layer 1 (Fail)
//Storyboard Layer 2 (Pass)
//Storyboard Layer 3 (Foreground)
//Storyboard Layer 4 (Overlay)
//Storyboard Sound Samples

[TimingPoints]
1750,416.666666666667,4,1,0,100,1,0

[HitObjects]
320,192,1751,128,0,1856:0:0:0:0:
448,192,1751,128,0,1856:0:0:0:0:
64,192,1958,128,0,2062:0:0:0:0:
192,192,2062,128,0,2166:0:0:0:0:
320,192,2166,128,0,2375:0:0:0:0:
192,192,2375,128,0,2583:0:0:0:0:
448,192,2583,128,0,3416:0:0:0:0:
64,192,2583,128,0,3000:0:0:0:0:
320,192,3000,128,0,3416:0:0:0:0:
192,192,3416,128,0,3520:0:0:0:0:
320,192,3520,128,0,3625:0:0:0:0:
192,192,3625,128,0,4145:0:0:0:0:
448,192,3833,128,0,4145:0:0:0:0:
320,192,4041,128,0,4145:0:0:0:0:
64,192,4250,128,0,4666:0:0:0:0:
192,192,4875,128,0,4979:0:0:0:0:
320,192,4979,128,0,5083:0:0:0:0:
448,192,5083,128,0,5291:0:0:0:0:
64,192,5083,1,0,0:0:0:0:
192,192,5291,128,0,5361:0:0:0:0:
320,192,5361,128,0,5430:0:0:0:0:
64,192,5430,128,0,5500:0:0:0:0:
448,192,5500,128,0,5708:0:0:0:0:
320,192,5708,128,0,5916:0:0:0:0:
192,192,5916,128,0,6125:0:0:0:0:
448,192,5916,1,0,0:0:0:0:
64,192,6125,128,0,6333:0:0:0:0:
448,192,6125,1,0,0:0:0:0:
192,192,6333,128,0,6437:0:0:0:0:
320,192,6333,1,0,0:0:0:0:
320,192,6541,128,0,6645:0:0:0:0:
448,192,6750,128,0,6958:0:0:0:0:
64,192,6750,1,0,0:0:0:0:
320,192,6958,128,0,7027:0:0:0:0:
448,192,7027,128,0,7097:0:0:0:0:
192,192,7097,128,0,7166:0:0:0:0:
64,192,7166,128,0,7375:0:0:0:0:
448,192,7375,128,0,7583:0:0:0:0:
320,192,7583,128,0,7687:0:0:0:0:
64,192,7583,1,0,0:0:0:0:
64,192,7791,128,0,7895:0:0:0:0:
448,192,7791,1,0,0:0:0:0:
448,192,8000,128,0,8416:0:0:0:0:
192,192,8000,1,0,0:0:0:0:
320,192,8416,1,0,0:0:0:0:
64,192,8416,128,0,9250:0:0:0:0:
192,192,8625,1,0,0:0:0:0:
320,192,8729,1,0,0:0:0:0:
448,192,8833,128,0,9041:0:0:0:0:
192,192,9041,1,0,0:0:0:0:
320,192,9041,128,0,9250:0:0:0:0:
192,192,9250,128,0,10083:0:0:0:0:
448,192,9250,128,0,9666:0:0:0:0:
320,192,9458,1,0,0:0:0:0:
320,192,9666,1,0,0:0:0:0:
64,192,9666,128,0,10083:0:0:0:0:
320,192,9875,1,0,0:0:0:0:
320,192,10083,128,0,10916:0:0:0:0:
448,192,10187,1,0,0:0:0:0:
192,192,10291,128,0,10500:0:0:0:0:
448,192,10500,1,0,0:0:0:0:
64,192,10500,128,0,10708:0:0:0:0:
448,192,10708,1,0,0:0:0:0:
192,192,10708,128,0,10916:0:0:0:0:
448,192,10916,128,0,11541:0:0:0:0:
64,192,10916,128,0,11333:0:0:0:0:
192,192,11125,1,0,0:0:0:0:
192,192,11333,1,0,0:0:0:0:
64,192,11541,1,0,0:0:0:0:
192,192,11645,1,0,0:0:0:0:
320,192,11750,128,0,11958:0:0:0:0:
192,192,11958,1,0,0:0:0:0:
64,192,12027,1,0,0:0:0:0:
448,192,12097,1,0,0:0:0:0:
320,192,12166,128,0,12375:0:0:0:0:
192,192,12375,128,0,12583:0:0:0:0:
64,192,12583,128,0,12791:0:0:0:0:
448,192,12583,1,0,0:0:0:0:
192,192,12791,128,0,12895:0:0:0:0:
448,192,13000,128,0,13416:0:0:0:0:
320,192,13000,128,0,13104:0:0:0:0:
192,192,13208,128,0,13312:0:0:0:0:
64,192,13416,128,0,14041:0:0:0:0:
320,192,13416,128,0,13625:0:0:0:0:
448,192,13625,128,0,13694:0:0:0:0:
320,192,13694,128,0,13763:0:0:0:0:
192,192,13763,128,0,13833:0:0:0:0:
320,192,13833,128,0,14250:0:0:0:0:
192,192,14041,128,0,14250:0:0:0:0:
64,192,14250,128,0,14319:0:0:0:0:
448,192,14250,128,0,14319:0:0:0:0:
64,192,14458,128,0,14493:0:0:0:0:
192,192,14458,128,0,14493:0:0:0:0:
448,192,14458,128,0,14493:0:0:0:0:
320,192,14666,128,0,15083:0:0:0:0:
64,192,14666,1,0,0:0:0:0:
192,192,14666,1,0,0:0:0:0:
448,192,14666,1,0,0:0:0:0:
448,192,15083,1,0,0:0:0:0:
64,192,15083,1,0,0:0:0:0:
320,192,15291,1,0,0:0:0:0:
192,192,15500,1,0,0:0:0:0:
64,192,15500,128,0,15708:0:0:0:0:
448,192,15708,128,0,15916:0:0:0:0:
320,192,15916,128,0,16541:0:0:0:0:
64,192,16125,1,0,0:0:0:0:
192,192,16125,1,0,0:0:0:0:
64,192,16333,1,0,0:0:0:0:
448,192,16333,1,0,0:0:0:0:
192,192,16541,1,0,0:0:0:0:
320,192,16750,1,0,0:0:0:0:
192,192,16958,1,0,0:0:0:0:
448,192,17166,128,0,17375:0:0:0:0:
64,192,17166,1,0,0:0:0:0:
192,192,17375,128,0,17791:0:0:0:0:
320,192,17375,1,0,0:0:0:0:
320,192,17583,128,0,17791:0:0:0:0:
448,192,17791,1,0,0:0:0:0:
320,192,18000,1,0,0:0:0:0:
64,192,18000,1,0,0:0:0:0:
64,192,18208,128,0,18416:0:0:0:0:
192,192,18416,128,0,18520:0:0:0:0:
448,192,18416,128,0,18625:0:0:0:0:
192,192,18625,128,0,18833:0:0:0:0:
320,192,18833,1,0,0:0:0:0:
448,192,18833,1,0,0:0:0:0:
64,192,19041,1,0,0:0:0:0:
448,192,19250,128,0,19354:0:0:0:0:
192,192,19250,128,0,19458:0:0:0:0:
448,192,19458,128,0,19666:0:0:0:0:
320,192,19666,128,0,19875:0:0:0:0:
64,192,19666,1,0,0:0:0:0:
192,192,19875,128,0,20291:0:0:0:0:
64,192,20083,128,0,20604:0:0:0:0:
320,192,20291,128,0,20500:0:0:0:0:
448,192,20500,128,0,20708:0:0:0:0:
64,192,20708,128,0,20916:0:0:0:0:
448,192,20916,128,0,21020:0:0:0:0:
320,192,21125,1,0,0:0:0:0:
448,192,21194,1,0,0:0:0:0:
192,192,21263,1,0,0:0:0:0:
320,192,21333,128,0,21541:0:0:0:0:
64,192,21333,128,0,21750:0:0:0:0:
192,192,21541,128,0,21750:0:0:0:0:
448,192,21750,1,0,0:0:0:0:
320,192,21750,1,0,0:0:0:0:
192,192,21958,1,0,0:0:0:0:
320,192,22166,1,0,0:0:0:0:
64,192,22166,128,0,22375:0:0:0:0:
448,192,22375,1,0,0:0:0:0:
192,192,22375,128,0,22583:0:0:0:0:
64,192,22583,1,0,0:0:0:0:
320,192,22583,128,0,23000:0:0:0:0:
448,192,22791,1,0,0:0:0:0:
64,192,23000,1,0,0:0:0:0:
192,192,23000,1,0,0:0:0:0:
320,192,23208,128,0,23416:0:0:0:0:
64,192,23208,1,0,0:0:0:0:
448,192,23416,128,0,23625:0:0:0:0:
192,192,23625,128,0,23833:0:0:0:0:
64,192,23625,1,0,0:0:0:0:
448,192,23833,128,0,24041:0:0:0:0:
320,192,23833,1,0,0:0:0:0:
192,192,24041,128,0,24250:0:0:0:0:
320,192,24041,1,0,0:0:0:0:
64,192,24250,128,0,24458:0:0:0:0:
448,192,24458,1,0,0:0:0:0:
64,192,24666,1,0,0:0:0:0:
192,192,24666,128,0,24875:0:0:0:0:
448,192,24875,128,0,24979:0:0:0:0:
448,192,25083,128,0,25291:0:0:0:0:
320,192,25083,1,0,0:0:0:0:
192,192,25291,1,0,0:0:0:0:
448,192,25500,1,0,0:0:0:0:
64,192,25500,1,0,0:0:0:0:
64,192,25708,1,0,0:0:0:0:
320,192,25708,128,0,25916:0:0:0:0:
192,192,25916,128,0,26125:0:0:0:0:
320,192,26125,128,0,26333:0:0:0:0:
192,192,26333,128,0,26750:0:0:0:0:
448,192,26333,1,0,0:0:0:0:
64,192,26333,1,0,0:0:0:0:
64,192,26541,128,0,26750:0:0:0:0:
448,192,26750,128,0,27479:0:0:0:0:
320,192,26750,1,0,0:0:0:0:
64,192,26958,128,0,27166:0:0:0:0:
192,192,27166,128,0,27270:0:0:0:0:
192,192,27375,128,0,27791:0:0:0:0:
320,192,27375,128,0,27583:0:0:0:0:
448,192,27583,128,0,27791:0:0:0:0:
320,192,27791,128,0,27861:0:0:0:0:
192,192,27861,128,0,27930:0:0:0:0:
320,192,27930,128,0,28000:0:0:0:0:
64,192,28000,128,0,28312:0:0:0:0:
448,192,28000,128,0,28138:0:0:0:0:
320,192,28208,128,0,28416:0:0:0:0:
448,192,28208,128,0,28416:0:0:0:0:
192,192,28416,1,0,0:0:0:0:
64,192,28416,1,0,0:0:0:0:
64,192,28625,1,0,0:0:0:0:
448,192,28625,1,0,0:0:0:0:
192,192,28625,1,0,0:0:0:0:
448,192,28833,1,0,0:0:0:0:
320,192,29041,128,0,29666:0:0:0:0:
64,192,29041,1,0,0:0:0:0:
192,192,29041,1,0,0:0:0:0:
64,192,29562,1,0,0:0:0:0:
192,192,29614,1,0,0:0:0:0:
448,192,29666,128,0,30083:0:0:0:0:
192,192,29875,128,0,30083:0:0:0:0:
64,192,30083,128,0,30187:0:0:0:0:
320,192,30083,1,0,0:0:0:0:
192,192,30291,1,0,0:0:0:0:
320,192,30291,128,0,30395:0:0:0:0:
64,192,30500,1,0,0:0:0:0:
192,192,30500,128,0,30604:0:0:0:0:
64,192,30708,128,0,30916:0:0:0:0:
192,192,30708,1,0,0:0:0:0:
320,192,30708,128,0,30812:0:0:0:0:
64,192,31177,1,0,0:0:0:0:
448,192,31229,1,0,0:0:0:0:
64,192,31263,1,0,0:0:0:0:
448,192,31333,128,0,31750:0:0:0:0:
192,192,31750,1,0,0:0:0:0:
320,192,31750,1,0,0:0:0:0:
64,192,31958,1,0,0:0:0:0:
448,192,31958,1,0,0:0:0:0:
192,192,31958,1,0,0:0:0:0:
64,192,32166,1,0,0:0:0:0:
448,192,32166,1,0,0:0:0:0:
320,192,32166,1,0,0:0:0:0:
320,192,32375,1,0,0:0:0:0:
448,192,32375,1,0,0:0:0:0:
192,192,32375,128,0,33000:0:0:0:0:
448,192,32895,1,0,0:0:0:0:
320,192,32947,1,0,0:0:0:0:
64,192,33000,128,0,33416:0:0:0:0:
320,192,33208,128,0,33312:0:0:0:0:
448,192,33416,128,0,33486:0:0:0:0:
192,192,33416,128,0,33625:0:0:0:0:
448,192,33625,128,0,33694:0:0:0:0:
64,192,33625,128,0,33833:0:0:0:0:
320,192,33833,128,0,33902:0:0:0:0:
448,192,33833,128,0,34041:0:0:0:0:
64,192,34041,128,0,34111:0:0:0:0:
192,192,34041,128,0,34458:0:0:0:0:
320,192,34041,1,0,0:0:0:0:
320,192,34458,128,0,34527:0:0:0:0:
64,192,34458,1,0,0:0:0:0:
448,192,34527,128,0,34597:0:0:0:0:
320,192,34597,128,0,34666:0:0:0:0:
192,192,34666,128,0,34770:0:0:0:0:
64,192,34666,1,0,0:0:0:0:
320,192,34770,128,0,34875:0:0:0:0:
192,192,34875,128,0,35083:0:0:0:0:
448,192,35083,128,0,35708:0:0:0:0:
64,192,35083,1,0,0:0:0:0:
64,192,35291,1,0,0:0:0:0:
64,192,35500,1,0,0:0:0:0:
192,192,35500,1,0,0:0:0:0:
192,192,35708,128,0,35968:0:0:0:0:
320,192,35708,1,0,0:0:0:0:
64,192,36125,128,0,36194:0:0:0:0:
320,192,36125,128,0,36194:0:0:0:0:
192,192,36229,128,0,36298:0:0:0:0:
448,192,36229,128,0,36298:0:0:0:0:
320,192,36333,128,0,36402:0:0:0:0:
192,192,36437,128,0,36506:0:0:0:0:
64,192,36541,128,0,36645:0:0:0:0:
448,192,36541,128,0,36750:0:0:0:0:
64,192,36750,128,0,36958:0:0:0:0:
320,192,36750,1,0,0:0:0:0:
320,192,36958,128,0,37166:0:0:0:0:
448,192,37166,128,0,37270:0:0:0:0:
64,192,37166,128,0,37635:0:0:0:0:
192,192,37375,128,0,37635:0:0:0:0:
448,192,37375,128,0,37635:0:0:0:0:
320,192,37791,128,0,37861:0:0:0:0:
448,192,37895,128,0,37965:0:0:0:0:
64,192,37895,128,0,37965:0:0:0:0:
192,192,38000,128,0,38069:0:0:0:0:
448,192,38104,1,0,0:0:0:0:
64,192,38208,128,0,38416:0:0:0:0:
192,192,38208,1,0,0:0:0:0:
320,192,38312,1,0,0:0:0:0:
448,192,38416,128,0,39041:0:0:0:0:
192,192,38416,1,0,0:0:0:0:
64,192,38625,1,0,0:0:0:0:
192,192,38833,128,0,38937:0:0:0:0:
320,192,38833,1,0,0:0:0:0:
192,192,39041,128,0,39458:0:0:0:0:
320,192,39250,1,0,0:0:0:0:
448,192,39458,128,0,39666:0:0:0:0:
64,192,39666,1,0,0:0:0:0:
320,192,39666,128,0,40013:0:0:0:0:
192,192,39875,128,0,40013:0:0:0:0:
64,192,40083,128,0,40118:0:0:0:0:
448,192,40083,128,0,40118:0:0:0:0:
448,192,40291,128,0,40361:0:0:0:0:
64,192,40291,128,0,40361:0:0:0:0:
64,192,40500,128,0,40592:0:0:0:0:
448,192,40500,128,0,40592:0:0:0:0:
448,192,40708,128,0,40847:0:0:0:0:
64,192,40708,128,0,40847:0:0:0:0:
192,192,41125,128,0,41333:0:0:0:0:
320,192,41333,1,0,0:0:0:0:
192,192,41437,1,0,0:0:0:0:
64,192,41541,1,0,0:0:0:0:
320,192,41750,128,0,42166:0:0:0:0:
448,192,41750,128,0,42166:0:0:0:0:
64,192,41750,128,0,41958:0:0:0:0:
64,192,42166,1,0,0:0:0:0:
64,192,42375,128,0,43000:0:0:0:0:
448,192,42375,128,0,42687:0:0:0:0:
192,192,42375,128,0,43000:0:0:0:0:
448,192,42791,128,0,43208:0:0:0:0:
320,192,43000,1,0,0:0:0:0:
192,192,43208,128,0,43625:0:0:0:0:
320,192,43416,1,0,0:0:0:0:
448,192,43416,1,0,0:0:0:0:
64,192,43625,1,0,0:0:0:0:
192,192,43833,128,0,44041:0:0:0:0:
320,192,44041,128,0,44250:0:0:0:0:
64,192,44041,128,0,44666:0:0:0:0:
448,192,44041,1,0,0:0:0:0:
448,192,44458,128,0,44666:0:0:0:0:
320,192,44666,128,0,44875:0:0:0:0:
192,192,44875,128,0,45083:0:0:0:0:
64,192,45083,128,0,45500:0:0:0:0:
448,192,45083,128,0,45118:0:0:0:0:
320,192,45291,128,0,45326:0:0:0:0:
192,192,45500,128,0,45534:0:0:0:0:
448,192,45500,128,0,45534:0:0:0:0:
320,192,45708,128,0,45916:0:0:0:0:
64,192,45916,128,0,45951:0:0:0:0:
448,192,45916,128,0,46333:0:0:0:0:
192,192,46125,128,0,46159:0:0:0:0:
320,192,46333,128,0,46368:0:0:0:0:
64,192,46333,128,0,46368:0:0:0:0:
64,192,46541,128,0,46750:0:0:0:0:
448,192,46750,128,0,47166:0:0:0:0:
192,192,46750,128,0,46784:0:0:0:0:
320,192,46958,128,0,46993:0:0:0:0:
192,192,47166,128,0,47375:0:0:0:0:
64,192,47166,128,0,47201:0:0:0:0:
448,192,47375,128,0,47409:0:0:0:0:
320,192,47375,128,0,47479:0:0:0:0:
192,192,47583,1,0,0:0:0:0:
64,192,47583,128,0,47652:0:0:0:0:
64,192,47791,1,0,0:0:0:0:
448,192,47791,128,0,47861:0:0:0:0:
320,192,47791,1,0,0:0:0:0:
192,192,48000,1,0,0:0:0:0:
448,192,48000,128,0,48208:0:0:0:0:
320,192,48000,128,0,48069:0:0:0:0:
448,192,48416,128,0,48694:0:0:0:0:
192,192,48416,128,0,48694:0:0:0:0:
64,192,48416,128,0,48694:0:0:0:0:
320,192,48833,1,0,0:0:0:0:
192,192,48833,1,0,0:0:0:0:
64,192,49041,128,0,49354:0:0:0:0:
320,192,49041,128,0,49562:0:0:0:0:
448,192,49041,128,0,49562:0:0:0:0:
64,192,49458,128,0,49770:0:0:0:0:
448,192,49666,1,0,0:0:0:0:
192,192,49875,1,0,0:0:0:0:
320,192,49875,128,0,50291:0:0:0:0:
448,192,50083,1,0,0:0:0:0:
64,192,50291,1,0,0:0:0:0:
448,192,50500,128,0,50708:0:0:0:0:
192,192,50708,1,0,0:0:0:0:
64,192,50708,128,0,50916:0:0:0:0:
320,192,50708,128,0,51125:0:0:0:0:
448,192,50916,1,0,0:0:0:0:
64,192,51125,1,0,0:0:0:0:
448,192,51333,128,0,51541:0:0:0:0:
192,192,51333,1,0,0:0:0:0:
320,192,51541,128,0,51750:0:0:0:0:
192,192,51750,128,0,52166:0:0:0:0:
448,192,51750,128,0,51784:0:0:0:0:
64,192,51958,128,0,51993:0:0:0:0:
320,192,52166,128,0,52201:0:0:0:0:
448,192,52166,128,0,52201:0:0:0:0:
192,192,52375,128,0,52583:0:0:0:0:
320,192,52583,128,0,53000:0:0:0:0:
64,192,52583,128,0,52618:0:0:0:0:
448,192,52791,128,0,52826:0:0:0:0:
192,192,53000,128,0,53034:0:0:0:0:
64,192,53000,128,0,53034:0:0:0:0:
320,192,53208,128,0,53416:0:0:0:0:
448,192,53416,128,0,53729:0:0:0:0:
192,192,53416,128,0,53451:0:0:0:0:
192,192,53625,128,0,53659:0:0:0:0:
64,192,53625,128,0,53659:0:0:0:0:
448,192,53833,128,0,53868:0:0:0:0:
192,192,53833,128,0,53868:0:0:0:0:
64,192,53833,128,0,53868:0:0:0:0:
64,192,54041,128,0,54875:0:0:0:0:
320,192,54041,128,0,54458:0:0:0:0:
448,192,54041,128,0,54458:0:0:0:0:
192,192,54458,1,0,0:0:0:0:
192,192,54666,1,0,0:0:0:0:
320,192,55083,1,0,0:0:0:0:
448,192,55083,1,0,0:0:0:0:
64,192,55291,128,0,55395:0:0:0:0:
192,192,55395,128,0,55500:0:0:0:0:
320,192,55500,128,0,55604:0:0:0:0:
448,192,55500,1,0,0:0:0:0:
192,192,55708,128,0,55812:0:0:0:0:
320,192,55708,1,0,0:0:0:0:
448,192,55916,128,0,56333:0:0:0:0:
64,192,55916,1,0,0:0:0:0:
192,192,56125,1,0,0:0:0:0:
320,192,56333,128,0,56750:0:0:0:0:
64,192,56333,1,0,0:0:0:0:
64,192,56541,1,0,0:0:0:0:
192,192,56750,128,0,56854:0:0:0:0:
448,192,56750,1,0,0:0:0:0:
320,192,56854,128,0,56958:0:0:0:0:
192,192,56958,128,0,57166:0:0:0:0:
448,192,57166,128,0,57375:0:0:0:0:
320,192,57375,128,0,57479:0:0:0:0:
192,192,57375,1,0,0:0:0:0:
64,192,57583,128,0,58000:0:0:0:0:
448,192,57791,1,0,0:0:0:0:
192,192,57791,1,0,0:0:0:0:
320,192,58000,1,0,0:0:0:0:
192,192,58208,128,0,58312:0:0:0:0:
320,192,58312,128,0,58416:0:0:0:0:
448,192,58416,128,0,58625:0:0:0:0:
64,192,58416,1,0,0:0:0:0:
192,192,58625,128,0,58694:0:0:0:0:
320,192,58694,128,0,58763:0:0:0:0:
64,192,58763,128,0,58833:0:0:0:0:
448,192,58833,128,0,59041:0:0:0:0:
320,192,59041,128,0,59250:0:0:0:0:
192,192,59041,1,0,0:0:0:0:
192,192,59250,128,0,59458:0:0:0:0:
448,192,59250,1,0,0:0:0:0:
64,192,59458,128,0,59562:0:0:0:0:
320,192,59458,1,0,0:0:0:0:
192,192,59666,128,0,59770:0:0:0:0:
448,192,59666,1,0,0:0:0:0:
320,192,59875,128,0,59979:0:0:0:0:
64,192,59875,1,0,0:0:0:0:
448,192,60083,128,0,60291:0:0:0:0:
192,192,60083,1,0,0:0:0:0:
320,192,60291,128,0,60361:0:0:0:0:
448,192,60361,128,0,60430:0:0:0:0:
192,192,60430,128,0,60500:0:0:0:0:
64,192,60500,128,0,60708:0:0:0:0:
448,192,60708,128,0,60812:0:0:0:0:
320,192,60916,128,0,61020:0:0:0:0:
64,192,60916,1,0,0:0:0:0:
64,192,61125,128,0,61229:0:0:0:0:
192,192,61125,1,0,0:0:0:0:
448,192,61333,128,0,61750:0:0:0:0:
320,192,61333,1,0,0:0:0:0:
64,192,61541,1,0,0:0:0:0:
192,192,61541,1,0,0:0:0:0:
320,192,61750,1,0,0:0:0:0:
64,192,61958,128,0,62583:0:0:0:0:
192,192,61958,1,0,0:0:0:0:
320,192,62062,1,0,0:0:0:0:
448,192,62166,128,0,62270:0:0:0:0:
192,192,62375,1,0,0:0:0:0:
320,192,62375,128,0,62583:0:0:0:0:
448,192,62583,128,0,63000:0:0:0:0:
320,192,62791,1,0,0:0:0:0:
192,192,62791,128,0,63416:0:0:0:0:
64,192,63000,128,0,63208:0:0:0:0:
320,192,63208,1,0,0:0:0:0:
320,192,63416,128,0,63833:0:0:0:0:
64,192,63416,1,0,0:0:0:0:
448,192,63520,1,0,0:0:0:0:
192,192,63625,128,0,63833:0:0:0:0:
64,192,63833,128,0,64041:0:0:0:0:
448,192,63833,128,0,64041:0:0:0:0:
192,192,64041,128,0,64145:0:0:0:0:
320,192,64041,128,0,64145:0:0:0:0:
448,192,64250,128,0,64666:0:0:0:0:
64,192,64250,128,0,64666:0:0:0:0:
320,192,64458,1,0,0:0:0:0:
192,192,64666,1,0,0:0:0:0:
64,192,64875,1,0,0:0:0:0:
192,192,64979,1,0,0:0:0:0:
320,192,65083,128,0,65291:0:0:0:0:
192,192,65291,1,0,0:0:0:0:
64,192,65361,1,0,0:0:0:0:
448,192,65430,1,0,0:0:0:0:
320,192,65500,128,0,65708:0:0:0:0:
192,192,65708,128,0,65916:0:0:0:0:
64,192,65916,128,0,66333:0:0:0:0:
320,192,65916,128,0,66020:0:0:0:0:
192,192,66125,128,0,66229:0:0:0:0:
448,192,66333,128,0,66750:0:0:0:0:
320,192,66333,128,0,66437:0:0:0:0:
192,192,66541,128,0,66645:0:0:0:0:
64,192,66750,128,0,66958:0:0:0:0:
320,192,66750,1,0,0:0:0:0:
448,192,66958,128,0,67027:0:0:0:0:
192,192,67027,128,0,67097:0:0:0:0:
64,192,67097,128,0,67166:0:0:0:0:
320,192,67166,128,0,67583:0:0:0:0:
192,192,67375,128,0,67583:0:0:0:0:
64,192,67583,128,0,67652:0:0:0:0:
448,192,67583,128,0,67652:0:0:0:0:
64,192,67791,128,0,67826:0:0:0:0:
448,192,67791,128,0,67826:0:0:0:0:
192,192,68000,128,0,68416:0:0:0:0:
320,192,68000,1,0,0:0:0:0:
320,192,68208,1,0,0:0:0:0:
64,192,68416,1,0,0:0:0:0:
448,192,68416,1,0,0:0:0:0:
320,192,68625,1,0,0:0:0:0:
192,192,68833,1,0,0:0:0:0:
64,192,68833,1,0,0:0:0:0:
448,192,69041,1,0,0:0:0:0:
320,192,69250,1,0,0:0:0:0:
64,192,69458,1,0,0:0:0:0:
320,192,69458,1,0,0:0:0:0:
64,192,69666,1,0,0:0:0:0:
64,192,69875,1,0,0:0:0:0:
320,192,69875,1,0,0:0:0:0:
320,192,70083,1,0,0:0:0:0:
448,192,70083,1,0,0:0:0:0:
192,192,70291,1,0,0:0:0:0:
448,192,70500,1,0,0:0:0:0:
64,192,70500,1,0,0:0:0:0:
448,192,70708,1,0,0:0:0:0:
320,192,70708,1,0,0:0:0:0:
192,192,70916,1,0,0:0:0:0:
192,192,71125,1,0,0:0:0:0:
448,192,71125,1,0,0:0:0:0:
448,192,71333,1,0,0:0:0:0:
448,192,71541,1,0,0:0:0:0:
192,192,71541,1,0,0:0:0:0:
64,192,71750,1,0,0:0:0:0:
64,192,71958,1,0,0:0:0:0:
448,192,72166,128,0,72322:0:0:0:0:
320,192,72166,128,0,72322:0:0:0:0:
64,192,72583,1,0,0:0:0:0:
64,192,72791,1,0,0:0:0:0:
192,192,73000,128,0,73156:0:0:0:0:
320,192,73000,128,0,73156:0:0:0:0:
448,192,73416,128,0,73625:0:0:0:0:
64,192,73625,128,0,73833:0:0:0:0:
192,192,73833,128,0,74041:0:0:0:0:
320,192,73833,1,0,0:0:0:0:
448,192,74041,128,0,74250:0:0:0:0:
320,192,74250,128,0,74319:0:0:0:0:
192,192,74458,128,0,74527:0:0:0:0:
64,192,74458,1,0,0:0:0:0:
448,192,74527,128,0,74597:0:0:0:0:
320,192,74597,128,0,74666:0:0:0:0:
192,192,74666,128,0,74875:0:0:0:0:
64,192,74875,128,0,75083:0:0:0:0:
448,192,75083,1,0,0:0:0:0:
320,192,75291,1,0,0:0:0:0:
448,192,75500,1,0,0:0:0:0:
192,192,75500,1,0,0:0:0:0:
320,192,75500,1,0,0:0:0:0:
64,192,75708,1,0,0:0:0:0:
192,192,75916,1,0,0:0:0:0:
64,192,76125,1,0,0:0:0:0:
64,192,76333,1,0,0:0:0:0:
448,192,76333,1,0,0:0:0:0:
320,192,76333,1,0,0:0:0:0:
192,192,76541,1,0,0:0:0:0:
448,192,76750,1,0,0:0:0:0:
192,192,76958,1,0,0:0:0:0:
64,192,77166,1,0,0:0:0:0:
192,192,77166,1,0,0:0:0:0:
320,192,77166,1,0,0:0:0:0:
448,192,77375,1,0,0:0:0:0:
320,192,77583,1,0,0:0:0:0:
448,192,77791,1,0,0:0:0:0:
448,192,78000,1,0,0:0:0:0:
320,192,78000,1,0,0:0:0:0:
64,192,78000,1,0,0:0:0:0:
192,192,78208,1,0,0:0:0:0:
448,192,78416,1,0,0:0:0:0:
448,192,78625,1,0,0:0:0:0:
64,192,78833,128,0,78989:0:0:0:0:
192,192,78833,128,0,78989:0:0:0:0:
448,192,79250,1,0,0:0:0:0:
448,192,79458,1,0,0:0:0:0:
320,192,79666,128,0,79822:0:0:0:0:
192,192,79666,128,0,79822:0:0:0:0:
64,192,80083,128,0,80708:0:0:0:0:
192,192,80083,128,0,80291:0:0:0:0:
320,192,80291,128,0,80500:0:0:0:0:
448,192,80500,128,0,80708:0:0:0:0:
192,192,80708,128,0,81125:0:0:0:0:
320,192,80708,128,0,80916:0:0:0:0:
448,192,80916,128,0,81125:0:0:0:0:
64,192,81125,128,0,81194:0:0:0:0:
320,192,81194,128,0,81263:0:0:0:0:
192,192,81263,128,0,81333:0:0:0:0:
448,192,81333,128,0,81750:0:0:0:0:
64,192,81333,128,0,81437:0:0:0:0:
64,192,81541,128,0,81750:0:0:0:0:
192,192,81750,1,0,0:0:0:0:
320,192,81750,128,0,81819:0:0:0:0:
192,192,81958,1,0,0:0:0:0:
320,192,81958,128,0,82027:0:0:0:0:
64,192,82166,1,0,0:0:0:0:
448,192,82166,128,0,82236:0:0:0:0:
64,192,82375,1,0,0:0:0:0:
448,192,82375,128,0,82444:0:0:0:0:
64,192,82895,1,0,0:0:0:0:
448,192,82947,1,0,0:0:0:0:
192,192,83000,1,0,0:0:0:0:
320,192,83208,1,0,0:0:0:0:
64,192,83416,1,0,0:0:0:0:
320,192,83416,1,0,0:0:0:0:
448,192,83416,1,0,0:0:0:0:
192,192,83625,1,0,0:0:0:0:
448,192,83625,1,0,0:0:0:0:
320,192,83833,1,0,0:0:0:0:
192,192,83833,1,0,0:0:0:0:
64,192,83833,1,0,0:0:0:0:
320,192,84041,1,0,0:0:0:0:
64,192,84041,1,0,0:0:0:0:
320,192,84666,128,0,84927:0:0:0:0:
448,192,85083,1,0,0:0:0:0:
64,192,85083,128,0,85152:0:0:0:0:
448,192,85291,1,0,0:0:0:0:
64,192,85291,128,0,85361:0:0:0:0:
320,192,85500,1,0,0:0:0:0:
192,192,85500,128,0,85569:0:0:0:0:
320,192,85708,1,0,0:0:0:0:
192,192,85708,128,0,85777:0:0:0:0:
448,192,86229,1,0,0:0:0:0:
320,192,86281,1,0,0:0:0:0:
64,192,86333,1,0,0:0:0:0:
192,192,86541,1,0,0:0:0:0:
448,192,86750,1,0,0:0:0:0:
320,192,86750,1,0,0:0:0:0:
320,192,86958,1,0,0:0:0:0:
192,192,86958,1,0,0:0:0:0:
64,192,86958,1,0,0:0:0:0:
448,192,87166,1,0,0:0:0:0:
192,192,87166,1,0,0:0:0:0:
320,192,87166,1,0,0:0:0:0:
64,192,87375,1,0,0:0:0:0:
192,192,87375,1,0,0:0:0:0:
448,192,87375,128,0,87739:0:0:0:0:
320,192,87750,128,0,87833:0:0:0:0:
192,192,87833,128,0,87916:0:0:0:0:
320,192,87916,128,0,88000:0:0:0:0:
448,192,88000,128,0,88104:0:0:0:0:
320,192,88104,128,0,88208:0:0:0:0:
192,192,88208,128,0,88416:0:0:0:0:
64,192,88416,128,0,89041:0:0:0:0:
320,192,88416,128,0,88833:0:0:0:0:
448,192,88833,128,0,89041:0:0:0:0:
320,192,89041,128,0,89145:0:0:0:0:
192,192,89041,128,0,89145:0:0:0:0:
320,192,89666,128,0,89736:0:0:0:0:
448,192,89736,128,0,89805:0:0:0:0:
192,192,89736,128,0,89805:0:0:0:0:
64,192,89805,128,0,89875:0:0:0:0:
320,192,89875,128,0,89944:0:0:0:0:
448,192,89944,128,0,90013:0:0:0:0:
192,192,90013,128,0,90500:0:0:0:0:
320,192,90083,128,0,90708:0:0:0:0:
448,192,90500,128,0,90708:0:0:0:0:
192,192,90708,128,0,90812:0:0:0:0:
64,192,90708,128,0,90812:0:0:0:0:
320,192,91125,1,0,0:0:0:0:
448,192,91125,1,0,0:0:0:0:
192,192,91333,1,0,0:0:0:0:
64,192,91437,1,0,0:0:0:0:
320,192,91541,1,0,0:0:0:0:
192,192,91541,128,0,91750:0:0:0:0:
64,192,91750,128,0,93416:0:0:0:0:
320,192,91750,128,0,92166:0:0:0:0:
448,192,91750,1,0,0:0:0:0:
448,192,92166,1,0,0:0:0:0:
192,192,92166,128,0,92270:0:0:0:0:
192,192,92375,128,0,92791:0:0:0:0:
448,192,92583,1,0,0:0:0:0:
320,192,92791,128,0,93208:0:0:0:0:
448,192,93000,1,0,0:0:0:0:
192,192,93208,1,0,0:0:0:0:
192,192,93416,128,0,93451:0:0:0:0:
320,192,93416,128,0,93451:0:0:0:0:
448,192,93416,128,0,93451:0:0:0:0:
192,192,93625,128,0,93694:0:0:0:0:
320,192,93625,128,0,93694:0:0:0:0:
448,192,93625,128,0,93694:0:0:0:0:
192,192,93833,128,0,93902:0:0:0:0:
320,192,93833,128,0,93902:0:0:0:0:
448,192,93833,128,0,93902:0:0:0:0:
192,192,94041,128,0,94145:0:0:0:0:
320,192,94041,128,0,94145:0:0:0:0:
448,192,94041,128,0,94145:0:0:0:0:
64,192,94458,128,0,94666:0:0:0:0:
448,192,94458,128,0,94562:0:0:0:0:
320,192,94458,1,0,0:0:0:0:
192,192,94562,128,0,94770:0:0:0:0:
320,192,94666,128,0,94770:0:0:0:0:
448,192,94770,128,0,94875:0:0:0:0:
64,192,94770,128,0,94979:0:0:0:0:
320,192,94875,128,0,94979:0:0:0:0:
192,192,94875,128,0,94979:0:0:0:0:
448,192,94979,128,0,95604:0:0:0:0:
64,192,95083,128,0,95604:0:0:0:0:
192,192,95083,128,0,95395:0:0:0:0:
320,192,95083,1,0,0:0:0:0:
320,192,95291,1,0,0:0:0:0:
192,192,95500,1,0,0:0:0:0:
64,192,95708,1,0,0:0:0:0:
320,192,95708,128,0,96229:0:0:0:0:
448,192,95708,128,0,96437:0:0:0:0:
64,192,95916,1,0,0:0:0:0:
192,192,96125,1,0,0:0:0:0:
320,192,96333,1,0,0:0:0:0:
64,192,96541,1,0,0:0:0:0:
320,192,96541,128,0,97166:0:0:0:0:
448,192,96541,1,0,0:0:0:0:
192,192,96750,128,0,97166:0:0:0:0:
448,192,96958,1,0,0:0:0:0:
64,192,97166,1,0,0:0:0:0:
192,192,97375,128,0,97583:0:0:0:0:
64,192,97375,128,0,97791:0:0:0:0:
448,192,97583,1,0,0:0:0:0:
320,192,97791,128,0,98000:0:0:0:0:
192,192,98000,128,0,98208:0:0:0:0:
448,192,98000,1,0,0:0:0:0:
320,192,98208,1,0,0:0:0:0:
64,192,98208,128,0,98416:0:0:0:0:
448,192,98416,128,0,98625:0:0:0:0:
192,192,98416,1,0,0:0:0:0:
320,192,98833,1,0,0:0:0:0:
448,192,98833,1,0,0:0:0:0:
192,192,98833,1,0,0:0:0:0:
64,192,99041,128,0,99250:0:0:0:0:
320,192,99250,128,0,99458:0:0:0:0:
192,192,99250,1,0,0:0:0:0:
64,192,99666,1,0,0:0:0:0:
192,192,99666,1,0,0:0:0:0:
320,192,99666,1,0,0:0:0:0:
448,192,99875,128,0,100083:0:0:0:0:
192,192,100083,128,0,100500:0:0:0:0:
320,192,100083,1,0,0:0:0:0:
64,192,100291,1,0,0:0:0:0:
448,192,100500,1,0,0:0:0:0:
320,192,100500,128,0,100708:0:0:0:0:
192,192,100708,128,0,100916:0:0:0:0:
64,192,100708,1,0,0:0:0:0:
64,192,100916,1,0,0:0:0:0:
320,192,100916,128,0,101020:0:0:0:0:
192,192,101125,1,0,0:0:0:0:
320,192,101125,128,0,101229:0:0:0:0:
320,192,101333,128,0,101541:0:0:0:0:
448,192,101333,1,0,0:0:0:0:
64,192,101333,1,0,0:0:0:0:
192,192,101750,1,0,0:0:0:0:
320,192,101750,128,0,102062:0:0:0:0:
448,192,101750,128,0,102270:0:0:0:0:
64,192,101750,128,0,102270:0:0:0:0:
192,192,101958,1,0,0:0:0:0:
320,192,102166,1,0,0:0:0:0:
448,192,102375,1,0,0:0:0:0:
64,192,102375,128,0,103104:0:0:0:0:
192,192,102375,128,0,102895:0:0:0:0:
448,192,102583,1,0,0:0:0:0:
320,192,102791,1,0,0:0:0:0:
192,192,103000,1,0,0:0:0:0:
64,192,103208,1,0,0:0:0:0:
320,192,103208,128,0,103833:0:0:0:0:
448,192,103416,1,0,0:0:0:0:
192,192,103625,1,0,0:0:0:0:
192,192,103833,1,0,0:0:0:0:
64,192,103833,1,0,0:0:0:0:
448,192,103833,1,0,0:0:0:0:
192,192,104076,128,0,104666:0:0:0:0:
64,192,104250,1,0,0:0:0:0:
448,192,104458,128,0,104666:0:0:0:0:
320,192,104666,128,0,104875:0:0:0:0:
192,192,104875,128,0,105083:0:0:0:0:
64,192,105083,128,0,105291:0:0:0:0:
448,192,105083,1,0,0:0:0:0:
320,192,105083,1,0,0:0:0:0:
192,192,105500,1,0,0:0:0:0:
320,192,105500,1,0,0:0:0:0:
448,192,105708,128,0,105916:0:0:0:0:
192,192,105916,1,0,0:0:0:0:
64,192,105916,1,0,0:0:0:0:
320,192,105916,128,0,106125:0:0:0:0:
64,192,106333,1,0,0:0:0:0:
448,192,106333,1,0,0:0:0:0:
320,192,106541,1,0,0:0:0:0:
192,192,106541,128,0,106750:0:0:0:0:
320,192,106750,128,0,107166:0:0:0:0:
192,192,106958,1,0,0:0:0:0:
448,192,107166,1,0,0:0:0:0:
64,192,107166,1,0,0:0:0:0:
192,192,107166,1,0,0:0:0:0:
448,192,107375,128,0,107583:0:0:0:0:
64,192,107375,128,0,107583:0:0:0:0:
192,192,107375,128,0,107583:0:0:0:0:
448,192,107791,1,0,0:0:0:0:
64,192,107895,1,0,0:0:0:0:
320,192,108000,1,0,0:0:0:0:
448,192,108000,1,0,0:0:0:0:
192,192,108104,1,0,0:0:0:0:
64,192,108208,1,0,0:0:0:0:
320,192,108312,1,0,0:0:0:0:
192,192,108416,128,0,108520:0:0:0:0:
448,192,108416,128,0,108520:0:0:0:0:
320,192,108833,128,0,109111:0:0:0:0:
64,192,108833,128,0,109111:0:0:0:0:
192,192,109145,128,0,109215:0:0:0:0:
448,192,109145,128,0,109215:0:0:0:0:
320,192,109354,1,0,0:0:0:0:
192,192,109458,1,0,0:0:0:0:
64,192,109562,1,0,0:0:0:0:
448,192,109562,1,0,0:0:0:0:
320,192,109666,1,0,0:0:0:0:
192,192,109770,1,0,0:0:0:0:
320,192,109875,1,0,0:0:0:0:
64,192,109979,1,0,0:0:0:0:
192,192,110083,128,0,110152:0:0:0:0:
448,192,110083,128,0,110152:0:0:0:0:
320,192,110187,1,0,0:0:0:0:
192,192,110291,1,0,0:0:0:0:
448,192,110395,128,0,110465:0:0:0:0:
64,192,110395,128,0,110465:0:0:0:0:
64,192,110604,128,0,110673:0:0:0:0:
448,192,110604,128,0,110673:0:0:0:0:
64,192,110812,128,0,110881:0:0:0:0:
448,192,110812,128,0,110881:0:0:0:0:
320,192,111020,1,0,0:0:0:0:
448,192,111090,1,0,0:0:0:0:
192,192,111159,1,0,0:0:0:0:
320,192,111229,1,0,0:0:0:0:
192,192,111333,128,0,111437:0:0:0:0:
64,192,111541,1,0,0:0:0:0:
192,192,111645,1,0,0:0:0:0:
320,192,111750,1,0,0:0:0:0:
448,192,111750,1,0,0:0:0:0:
320,192,111854,128,0,111923:0:0:0:0:
448,192,111854,128,0,111923:0:0:0:0:
192,192,112062,128,0,112444:0:0:0:0:
64,192,112062,128,0,112444:0:0:0:0:
320,192,112479,128,0,112548:0:0:0:0:
448,192,112479,128,0,112548:0:0:0:0:
192,192,112722,1,0,0:0:0:0:
320,192,112791,1,0,0:0:0:0:
448,192,112861,1,0,0:0:0:0:
192,192,112907,1,0,0:0:0:0:
320,192,112965,1,0,0:0:0:0:
192,192,113034,1,0,0:0:0:0:
64,192,113104,1,0,0:0:0:0:
192,192,113208,1,0,0:0:0:0:
320,192,113312,1,0,0:0:0:0:
64,192,113416,128,0,113520:0:0:0:0:
448,192,113416,128,0,113729:0:0:0:0:
64,192,113625,128,0,114250:0:0:0:0:
448,192,113833,128,0,114250:0:0:0:0:
192,192,114041,128,0,114666:0:0:0:0:
320,192,114041,128,0,114354:0:0:0:0:
320,192,114458,1,0,0:0:0:0:
448,192,114666,1,0,0:0:0:0:
64,192,114666,1,0,0:0:0:0:
320,192,114770,1,0,0:0:0:0:
192,192,114875,128,0,114979:0:0:0:0:
320,192,114979,128,0,115083:0:0:0:0:
192,192,115083,1,0,0:0:0:0:
64,192,115083,128,0,115187:0:0:0:0:
448,192,115152,1,0,0:0:0:0:
320,192,115222,1,0,0:0:0:0:
192,192,115291,1,0,0:0:0:0:
64,192,115395,1,0,0:0:0:0:
320,192,115500,1,0,0:0:0:0:
64,192,115604,1,0,0:0:0:0:
192,192,115708,1,0,0:0:0:0:
448,192,115812,1,0,0:0:0:0:
320,192,115916,1,0,0:0:0:0:
448,192,116020,1,0,0:0:0:0:
192,192,116125,1,0,0:0:0:0:
64,192,116229,1,0,0:0:0:0:
320,192,116333,1,0,0:0:0:0:
192,192,116437,1,0,0:0:0:0:
320,192,116541,1,0,0:0:0:0:
448,192,116645,1,0,0:0:0:0:
320,192,116750,1,0,0:0:0:0:
64,192,116750,1,0,0:0:0:0:
192,192,116854,1,0,0:0:0:0:
320,192,117062,1,0,0:0:0:0:
448,192,117062,1,0,0:0:0:0:
192,192,117270,128,0,117375:0:0:0:0:
320,192,117479,128,0,117583:0:0:0:0:
448,192,117687,128,0,117791:0:0:0:0:
320,192,117895,128,0,118000:0:0:0:0:
192,192,118000,128,0,118104:0:0:0:0:
64,192,118208,128,0,118312:0:0:0:0:
64,192,118416,1,0,0:0:0:0:
448,192,118416,128,0,118520:0:0:0:0:
192,192,118625,128,0,118729:0:0:0:0:
320,192,118729,128,0,118833:0:0:0:0:
64,192,118937,128,0,119041:0:0:0:0:
192,192,119145,128,0,119250:0:0:0:0:
448,192,119354,128,0,119458:0:0:0:0:
320,192,119562,128,0,119666:0:0:0:0:
448,192,119666,128,0,119875:0:0:0:0:
192,192,120083,1,0,0:0:0:0:
64,192,120152,1,0,0:0:0:0:
192,192,120222,1,0,0:0:0:0:
320,192,120291,1,0,0:0:0:0:
448,192,120361,1,0,0:0:0:0:
320,192,120430,1,0,0:0:0:0:
448,192,120500,1,0,0:0:0:0:
64,192,120569,1,0,0:0:0:0:
192,192,120638,1,0,0:0:0:0:
320,192,120708,1,0,0:0:0:0:
448,192,120777,1,0,0:0:0:0:
320,192,120847,1,0,0:0:0:0:
192,192,120916,1,0,0:0:0:0:
64,192,120986,1,0,0:0:0:0:
320,192,121055,1,0,0:0:0:0:
448,192,121125,1,0,0:0:0:0:
192,192,121194,1,0,0:0:0:0:
64,192,121263,1,0,0:0:0:0:
448,192,121333,1,0,0:0:0:0:
192,192,121402,1,0,0:0:0:0:
320,192,121472,1,0,0:0:0:0:
448,192,121541,1,0,0:0:0:0:
192,192,121593,1,0,0:0:0:0:
320,192,121657,1,0,0:0:0:0:
192,192,121703,1,0,0:0:0:0:
64,192,121750,1,0,0:0:0:0:
448,192,122166,128,0,122270:0:0:0:0:
64,192,122166,128,0,122270:0:0:0:0:
320,192,122270,128,0,122375:0:0:0:0:
192,192,122375,128,0,123208:0:0:0:0:
320,192,122791,1,0,0:0:0:0:
64,192,123000,1,0,0:0:0:0:
448,192,123000,1,0,0:0:0:0:
320,192,123208,1,0,0:0:0:0:
192,192,123416,1,0,0:0:0:0:
64,192,123625,128,0,123729:0:0:0:0:
320,192,123729,128,0,123833:0:0:0:0:
448,192,123833,128,0,123937:0:0:0:0:
192,192,123833,128,0,123937:0:0:0:0:
64,192,123937,128,0,124041:0:0:0:0:
320,192,123937,128,0,124041:0:0:0:0:
192,192,124041,128,0,124145:0:0:0:0:
64,192,124145,128,0,124250:0:0:0:0:
320,192,124250,128,0,124354:0:0:0:0:
192,192,124354,128,0,124458:0:0:0:0:
448,192,124458,128,0,124666:0:0:0:0:
320,192,124458,128,0,124562:0:0:0:0:
192,192,124666,128,0,124770:0:0:0:0:
64,192,124666,1,0,0:0:0:0:
320,192,124770,128,0,124875:0:0:0:0:
192,192,124875,128,0,124979:0:0:0:0:
64,192,125083,128,0,125187:0:0:0:0:
448,192,125083,128,0,125187:0:0:0:0:
320,192,125187,128,0,125291:0:0:0:0:
192,192,125291,128,0,125395:0:0:0:0:
192,192,125500,128,0,125604:0:0:0:0:
64,192,125500,1,0,0:0:0:0:
320,192,125604,128,0,125708:0:0:0:0:
192,192,125708,128,0,125812:0:0:0:0:
320,192,125812,128,0,125916:0:0:0:0:
448,192,125916,128,0,126020:0:0:0:0:
192,192,126125,128,0,126229:0:0:0:0:
64,192,126229,128,0,126333:0:0:0:0:
192,192,126333,128,0,126368:0:0:0:0:
448,192,126368,128,0,126402:0:0:0:0:
64,192,126402,128,0,126437:0:0:0:0:
320,192,126437,128,0,126541:0:0:0:0:
192,192,126541,128,0,126645:0:0:0:0:
320,192,126645,128,0,126750:0:0:0:0:
64,192,126750,128,0,127062:0:0:0:0:
448,192,126750,128,0,127062:0:0:0:0:
192,192,127166,128,0,127270:0:0:0:0:
320,192,127166,128,0,127270:0:0:0:0:
448,192,127270,128,0,127375:0:0:0:0:
64,192,127375,128,0,127479:0:0:0:0:
192,192,127375,128,0,127479:0:0:0:0:
320,192,127479,128,0,127583:0:0:0:0:
448,192,127583,128,0,127791:0:0:0:0:
320,192,127791,128,0,128000:0:0:0:0:
192,192,127791,128,0,128312:0:0:0:0:
448,192,128000,128,0,128312:0:0:0:0:
64,192,128000,128,0,128312:0:0:0:0:
448,192,128416,1,0,0:0:0:0:
320,192,128416,128,0,128520:0:0:0:0:
192,192,128416,128,0,128729:0:0:0:0:
64,192,128416,128,0,128937:0:0:0:0:
320,192,128625,1,0,0:0:0:0:
192,192,128833,1,0,0:0:0:0:
192,192,129041,128,0,129458:0:0:0:0:
320,192,129041,128,0,129666:0:0:0:0:
448,192,129041,128,0,129875:0:0:0:0:
64,192,129041,128,0,129458:0:0:0:0:
64,192,129666,1,0,0:0:0:0:
192,192,129666,1,0,0:0:0:0:
320,192,129875,1,0,0:0:0:0:
192,192,130083,128,0,130500:0:0:0:0:
64,192,130083,1,0,0:0:0:0:
448,192,130083,1,0,0:0:0:0:
64,192,130291,1,0,0:0:0:0:
448,192,130291,1,0,0:0:0:0:
320,192,130500,128,0,130708:0:0:0:0:
448,192,130500,1,0,0:0:0:0:
192,192,130708,1,0,0:0:0:0:
64,192,130708,128,0,131645:0:0:0:0:
320,192,131125,1,0,0:0:0:0:
192,192,131333,1,0,0:0:0:0:
320,192,131333,1,0,0:0:0:0:
448,192,131541,1,0,0:0:0:0:
320,192,131750,128,0,132062:0:0:0:0:
192,192,131750,1,0,0:0:0:0:
192,192,131958,1,0,0:0:0:0:
448,192,132166,128,0,132270:0:0:0:0:
64,192,132166,1,0,0:0:0:0:
320,192,132166,1,0,0:0:0:0:
448,192,132375,128,0,132652:0:0:0:0:
64,192,132375,1,0,0:0:0:0:
320,192,132791,128,0,132861:0:0:0:0:
448,192,132861,128,0,132930:0:0:0:0:
192,192,132930,128,0,133000:0:0:0:0:
64,192,133000,128,0,133208:0:0:0:0:
320,192,133208,128,0,133486:0:0:0:0:
192,192,133208,128,0,133312:0:0:0:0:
448,192,133312,128,0,133486:0:0:0:0:
64,192,133416,128,0,133486:0:0:0:0:
192,192,133416,128,0,133486:0:0:0:0:
64,192,133625,128,0,133694:0:0:0:0:
192,192,133625,128,0,133694:0:0:0:0:
320,192,133625,128,0,133694:0:0:0:0:
448,192,133625,128,0,133694:0:0:0:0:
64,192,133833,128,0,133925:0:0:0:0:
192,192,133833,128,0,133925:0:0:0:0:
320,192,133833,128,0,133925:0:0:0:0:
448,192,133833,128,0,133925:0:0:0:0:
64,192,134041,128,0,134145:0:0:0:0:
192,192,134041,128,0,134145:0:0:0:0:
320,192,134041,128,0,134145:0:0:0:0:
448,192,134041,128,0,134145:0:0:0:0:
448,192,135187,128,0,135708:0:0:0:0:
320,192,135708,128,0,135777:0:0:0:0:
192,192,135777,128,0,136750:0:0:0:0:
64,192,135916,128,0,136541:0:0:0:0:
64,192,136750,128,0,136958:0:0:0:0:
192,192,136958,128,0,137166:0:0:0:0:
448,192,137166,128,0,137375:0:0:0:0:
320,192,137375,128,0,138208:0:0:0:0:
192,192,138625,128,0,139458:0:0:0:0:
64,192,139458,128,0,139666:0:0:0:0:
192,192,139666,128,0,139875:0:0:0:0:
320,192,139875,128,0,140291:0:0:0:0:
448,192,140291,128,0,140500:0:0:0:0:
320,192,140708,128,0,140777:0:0:0:0:
448,192,140777,128,0,140916:0:0:0:0:
320,192,140916,128,0,141125:0:0:0:0:
192,192,141125,128,0,141229:0:0:0:0:
320,192,141229,128,0,141333:0:0:0:0:
192,192,141333,128,0,141402:0:0:0:0:
64,192,141402,128,0,141472:0:0:0:0:
192,192,141472,128,0,141541:0:0:0:0:
320,192,141541,128,0,141611:0:0:0:0:
192,192,141611,128,0,141680:0:0:0:0:
320,192,141680,128,0,141750:0:0:0:0:
448,192,141750,128,0,142270:0:0:0:0:
64,192,141750,128,0,142375:0:0:0:0:
320,192,142375,128,0,142444:0:0:0:0:
448,192,142375,128,0,143416:0:0:0:0:
192,192,142444,128,0,143208:0:0:0:0:
64,192,142583,128,0,143000:0:0:0:0:
64,192,143416,128,0,143486:0:0:0:0:
320,192,143416,128,0,143486:0:0:0:0:
320,192,143625,128,0,143694:0:0:0:0:
448,192,143625,128,0,143694:0:0:0:0:
320,192,143833,128,0,143902:0:0:0:0:
448,192,143833,128,0,143902:0:0:0:0:
192,192,144041,128,0,144458:0:0:0:0:
64,192,144041,128,0,144458:0:0:0:0:
320,192,144458,128,0,144666:0:0:0:0:
448,192,144458,128,0,144875:0:0:0:0:
192,192,144666,128,0,144875:0:0:0:0:
64,192,144875,128,0,144979:0:0:0:0:
64,192,145083,128,0,145500:0:0:0:0:
320,192,145083,128,0,145187:0:0:0:0:
192,192,145187,128,0,145291:0:0:0:0:
320,192,145291,1,0,0:0:0:0:
192,192,145500,128,0,145916:0:0:0:0:
448,192,145500,1,0,0:0:0:0:
448,192,145708,1,0,0:0:0:0:
320,192,145916,128,0,146333:0:0:0:0:
64,192,145916,1,0,0:0:0:0:
64,192,146125,1,0,0:0:0:0:
192,192,146333,1,0,0:0:0:0:
192,192,146541,128,0,146611:0:0:0:0:
64,192,146541,1,0,0:0:0:0:
320,192,146541,1,0,0:0:0:0:
448,192,146541,1,0,0:0:0:0:
320,192,146750,128,0,146819:0:0:0:0:
448,192,146750,1,0,0:0:0:0:
64,192,146750,1,0,0:0:0:0:
192,192,146750,1,0,0:0:0:0:
64,192,146958,128,0,147062:0:0:0:0:
320,192,146958,1,0,0:0:0:0:
448,192,146958,1,0,0:0:0:0:
192,192,146958,1,0,0:0:0:0:
448,192,147166,128,0,147270:0:0:0:0:
320,192,147166,1,0,0:0:0:0:
192,192,147166,1,0,0:0:0:0:
64,192,147166,1,0,0:0:0:0:
192,192,147375,128,0,147583:0:0:0:0:
320,192,147375,128,0,147583:0:0:0:0:
64,192,147375,1,0,0:0:0:0:
448,192,147375,1,0,0:0:0:0:
320,192,147791,1,0,0:0:0:0:
448,192,147791,1,0,0:0:0:0:
64,192,147791,128,0,147895:0:0:0:0:
192,192,147895,128,0,148000:0:0:0:0:
320,192,148000,1,0,0:0:0:0:
448,192,148000,128,0,148104:0:0:0:0:
64,192,148104,128,0,148208:0:0:0:0:
320,192,148208,128,0,148312:0:0:0:0:
192,192,148208,128,0,148312:0:0:0:0:
448,192,148312,128,0,148833:0:0:0:0:
64,192,148416,128,0,148729:0:0:0:0:
192,192,148416,128,0,148729:0:0:0:0:
320,192,148416,128,0,148833:0:0:0:0:
64,192,148833,1,0,0:0:0:0:
192,192,148833,1,0,0:0:0:0:
64,192,149041,128,0,149666:0:0:0:0:
448,192,149041,128,0,149354:0:0:0:0:
192,192,149041,128,0,149666:0:0:0:0:
320,192,149041,128,0,149354:0:0:0:0:
448,192,149458,128,0,149875:0:0:0:0:
320,192,149666,1,0,0:0:0:0:
192,192,149875,128,0,150291:0:0:0:0:
448,192,150083,1,0,0:0:0:0:
64,192,150083,1,0,0:0:0:0:
320,192,150291,128,0,150708:0:0:0:0:
192,192,150500,128,0,150708:0:0:0:0:
448,192,150708,128,0,151020:0:0:0:0:
64,192,150708,128,0,151333:0:0:0:0:
320,192,150916,1,0,0:0:0:0:
448,192,151125,128,0,151333:0:0:0:0:
192,192,151125,1,0,0:0:0:0:
320,192,151333,128,0,151541:0:0:0:0:
192,192,151541,128,0,151750:0:0:0:0:
64,192,151750,128,0,152166:0:0:0:0:
448,192,151750,128,0,152062:0:0:0:0:
320,192,151958,128,0,151993:0:0:0:0:
192,192,152166,128,0,152201:0:0:0:0:
448,192,152166,128,0,152201:0:0:0:0:
320,192,152375,128,0,152583:0:0:0:0:
64,192,152583,128,0,152895:0:0:0:0:
448,192,152583,128,0,153000:0:0:0:0:
192,192,152791,128,0,152826:0:0:0:0:
320,192,153000,128,0,153034:0:0:0:0:
64,192,153000,128,0,153034:0:0:0:0:
64,192,153208,128,0,153416:0:0:0:0:
448,192,153416,128,0,153833:0:0:0:0:
192,192,153416,128,0,153451:0:0:0:0:
320,192,153416,128,0,153833:0:0:0:0:
64,192,153625,128,0,153659:0:0:0:0:
64,192,153833,128,0,154041:0:0:0:0:
192,192,153833,128,0,153868:0:0:0:0:
448,192,154041,128,0,154076:0:0:0:0:
320,192,154041,128,0,154145:0:0:0:0:
64,192,154250,1,0,0:0:0:0:
192,192,154250,128,0,154319:0:0:0:0:
448,192,154250,1,0,0:0:0:0:
448,192,154458,128,0,154527:0:0:0:0:
320,192,154458,1,0,0:0:0:0:
64,192,154458,128,0,154562:0:0:0:0:
448,192,154666,128,0,154875:0:0:0:0:
320,192,154666,128,0,154736:0:0:0:0:
64,192,154666,128,0,154875:0:0:0:0:
448,192,155083,128,0,155361:0:0:0:0:
192,192,155083,128,0,155361:0:0:0:0:
64,192,155083,128,0,155361:0:0:0:0:
320,192,155083,128,0,155361:0:0:0:0:
320,192,155500,1,0,0:0:0:0:
192,192,155500,1,0,0:0:0:0:
64,192,155708,128,0,156020:0:0:0:0:
320,192,155708,128,0,156229:0:0:0:0:
448,192,155708,128,0,156229:0:0:0:0:
192,192,155708,128,0,156229:0:0:0:0:
64,192,156125,128,0,156437:0:0:0:0:
448,192,156333,1,0,0:0:0:0:
320,192,156333,1,0,0:0:0:0:
320,192,156541,128,0,156958:0:0:0:0:
192,192,156541,128,0,156958:0:0:0:0:
448,192,156750,1,0,0:0:0:0:
64,192,156958,1,0,0:0:0:0:
448,192,157166,128,0,157375:0:0:0:0:
192,192,157375,1,0,0:0:0:0:
64,192,157375,128,0,157583:0:0:0:0:
320,192,157375,128,0,157791:0:0:0:0:
448,192,157583,1,0,0:0:0:0:
64,192,157791,1,0,0:0:0:0:
192,192,157791,1,0,0:0:0:0:
448,192,158000,128,0,158208:0:0:0:0:
64,192,158000,1,0,0:0:0:0:
320,192,158208,128,0,158416:0:0:0:0:
192,192,158416,128,0,158833:0:0:0:0:
448,192,158416,128,0,158729:0:0:0:0:
64,192,158625,128,0,158659:0:0:0:0:
320,192,158833,128,0,158868:0:0:0:0:
448,192,158833,128,0,158868:0:0:0:0:
192,192,159041,128,0,159250:0:0:0:0:
320,192,159250,128,0,159666:0:0:0:0:
64,192,159250,128,0,159562:0:0:0:0:
448,192,159458,128,0,159493:0:0:0:0:
192,192,159666,128,0,159701:0:0:0:0:
64,192,159666,128,0,159701:0:0:0:0:
320,192,159875,128,0,160083:0:0:0:0:
448,192,160083,128,0,160395:0:0:0:0:
192,192,160083,128,0,160118:0:0:0:0:
192,192,160291,128,0,160361:0:0:0:0:
64,192,160291,128,0,160361:0:0:0:0:
448,192,160500,128,0,160569:0:0:0:0:
192,192,160500,128,0,160569:0:0:0:0:
64,192,160500,128,0,160569:0:0:0:0:
64,192,160708,128,0,161125:0:0:0:0:
192,192,160708,128,0,161125:0:0:0:0:
448,192,160708,128,0,161125:0:0:0:0:
320,192,161125,1,0,0:0:0:0:
192,192,161333,1,0,0:0:0:0:
320,192,161333,1,0,0:0:0:0:
192,192,161541,1,0,0:0:0:0:
448,192,161750,128,0,161854:0:0:0:0:
320,192,161750,128,0,161854:0:0:0:0:
64,192,161958,128,0,162062:0:0:0:0:
192,192,162062,128,0,162166:0:0:0:0:
320,192,162166,128,0,162270:0:0:0:0:
192,192,162375,128,0,162479:0:0:0:0:
448,192,162583,128,0,163416:0:0:0:0:
64,192,162583,128,0,163000:0:0:0:0:
192,192,162791,1,0,0:0:0:0:
320,192,163000,128,0,163416:0:0:0:0:
64,192,163208,1,0,0:0:0:0:
192,192,163416,128,0,163520:0:0:0:0:
320,192,163520,128,0,163625:0:0:0:0:
192,192,163625,128,0,164145:0:0:0:0:
448,192,163833,128,0,164145:0:0:0:0:
320,192,164041,128,0,164145:0:0:0:0:
64,192,164250,128,0,164666:0:0:0:0:
448,192,164458,1,0,0:0:0:0:
320,192,164666,1,0,0:0:0:0:
192,192,164875,128,0,164979:0:0:0:0:
320,192,164979,128,0,165083:0:0:0:0:
64,192,165083,1,0,0:0:0:0:
448,192,165083,128,0,165291:0:0:0:0:
192,192,165291,128,0,165361:0:0:0:0:
320,192,165361,128,0,165430:0:0:0:0:
64,192,165430,128,0,165500:0:0:0:0:
448,192,165500,128,0,165708:0:0:0:0:
320,192,165708,128,0,165916:0:0:0:0:
192,192,165916,128,0,166125:0:0:0:0:
448,192,165916,128,0,166125:0:0:0:0:
64,192,166125,128,0,166333:0:0:0:0:
320,192,166125,128,0,166333:0:0:0:0:
192,192,166333,128,0,166437:0:0:0:0:
448,192,166333,128,0,166437:0:0:0:0:
320,192,166541,128,0,166645:0:0:0:0:
448,192,166750,128,0,166958:0:0:0:0:
64,192,166750,1,0,0:0:0:0:
320,192,166958,128,0,167027:0:0:0:0:
448,192,167027,128,0,167097:0:0:0:0:
192,192,167097,128,0,167166:0:0:0:0:
64,192,167166,128,0,167375:0:0:0:0:
448,192,167375,128,0,167583:0:0:0:0:
64,192,167583,1,0,0:0:0:0:
320,192,167583,128,0,167687:0:0:0:0:
448,192,167791,1,0,0:0:0:0:
64,192,167791,128,0,167895:0:0:0:0:
448,192,168000,128,0,168416:0:0:0:0:
192,192,168000,1,0,0:0:0:0:
64,192,168416,128,0,169250:0:0:0:0:
320,192,168416,1,0,0:0:0:0:
192,192,168625,1,0,0:0:0:0:
320,192,168729,1,0,0:0:0:0:
448,192,168833,128,0,168937:0:0:0:0:
320,192,169041,128,0,169145:0:0:0:0:
448,192,169250,128,0,169666:0:0:0:0:
192,192,169250,128,0,170083:0:0:0:0:
320,192,169458,1,0,0:0:0:0:
64,192,169666,128,0,169875:0:0:0:0:
448,192,169875,1,0,0:0:0:0:
320,192,170083,128,0,170916:0:0:0:0:
64,192,170083,128,0,170187:0:0:0:0:
448,192,170187,128,0,170291:0:0:0:0:
64,192,170291,128,0,170500:0:0:0:0:
448,192,170500,1,0,0:0:0:0:
192,192,170708,1,0,0:0:0:0:
64,192,170916,128,0,171333:0:0:0:0:
448,192,170916,128,0,171541:0:0:0:0:
320,192,171125,1,0,0:0:0:0:
192,192,171333,1,0,0:0:0:0:
64,192,171541,1,0,0:0:0:0:
192,192,171645,1,0,0:0:0:0:
320,192,171750,128,0,171958:0:0:0:0:
192,192,171958,128,0,172027:0:0:0:0:
64,192,172027,128,0,172097:0:0:0:0:
448,192,172097,128,0,172166:0:0:0:0:
320,192,172166,128,0,172375:0:0:0:0:
192,192,172375,128,0,172583:0:0:0:0:
320,192,172583,1,0,0:0:0:0:
448,192,172583,128,0,172687:0:0:0:0:
64,192,172583,128,0,172687:0:0:0:0:
192,192,172791,128,0,172895:0:0:0:0:
320,192,173000,128,0,173104:0:0:0:0:
448,192,173000,128,0,173104:0:0:0:0:
192,192,173208,128,0,173312:0:0:0:0:
320,192,173416,128,0,173625:0:0:0:0:
64,192,173416,128,0,174041:0:0:0:0:
448,192,173625,128,0,173694:0:0:0:0:
320,192,173694,128,0,173763:0:0:0:0:
192,192,173763,128,0,173833:0:0:0:0:
320,192,173833,128,0,174041:0:0:0:0:
192,192,174041,128,0,174111:0:0:0:0:
320,192,174111,128,0,174180:0:0:0:0:
448,192,174180,128,0,174250:0:0:0:0:
192,192,174250,128,0,174319:0:0:0:0:
64,192,174250,128,0,174319:0:0:0:0:
320,192,174458,128,0,174493:0:0:0:0:
192,192,174458,128,0,174493:0:0:0:0:
64,192,174458,128,0,174493:0:0:0:0:
192,192,174666,1,0,0:0:0:0:
448,192,174666,1,0,0:0:0:0:
64,192,174666,1,0,0:0:0:0:
320,192,174770,1,0,0:0:0:0:
192,192,174875,128,0,175083:0:0:0:0:
64,192,175083,1,0,0:0:0:0:
448,192,175083,1,0,0:0:0:0:
320,192,175083,1,0,0:0:0:0:
192,192,175812,128,0,175968:0:0:0:0:
320,192,175864,128,0,175968:0:0:0:0:
64,192,175916,128,0,175968:0:0:0:0:
448,192,175916,128,0,175968:0:0:0:0:
