osu file format v14

[General]
AudioFilename: audio.mp3
AudioLeadIn: 0
PreviewTime: 172397
Countdown: 0
SampleSet: Normal
StackLeniency: 0.7
Mode: 0
LetterboxInBreaks: 0
WidescreenStoryboard: 0

[Editor]
Bookmarks: 45079,46973,47605,57710,59447,67816,70342,73183,91964,99748,106234,107532,111261,117910,123099,163964,164613,185370,195748,206126,216505,222991,254126,263207,289153,291748,300829,376072,396829,402018,407207,412397,417586,427964,443532,472072,490234,495424,518775,521370,523964,531748,542126,548613,592488,598589,600089
DistanceSpacing: 0.3
BeatDivisor: 4
GridSize: 4
TimelineZoom: 1.9

[Metadata]
Title:Upon My Honor
TitleUnicode:Upon My Honor
Artist:Whispered
ArtistUnicode:Whispered
Creator:MrKosiej
Version:For Glory
Source:
Tags:melodical death power metal japanese Samurai Bushido Finland Shogunate Macabre
BeatmapID:1397930
BeatmapSetID:660156

[Difficulty]
HPDrainRate:6
CircleSize:4.2
OverallDifficulty:8.8
ApproachRate:9.6
SliderMultiplier:2
SliderTickRate:1

[Events]
//Background and Video events
0,0,"23574.jpg",0,0
//Break Periods
2,73305,79780
2,266002,268536
2,438542,443022
//Storyboard Layer 0 (Background)
//Storyboard Layer 1 (Fail)
//Storyboard Layer 2 (Pass)
//Storyboard Layer 3 (Foreground)
//Storyboard Sound Samples

[TimingPoints]
238,315.789473684211,4,1,1,25,1,0
316,-100,4,1,1,5,0,0
1501,-100,4,1,1,50,0,0
1816,-133.333333333333,4,1,1,25,0,0
11606,-125,4,1,1,25,0,0
21711,631.578947368421,4,1,1,25,1,0
21868,-100,4,1,1,5,0,0
23891,631.578947368421,4,1,1,25,1,0
24522,-100,4,1,1,5,0,0
24665,631.578947368421,4,1,1,25,1,0
24822,-100,4,1,1,5,0,0
27395,315.789473684211,4,1,1,35,1,0
29131,-90.9090909090909,4,1,1,40,0,0
29447,-100,4,1,1,35,0,0
29921,-125,4,1,1,30,0,0
32447,-100,4,1,1,35,0,0
34184,-90.9090909090909,4,1,1,40,0,0
34500,-100,4,1,1,35,0,0
34973,-125,4,1,1,30,0,0
37500,-100,4,1,1,35,0,0
39237,-90.9090909090909,4,1,1,40,0,0
39552,-100,4,1,1,35,0,0
40026,-125,4,1,1,30,0,0
42552,-100,4,1,1,35,0,0
44289,-90.9090909090909,4,1,1,40,0,0
44605,-100,4,1,1,35,0,0
70421,-100,4,1,1,5,0,0
71683,-100,4,1,1,5,0,0
73105,-100,4,1,1,20,0,0
80289,324.324324324324,4,1,1,40,1,0
81586,-83.3333333333333,4,1,1,90,0,0
90748,-83.3333333333333,4,1,1,5,0,0
90829,-83.3333333333333,4,1,1,90,0,0
102343,-83.3333333333333,4,1,2,70,0,0
112721,-83.3333333333333,4,1,1,90,0,0
125694,-50,4,1,1,90,0,0
125937,-83.3333333333333,4,1,1,90,0,0
130883,-50,4,1,1,90,0,0
131126,-83.3333333333333,4,1,1,90,0,0
136316,-83.3333333333333,4,1,1,5,0,0
136397,-83.3333333333333,4,1,1,90,0,0
136640,-83.3333333333333,4,1,1,5,0,0
136721,-83.3333333333333,4,1,1,90,0,0
136964,-83.3333333333333,4,1,1,5,0,0
137045,-83.3333333333333,4,1,1,90,0,0
137288,-83.3333333333333,4,1,1,5,0,0
137370,-83.3333333333333,4,1,1,90,0,0
137613,-83.3333333333333,4,1,1,5,0,0
137694,-83.3333333333333,4,1,1,90,0,0
137937,-83.3333333333333,4,1,1,5,0,0
138018,-83.3333333333333,4,1,1,90,0,0
138261,-83.3333333333333,4,1,1,5,0,0
138343,-83.3333333333333,4,1,1,90,0,0
141261,-83.3333333333333,4,1,2,70,0,0
143856,-83.3333333333333,4,1,1,90,0,0
144099,-83.3333333333333,4,1,1,5,0,0
144180,-83.3333333333333,4,1,1,90,0,0
146694,-83.3333333333333,4,1,1,5,0,0
146775,-83.3333333333333,4,1,1,90,0,0
147180,-83.3333333333333,4,1,1,5,0,0
147261,-83.3333333333333,4,1,1,90,0,0
147829,-83.3333333333333,4,1,1,5,0,0
147910,-83.3333333333333,4,1,1,90,0,0
151883,-83.3333333333333,4,1,1,5,0,0
151964,-83.3333333333333,4,1,1,90,0,0
152370,-83.3333333333333,4,1,1,5,0,0
152451,-83.3333333333333,4,1,1,90,0,0
153018,-83.3333333333333,4,1,1,5,0,0
153099,-83.3333333333333,4,1,1,90,0,0
154478,-83.3333333333333,4,1,1,5,0,0
154559,-83.3333333333333,4,1,1,90,0,0
157072,-83.3333333333333,4,1,1,5,0,0
157153,-83.3333333333333,4,1,1,90,0,0
157559,-83.3333333333333,4,1,1,5,0,0
157640,-83.3333333333333,4,1,1,90,0,0
158207,-83.3333333333333,4,1,1,5,0,0
158288,-83.3333333333333,4,1,1,90,0,0
159667,-83.3333333333333,4,1,1,5,0,0
159748,-83.3333333333333,4,1,1,90,0,0
162261,-83.3333333333333,4,1,1,5,0,0
162343,-83.3333333333333,4,1,1,90,0,0
162748,-83.3333333333333,4,1,1,5,0,0
162829,-83.3333333333333,4,1,1,90,0,0
163397,-83.3333333333333,4,1,1,5,0,0
163478,-83.3333333333333,4,1,1,90,0,0
174991,-100,4,1,1,95,0,1
175234,-100,4,1,1,5,0,1
175316,-100,4,1,1,95,0,1
175559,-100,4,1,1,5,0,1
175640,-100,4,1,1,95,0,1
176532,-100,4,1,1,5,0,1
176613,-100,4,1,1,95,0,1
177829,-100,4,1,1,5,0,1
177910,-100,4,1,1,95,0,1
178153,-100,4,1,1,5,0,1
178234,-100,4,1,1,95,0,1
178802,-100,4,1,1,5,0,1
178883,-100,4,1,1,95,0,1
179126,-100,4,1,1,5,0,1
179207,-100,4,1,1,95,0,1
180424,-100,4,1,1,5,0,1
180505,-100,4,1,1,95,0,1
180748,-100,4,1,1,5,0,1
180829,-100,4,1,1,95,0,1
181397,-100,4,1,1,5,0,1
181478,-100,4,1,1,95,0,1
181721,-100,4,1,1,5,0,1
181802,-100,4,1,1,95,0,1
182370,-100,4,1,1,5,0,1
182451,-100,4,1,1,95,0,1
183018,-100,4,1,1,5,0,1
183099,-100,4,1,1,95,0,1
184316,-100,4,1,1,5,0,1
184397,-100,4,1,1,95,0,1
185613,-100,4,1,1,5,0,1
185694,-100,4,1,1,95,0,1
185937,-100,4,1,1,5,0,1
186018,-100,4,1,1,95,0,1
186910,-100,4,1,1,5,0,1
186991,-100,4,1,1,95,0,1
188207,-100,4,1,1,5,0,1
188288,-100,4,1,1,95,0,1
188532,-100,4,1,1,5,0,1
188613,-100,4,1,1,95,0,1
189180,-100,4,1,1,5,0,1
189261,-100,4,1,1,95,0,1
189505,-100,4,1,1,5,0,1
189586,-100,4,1,1,95,0,1
190802,-100,4,1,1,5,0,1
190883,-100,4,1,1,95,0,1
191126,-100,4,1,1,5,0,1
191207,-100,4,1,1,95,0,1
191775,-100,4,1,1,5,0,1
191856,-100,4,1,1,95,0,1
192099,-100,4,1,1,5,0,1
192180,-100,4,1,1,95,0,1
192748,-100,4,1,1,5,0,1
192829,-100,4,1,1,95,0,1
193397,-100,4,1,1,5,0,1
193478,-100,4,1,1,95,0,1
194856,-100,4,1,1,5,0,1
194937,-100,4,1,1,95,0,1
195991,-100,4,1,1,5,0,1
196072,-100,4,1,1,95,0,1
196316,-100,4,1,1,5,0,1
196397,-100,4,1,1,95,0,1
197288,-100,4,1,1,5,0,1
197370,-100,4,1,1,95,0,1
198586,-100,4,1,1,5,0,1
198667,-100,4,1,1,95,0,1
198910,-100,4,1,1,5,0,1
198991,-100,4,1,1,95,0,1
199559,-100,4,1,1,5,0,1
199640,-100,4,1,1,95,0,1
199883,-100,4,1,1,5,0,1
199964,-100,4,1,1,95,0,1
201180,-100,4,1,1,5,0,1
201261,-100,4,1,1,95,0,1
201505,-100,4,1,1,5,0,1
201586,-100,4,1,1,95,0,1
202153,-100,4,1,1,5,0,1
202234,-100,4,1,1,95,0,1
202478,-100,4,1,1,5,0,1
202559,-100,4,1,1,95,0,1
203126,-100,4,1,1,5,0,1
203207,-100,4,1,1,95,0,1
203775,-100,4,1,1,5,0,1
203856,-100,4,1,1,95,0,1
206370,-100,4,1,1,5,0,1
206451,-100,4,1,1,95,0,1
206694,-100,4,1,1,5,0,1
206775,-100,4,1,1,95,0,1
207667,-100,4,1,1,5,0,1
207748,-100,4,1,1,95,0,1
208964,-100,4,1,1,5,0,1
209045,-100,4,1,1,95,0,1
209937,-100,4,1,1,5,0,1
210018,-100,4,1,1,95,0,1
210261,-100,4,1,1,5,0,1
210343,-100,4,1,1,95,0,1
211559,-100,4,1,1,5,0,1
211640,-100,4,1,1,95,0,1
211883,-100,4,1,1,5,0,1
211964,-100,4,1,1,95,0,1
212532,-100,4,1,1,5,0,1
212613,-100,4,1,1,95,0,1
212856,-100,4,1,1,5,0,1
212937,-100,4,1,1,95,0,1
213505,-100,4,1,1,5,0,1
213586,-100,4,1,1,95,0,1
214153,-100,4,1,1,5,0,1
214234,-100,4,1,1,95,0,1
216748,-100,4,1,1,5,0,1
216829,-100,4,1,1,95,0,1
217397,-100,4,1,1,5,0,1
217478,-100,4,1,1,95,0,1
218045,-100,4,1,1,5,0,1
218126,-100,4,1,1,95,0,1
221694,-100,4,1,1,90,0,0
225586,-50,4,1,1,90,0,0
225829,-100,4,1,1,90,0,0
230775,-50,4,1,1,90,0,0
231018,-100,4,1,1,90,0,0
236207,-100,4,1,1,5,0,0
236288,-100,4,1,1,90,0,0
236532,-100,4,1,1,5,0,0
236613,-100,4,1,1,90,0,0
236856,-100,4,1,1,5,0,0
236937,-100,4,1,1,90,0,0
237180,-100,4,1,1,5,0,0
237261,-100,4,1,1,90,0,0
237505,-100,4,1,1,5,0,0
237586,-100,4,1,1,90,0,0
237829,-100,4,1,1,5,0,0
237910,-100,4,1,1,90,0,0
241153,-100,4,1,2,70,0,0
243748,-100,4,1,1,95,0,1
244640,-100,4,1,1,5,0,1
244721,-100,4,1,1,95,0,1
255667,-100,4,1,1,5,0,1
255748,-100,4,1,1,95,0,1
259559,-100,4,1,1,5,0,1
259640,-100,4,1,1,95,0,1
259964,-66.6666666666667,4,1,1,95,0,1
260613,-100,4,1,1,95,0,1
264505,-100,4,1,1,90,0,0
269694,-100,4,1,1,90,0,0
272207,-100,4,1,1,5,0,0
272288,-100,4,1,1,90,0,0
274316,-100,4,1,1,40,0,0
274397,-100,4,1,1,90,0,0
274478,-100,4,1,1,40,0,0
274559,-100,4,1,1,90,0,0
277397,-100,4,1,1,5,0,0
277478,-100,4,1,1,90,0,0
279099,-100,4,1,1,50,0,0
279261,-100,4,1,1,90,0,0
279424,-100,4,1,1,70,0,0
279586,-100,4,1,1,90,0,0
280072,-100,4,1,1,90,0,0
303424,-133.333333333333,4,1,1,90,0,0
303667,-133.333333333333,4,1,1,5,0,0
303748,-133.333333333333,4,1,1,90,0,0
304964,-133.333333333333,4,1,1,5,0,0
305045,-133.333333333333,4,1,1,90,0,0
306261,-133.333333333333,4,1,1,5,0,0
306343,-133.333333333333,4,1,1,90,0,0
307559,-133.333333333333,4,1,1,5,0,0
307640,-133.333333333333,4,1,1,90,0,0
308856,-133.333333333333,4,1,1,5,0,0
308937,-133.333333333333,4,1,1,90,0,0
311451,-133.333333333333,4,1,1,5,0,0
311532,-133.333333333333,4,1,1,90,0,0
312099,-133.333333333333,4,1,1,5,0,0
312180,-133.333333333333,4,1,1,90,0,0
314045,-133.333333333333,4,1,1,5,0,0
314126,-133.333333333333,4,1,1,90,0,0
316640,-133.333333333333,4,1,1,5,0,0
316721,-133.333333333333,4,1,1,90,0,0
319234,-133.333333333333,4,1,1,5,0,0
319316,-133.333333333333,4,1,1,90,0,0
321829,-133.333333333333,4,1,1,5,0,0
321910,-133.333333333333,4,1,1,90,0,0
322478,-133.333333333333,4,1,1,5,0,0
322559,-133.333333333333,4,1,1,90,0,0
324180,-100,4,1,1,90,0,0
324424,-100,4,1,1,5,0,0
324505,-100,4,1,1,90,0,0
327018,-100,4,1,1,5,0,0
327099,-100,4,1,1,90,0,0
329613,-100,4,1,1,5,0,0
329694,-100,4,1,1,90,0,0
332207,-100,4,1,1,5,0,0
332288,-100,4,1,1,90,0,0
332856,-100,4,1,1,5,0,0
332937,-100,4,1,1,90,0,0
334802,-100,4,1,1,5,0,0
334883,-100,4,1,1,90,0,0
337397,-100,4,1,1,5,0,0
337478,-100,4,1,1,90,0,0
339991,-100,4,1,1,5,0,0
340072,-100,4,1,1,90,0,0
342586,-100,4,1,1,5,0,0
342667,-100,4,1,1,90,0,0
343234,-100,4,1,1,5,0,0
343316,-100,4,1,1,90,0,0
344937,-117.647058823529,4,1,1,90,0,0
365694,-80,4,1,1,90,0,1
386451,-200,4,1,1,30,0,0
386532,-200,4,1,1,5,0,0
387099,-200,4,1,1,30,0,0
387829,-200,4,1,1,5,0,0
388397,-200,4,1,1,30,0,0
389126,-200,4,1,1,5,0,0
389694,-200,4,1,1,30,0,0
417667,-200,4,1,1,5,0,0
419045,-200,4,1,1,30,0,0
419451,-200,4,1,1,5,0,0
419532,-200,4,1,1,30,0,0
419775,-200,4,1,1,5,0,0
419856,-200,4,1,1,30,0,0
420099,-200,4,1,1,5,0,0
420180,-200,4,1,1,30,0,0
420261,-200,4,1,1,5,0,0
421478,-200,4,1,1,30,0,0
421559,-200,4,1,1,5,0,0
422775,279.06976744186,4,1,1,30,1,0
423891,315.789473684211,4,1,1,30,1,0
424838,342.857142857143,4,1,1,30,1,0
425370,324.324324324324,4,1,1,30,1,0
425694,324.324324324324,4,1,1,15,1,0
426667,324.324324324324,4,1,1,30,1,0
426667,-200,4,1,1,30,0,0
428045,-200,4,1,1,5,0,0
429910,-200,4,1,1,30,0,0
429991,-200,4,1,1,5,0,0
430558,-200,4,1,1,30,0,0
430639,-200,4,1,1,5,0,0
431856,-200,4,1,1,30,0,0
431937,-200,4,1,1,5,0,0
432829,-200,4,1,1,30,0,0
433072,-200,4,1,1,5,0,0
433153,-200,4,1,1,30,0,0
438342,-200,4,1,1,60,0,0
443639,-200,4,1,1,5,0,0
444072,-200,4,1,1,60,0,0
444829,-200,4,1,1,30,0,0
445369,-200,4,1,1,5,0,0
445477,-200,4,1,1,30,0,0
445694,-200,4,1,1,5,0,0
445802,-200,4,1,1,30,0,0
446018,-200,4,1,1,5,0,0
446126,-200,4,1,1,30,0,0
446234,-200,4,1,1,5,0,0
447423,-200,4,1,1,30,0,0
448288,-200,4,1,1,5,0,0
448396,-200,4,1,1,30,0,0
448612,-200,4,1,1,5,0,0
448721,-200,4,1,1,30,0,0
448829,-200,4,1,1,5,0,0
450018,-200,4,1,1,30,0,0
450883,-200,4,1,1,5,0,0
450991,-200,4,1,1,30,0,0
451207,-200,4,1,1,5,0,0
451315,-200,4,1,1,30,0,0
451423,-200,4,1,1,5,0,0
452612,-200,4,1,1,30,0,0
453261,-133.333333333333,4,1,1,50,0,0
453477,-133.333333333333,4,1,1,5,0,0
453585,-133.333333333333,4,1,1,50,0,0
453802,-133.333333333333,4,1,1,5,0,0
453910,-200,4,1,1,30,0,0
454018,-200,4,1,1,5,0,0
456342,-200,4,1,1,30,0,0
456612,-200,4,1,1,5,0,0
458450,-200,4,1,1,40,0,0
458666,-200,4,1,1,5,0,0
458775,-200,4,1,1,40,0,0
458991,-200,4,1,1,5,0,0
459099,-117.647058823529,4,1,1,60,0,0
459342,-117.647058823529,4,1,1,5,0,0
459423,-117.647058823529,4,1,1,60,0,0
463639,-100,4,1,1,60,0,0
463883,-100,4,1,1,5,0,0
463964,-100,4,1,1,60,0,0
464207,-100,4,1,1,5,0,0
464288,-117.647058823529,4,1,1,60,0,0
464369,-117.647058823529,4,1,1,5,0,0
465585,-117.647058823529,4,1,1,60,0,0
469478,-100,4,1,1,90,0,0
469721,-100,4,1,1,5,0,0
469802,-100,4,1,1,90,0,0
470045,-100,4,1,1,5,0,0
470126,-100,4,1,1,90,0,0
470856,-100,4,1,1,5,0,0
470937,-100,4,1,1,90,0,0
472315,-100,4,1,1,5,0,0
472396,-100,4,1,1,90,0,0
472802,-100,4,1,1,5,0,0
472883,-100,4,1,1,90,0,0
474910,-100,4,1,1,5,0,0
474991,-100,4,1,1,90,0,0
477504,-100,4,1,1,5,0,0
477585,-100,4,1,1,90,0,0
477991,-100,4,1,1,5,0,0
478072,-100,4,1,1,90,0,0
478639,-100,4,1,1,5,0,0
478721,-100,4,1,1,90,0,0
480099,-100,4,1,1,5,0,0
480180,-100,4,1,1,90,0,0
482694,-100,4,1,1,5,0,0
482775,-100,4,1,1,90,0,0
483180,-100,4,1,1,5,0,0
483261,-100,4,1,1,90,0,0
485288,-100,4,1,1,5,0,0
485369,-100,4,1,1,90,0,0
487883,-100,4,1,1,5,0,0
487964,-100,4,1,1,90,0,0
488369,-100,4,1,1,5,0,0
488450,-100,4,1,1,90,0,0
500612,-80,4,1,1,95,0,1
500856,-80,4,1,1,5,0,1
500937,-80,4,1,1,95,0,1
501180,-80,4,1,1,5,0,1
501261,-80,4,1,1,95,0,1
502153,-80,4,1,1,5,0,1
502234,-80,4,1,1,95,0,1
503450,-80,4,1,1,5,0,1
503531,-80,4,1,1,95,0,1
503775,-80,4,1,1,5,0,1
503856,-80,4,1,1,95,0,1
504423,-80,4,1,1,5,0,1
504504,-80,4,1,1,95,0,1
504748,-80,4,1,1,5,0,1
504829,-80,4,1,1,95,0,1
506045,-80,4,1,1,5,0,1
506126,-80,4,1,1,95,0,1
506369,-80,4,1,1,5,0,1
506450,-80,4,1,1,95,0,1
507018,-80,4,1,1,5,0,1
507099,-80,4,1,1,95,0,1
507342,-80,4,1,1,5,0,1
507423,-80,4,1,1,95,0,1
507991,-80,4,1,1,5,0,1
508072,-80,4,1,1,95,0,1
509937,-80,4,1,1,5,0,1
510018,-80,4,1,1,95,0,1
512531,-80,4,1,1,5,0,1
512612,-80,4,1,1,95,0,1
514802,-80,4,1,1,5,0,1
514883,-80,4,1,1,95,0,1
515126,-80,4,1,1,5,0,1
515207,-80,4,1,1,95,0,1
517396,-80,4,1,1,5,0,1
517477,-80,4,1,1,95,0,1
521937,-80,4,1,1,5,0,1
522018,-80,4,1,1,95,0,1
522910,-80,4,1,1,5,0,1
522991,-80,4,1,1,95,0,1
524207,-80,4,1,1,5,0,1
524288,-80,4,1,1,95,0,1
524531,-80,4,1,1,5,0,1
524612,-80,4,1,1,95,0,1
525180,-80,4,1,1,5,0,1
525261,-80,4,1,1,95,0,1
525504,-80,4,1,1,5,0,1
525585,-80,4,1,1,95,0,1
526802,-80,4,1,1,5,0,1
526883,-80,4,1,1,95,0,1
527126,-80,4,1,1,5,0,1
527207,-80,4,1,1,95,0,1
527775,-80,4,1,1,5,0,1
527856,-80,4,1,1,95,0,1
528099,-80,4,1,1,5,0,1
528180,-80,4,1,1,95,0,1
528748,-80,4,1,1,5,0,1
528829,-80,4,1,1,95,0,1
529396,-80,4,1,1,5,0,1
529477,-80,4,1,1,95,0,1
529721,-80,4,1,1,5,0,1
529802,-80,4,1,1,95,0,1
531991,-80,4,1,1,5,0,1
532072,-80,4,1,1,95,0,1
532315,-80,4,1,1,5,0,1
532396,-80,4,1,1,95,0,1
533288,-80,4,1,1,5,0,1
533369,-80,4,1,1,95,0,1
534585,-80,4,1,1,5,0,1
534666,-80,4,1,1,95,0,1
534910,-80,4,1,1,5,0,1
534991,-80,4,1,1,95,0,1
535883,-80,4,1,1,5,0,1
535964,-80,4,1,1,95,0,1
536207,-80,4,1,1,5,0,1
536288,-80,4,1,1,95,0,1
537180,-80,4,1,1,5,0,1
537261,-80,4,1,1,95,0,1
537504,-80,4,1,1,5,0,1
537585,-80,4,1,1,95,0,1
538153,-80,4,1,1,5,0,1
538234,-80,4,1,1,95,0,1
538477,-80,4,1,1,5,0,1
538558,-80,4,1,1,95,0,1
539126,-80,4,1,1,5,0,1
539207,-80,4,1,1,95,0,1
542369,-80,4,1,1,5,0,1
542450,-80,4,1,1,95,0,1
543018,-80,4,1,1,5,0,1
543099,-80,4,1,1,95,0,1
543666,-80,4,1,1,5,0,1
543748,-80,4,1,1,95,0,1
544315,-80,4,1,1,5,0,1
544396,-80,4,1,1,95,0,1
547315,-100,4,1,1,90,0,0
549910,-83.3333333333333,4,1,1,90,0,0
559072,-83.3333333333333,4,1,1,5,0,0
559153,-83.3333333333333,4,1,1,90,0,0
570666,-83.3333333333333,4,1,2,70,0,0
573261,-100,4,1,1,90,0,0
573910,352.941176470588,4,1,1,80,1,0
574615,375,4,1,1,70,1,0
575365,400,4,1,1,60,1,0
576611,428.571428571429,4,1,1,50,1,0
577504,461.538461538462,4,1,1,40,1,0
577985,500,4,1,1,40,1,0
578489,545.454545454546,4,1,1,40,1,0
579016,545.454545454546,4,1,1,40,1,0
579561,600,4,1,1,30,1,0
581511,600,4,1,1,30,1,0
582888,600,4,1,1,30,1,0
583038,-100,4,1,1,5,0,0

[Colours]
Combo1 : 236,146,102
Combo2 : 116,193,0
Combo3 : 249,77,34
Combo4 : 197,197,197

[HitObjects]
256,191,238,6,0,B|182:248|182:248|238:333|350:296|371:244|396:172|361:108|308:72|256:70|184:93|163:157|163:157|86:145|91:69|142:40|183:57|193:81,1,800,2|2,0:0|0:0,0:0:0:0:
392,82,1816,6,0,L|318:142,1,75.0000028610231
429,210,2132,2,0,L|334:200,1,75.0000028610231
365,327,2448,2,0,L|305:253,1,75.0000028610231
238,365,2764,6,0,L|247:270,1,75.0000028610231
448,299,3080,2,0,L|439:394,1,75.0000028610231
125,299,3395,5,0,0:0:0:0:
184,252,3553,1,0,0:0:0:0:
100,286,3711,5,0,0:0:0:0:
176,224,3869,1,0,0:0:0:0:
176,224,4185,5,0,0:0:0:0:
238,365,4343,2,0,L|247:270,1,75.0000028610231
365,327,4659,2,0,L|305:253,1,75.0000028610231
429,210,4974,2,0,L|334:200,1,75.0000028610231
392,82,5290,6,0,L|318:142,1,75.0000028610231
448,299,5606,2,0,L|522:239,1,75.0000028610231
273,17,5922,5,0,0:0:0:0:
265,92,6080,1,0,0:0:0:0:
307,19,6238,5,0,0:0:0:0:
298,109,6396,1,0,0:0:0:0:
224,187,6553,6,0,P|178:170|156:142,1,75.0000028610231,2|0,0:0|0:0,0:0:0:0:
146,80,6869,2,0,P|144:117|160:150,1,75.0000028610231
100,112,7185,2,0,P|125:139|160:151,1,75.0000028610231
90,166,7501,2,0,P|127:167|160:151,1,75.0000028610231
122,212,7816,6,0,P|149:186|161:151,1,75.0000028610231
270,129,8132,2,0,P|242:154|230:189,1,75.0000028610231
265,272,8448,5,0,0:0:0:0:
325,205,8606,1,0,0:0:0:0:
278,299,8764,5,0,0:0:0:0:
355,212,8922,1,0,0:0:0:0:
355,212,9238,5,0,0:0:0:0:
417,127,9395,2,0,P|365:104|326:104,1,75.0000028610231,8|0,0:0|0:0,0:0:0:0:
230,188,9711,2,0,P|242:153|270:128,1,75.0000028610231,0|8,0:0|0:0,0:0:0:0:
403,100,10027,2,0,P|351:77|312:77,1,75.0000028610231
216,161,10343,6,0,P|228:126|255:100,1,75.0000028610231
348,209,10659,2,0,P|335:243|308:269,1,75.0000028610231,0|8,0:0|0:0,0:0:0:0:
210,277,10974,5,2,0:0:0:0:
273,203,11132,1,0,0:0:0:0:
229,298,11290,5,2,0:0:0:0:
147,201,11448,1,0,0:0:0:0:
65,102,11606,6,0,L|27:189,1,80,2|0,0:0|0:0,0:0:0:0:
65,248,11922,2,0,L|32:174,1,80
147,201,12238,2,0,L|68:185,1,80
167,116,12553,2,0,L|100:160,1,80
154,34,12869,6,0,L|116:121,1,80
248,134,13185,2,0,L|286:47,1,80
167,116,13501,5,0,0:0:0:0:
219,215,13659,1,0,0:0:0:0:
126,118,13816,5,0,0:0:0:0:
194,247,13974,1,0,0:0:0:0:
194,247,14290,5,0,0:0:0:0:
355,247,14448,2,0,L|441:247,1,80
378,190,14764,2,0,L|438:250,1,80
434,166,15080,2,0,L|434:252,1,80
490,189,15395,6,0,L|429:249,1,80
317,125,15711,2,0,L|377:64,1,80,0|8,0:0|0:0,0:0:0:0:
378,190,16027,5,2,0:0:0:0:
250,184,16185,1,0,0:0:0:0:
398,216,16343,5,2,0:0:0:0:
231,208,16501,1,0,0:0:0:0:
149,56,16659,6,0,P|193:40|245:50,1,80,2|0,0:0|0:0,0:0:0:0:
111,143,16974,2,0,P|75:112|57:62,1,80
122,223,17290,2,0,P|75:214|35:180,1,80
172,286,17606,2,0,P|127:302|76:292,1,80
247,315,17922,6,0,P|216:350|166:368,1,80
172,286,18238,2,0,P|202:250|252:232,1,80
323,264,18553,5,0,0:0:0:0:
299,170,18711,1,0,0:0:0:0:
356,275,18869,5,0,0:0:0:0:
325,153,19027,1,0,0:0:0:0:
325,153,19343,5,0,0:0:0:0:
200,121,19501,2,0,B|155:109|111:133,1,80,0|8,0:0|0:0,0:0:0:0:
154,56,19816,2,0,B|122:89|121:139,1,80,2|8,0:0|0:0,0:0:0:0:
76,63,20132,2,0,B|88:107|131:133,1,80,2|0,0:0|0:0,0:0:0:0:
43,134,20448,6,0,B|87:145|131:121,1,80,2|0,0:0|0:0,0:0:0:0:
278,114,20764,2,0,B|233:102|189:126,1,80
114,217,21080,5,0,0:0:0:0:
241,207,21238,1,0,0:0:0:0:
94,243,21395,5,0,0:0:0:0:
259,230,21553,1,0,0:0:0:0:
158,59,21711,6,0,B|170:20|109:31|106:79|134:111|207:92|207:92|256:112|256:112|308:77|308:77|310:160|354:209|354:209|399:152|396:77|396:77|446:92|446:92|473:132,1,650,2|0,0:0|0:0,0:0:0:0:
465,120,23891,2,0,B|456:179|439:233|371:296,1,200,2|0,0:0|0:0,0:0:0:0:
373,293,24665,2,0,B|322:274|282:286|247:326|247:326|224:264|224:264|109:315|-9:217|34:45|123:40|230:0|318:117|270:211,1,800,2|0,0:0|0:0,0:0:0:0:
467,297,27395,6,0,P|424:281|357:303,1,100,6|0,0:0|0:0,0:0:0:0:
417,374,27710,1,0,0:0:0:0:
330,207,27868,1,0,0:0:0:0:
506,203,28026,1,0,0:0:0:0:
311,369,28184,2,0,L|262:271,1,100
124,86,28500,6,0,P|172:146|173:184,1,100,8|0,0:0|0:0,0:0:0:0:
96,330,28816,1,0,0:0:0:0:
6,210,28973,1,0,0:0:0:0:
224,75,29131,6,0,P|193:153|154:173,1,110.000003356934,2|0,0:0|0:0,0:0:0:0:
85,165,29447,1,0,0:0:0:0:
136,246,29605,1,0,0:0:0:0:
124,86,29763,1,8,0:0:0:0:
229,256,29921,6,0,L|278:335,1,80,2|0,0:0|0:0,0:0:0:0:
314,127,30237,2,0,L|292:217,1,80
363,162,30552,2,0,L|284:210,1,80
372,222,30868,2,0,L|281:200,1,80
337,272,31184,6,0,L|288:193,1,80
433,122,31500,2,0,L|482:200,1,80
363,162,31816,5,0,0:0:0:0:
375,67,31973,1,0,0:0:0:0:
335,178,32131,5,8,0:0:0:0:
350,54,32288,1,0,0:0:0:0:
294,204,32447,6,0,B|351:298,1,100,2|0,0:0|0:0,0:0:0:0:
172,183,32763,1,0,0:0:0:0:
270,200,32921,1,0,0:0:0:0:
149,179,33079,1,0,0:0:0:0:
274,103,33237,2,0,P|349:117|371:141,1,100
384,232,33552,6,0,P|309:218|287:194,1,100,8|0,0:0|0:0,0:0:0:0:
255,5,33868,1,0,0:0:0:0:
374,12,34026,1,0,0:0:0:0:
316,305,34184,6,0,P|288:225|298:191,1,110.000003356934,2|0,0:0|0:0,0:0:0:0:
384,232,34500,1,0,0:0:0:0:
246,377,34658,1,0,0:0:0:0:
156,188,34816,1,8,0:0:0:0:
374,12,34973,6,0,L|401:101,1,80,2|0,0:0|0:0,0:0:0:0:
293,203,35289,2,0,L|266:114,1,80
156,188,35605,2,0,L|199:105,1,80
130,14,35921,1,8,0:0:0:0:
105,64,36026,1,8,0:0:0:0:
80,116,36131,1,8,0:0:0:0:
58,167,36237,6,0,P|61:220|94:266,1,80,2|0,0:0|0:0,0:0:0:0:
184,260,36552,2,0,P|171:208|131:168,1,80
126,328,36868,5,0,0:0:0:0:
294,229,37026,1,0,0:0:0:0:
237,343,37184,5,0,0:0:0:0:
307,199,37342,1,0,0:0:0:0:
317,358,37500,6,0,B|378:358|409:319,1,100,2|0,0:0|0:0,0:0:0:0:
307,199,37816,1,0,0:0:0:0:
314,329,37973,1,0,0:0:0:0:
305,173,38131,1,0,0:0:0:0:
404,59,38289,2,0,P|435:113|432:157,1,100
300,104,38605,6,0,P|289:42|307:2,1,100,8|0,0:0|0:0,0:0:0:0:
404,59,38921,1,0,0:0:0:0:
307,199,39079,1,0,0:0:0:0:
209,55,39237,6,0,P|259:13|304:8,1,110.000003356934,2|0,0:0|0:0,0:0:0:0:
404,59,39552,1,0,0:0:0:0:
307,199,39710,1,0,0:0:0:0:
434,149,39868,1,8,0:0:0:0:
314,295,40026,6,0,L|320:391,1,80,2|0,0:0|0:0,0:0:0:0:
184,286,40342,2,0,L|178:190,1,80
126,266,40658,2,0,L|189:193,1,80
99,211,40973,2,0,L|195:205,1,80
118,153,41289,6,0,L|190:216,1,80
71,326,41605,2,0,L|-1:262,1,80
126,266,41921,5,0,0:0:0:0:
144,360,42079,1,0,0:0:0:0:
259,187,42237,5,8,0:0:0:0:
220,299,42395,1,0,0:0:0:0:
393,201,42552,6,0,L|311:276,1,100,2|0,0:0|0:0,0:0:0:0:
259,187,42868,1,0,0:0:0:0:
366,201,43026,1,0,0:0:0:0:
236,184,43184,1,0,0:0:0:0:
134,106,43342,2,0,L|115:7,1,100
254,5,43658,6,0,L|278:108,1,100,8|0,0:0|0:0,0:0:0:0:
157,219,43973,1,0,0:0:0:0:
32,136,44131,1,0,0:0:0:0:
288,24,44289,6,0,L|316:136,1,110.000003356934,2|0,0:0|0:0,0:0:0:0:
192,238,44604,1,0,0:0:0:0:
67,158,44762,1,0,0:0:0:0:
318,38,44921,1,8,0:0:0:0:
206,325,45079,6,0,P|141:336|104:321,1,100,2|0,0:0|0:0,0:0:0:0:
180,151,45395,2,0,P|245:140|282:155,1,100
208,82,45710,2,0,P|261:121|277:157,1,100
276,54,46026,2,0,P|286:119|271:156,1,100
343,82,46342,6,0,P|303:135|267:151,1,100
124,67,46658,2,0,P|162:12|199:-2,1,100
208,83,46973,5,2,0:0:0:0:
200,106,47052,1,8,0:0:0:0:
180,129,47131,1,8,0:0:0:0:
154,144,47210,1,8,0:0:0:0:
124,149,47289,5,2,0:0:0:0:
141,184,47368,1,8,0:0:0:0:
147,223,47447,1,8,0:0:0:0:
139,262,47526,1,8,0:0:0:0:
120,297,47605,6,0,P|182:285|227:304,1,100,6|0,0:0|0:0,0:0:0:0:
169,379,47921,1,0,0:0:0:0:
258,221,48079,1,0,0:0:0:0:
49,218,48237,1,0,0:0:0:0:
263,380,48395,2,0,L|322:276,1,100
491,244,48710,6,0,P|443:257|408:292,1,100,8|0,0:0|0:0,0:0:0:0:
492,340,49026,1,0,0:0:0:0:
494,149,49184,1,0,0:0:0:0:
360,210,49342,6,0,P|325:245|312:293,1,100,2|0,0:0|0:0,0:0:0:0:
408,292,49658,1,0,0:0:0:0:
315,126,49816,1,0,0:0:0:0:
218,288,49973,1,8,0:0:0:0:
360,210,50131,6,0,P|394:174|407:126,1,100,2|0,0:0|0:0,0:0:0:0:
267,42,50447,2,0,P|233:78|220:126,1,100
218,288,50763,1,0,0:0:0:0:
315,126,50921,1,0,0:0:0:0:
124,120,51079,1,0,0:0:0:0:
218,288,51237,6,0,P|299:330|411:315,1,200,8|0,0:0|0:0,0:0:0:0:
360,234,51710,2,0,P|374:290|415:323,1,100
455,239,52026,1,0,0:0:0:0:
218,288,52184,1,0,0:0:0:0:
360,234,52342,5,8,0:0:0:0:
371,200,52421,1,8,0:0:0:0:
371,164,52500,1,8,0:0:0:0:
362,130,52579,1,8,0:0:0:0:
345,99,52658,6,0,P|402:117|452:105,1,100,2|0,0:0|0:0,0:0:0:0:
403,20,52973,1,0,0:0:0:0:
252,184,53131,1,0,0:0:0:0:
455,239,53289,1,0,0:0:0:0:
278,16,53447,2,0,L|203:98,1,100
221,271,53763,6,0,P|284:258|331:279,1,100,8|0,0:0|0:0,0:0:0:0:
191,354,54079,1,0,0:0:0:0:
252,184,54237,1,0,0:0:0:0:
412,267,54395,6,0,P|348:279|301:258,1,100,2|0,0:0|0:0,0:0:0:0:
442,184,54711,1,0,0:0:0:0:
381,354,54869,1,0,0:0:0:0:
347,104,55026,1,8,0:0:0:0:
412,267,55184,6,0,P|348:279|301:258,1,100,2|0,0:0|0:0,0:0:0:0:
158,202,55500,2,0,P|218:178|267:190,1,100
381,354,55816,5,0,0:0:0:0:
221,271,55973,1,0,0:0:0:0:
360,199,56131,1,0,0:0:0:0:
281,345,56289,2,0,P|220:369|126:273,1,200,2|0,0:0|0:0,0:0:0:0:
34,296,56763,2,0,P|84:309|135:281,1,100,8|0,0:0|0:0,0:0:0:0:
221,271,57079,5,8,0:0:0:0:
181,240,57158,1,8,0:0:0:0:
178,195,57237,1,8,0:0:0:0:
197,159,57316,1,8,0:0:0:0:
227,142,57395,1,8,0:0:0:0:
245,118,57473,1,8,0:0:0:0:
248,93,57552,1,8,0:0:0:0:
239,75,57631,1,8,0:0:0:0:
226,67,57710,6,0,P|279:83|333:55,1,100,2|0,0:0|0:0,0:0:0:0:
272,0,58026,1,0,0:0:0:0:
356,188,58184,1,0,0:0:0:0:
404,70,58342,1,0,0:0:0:0:
134,5,58500,2,0,B|164:60|130:110,1,100
173,327,58816,6,0,B|144:286|174:231,1,100,8|0,0:0|0:0,0:0:0:0:
244,283,59131,1,0,0:0:0:0:
106,188,59289,1,0,0:0:0:0:
354,92,59447,6,0,B|384:147|350:197,1,100,2|0,0:0|0:0,0:0:0:0:
244,283,59762,1,0,0:0:0:0:
239,122,59920,1,0,0:0:0:0:
274,202,60079,1,8,0:0:0:0:
209,39,60237,6,0,P|164:73|152:132,1,100,2|0,0:0|0:0,0:0:0:0:
114,262,60552,2,0,P|159:228|171:169,1,100
239,122,60868,1,0,0:0:0:0:
84,180,61026,1,0,0:0:0:0:
274,202,61184,1,0,0:0:0:0:
394,54,61342,6,0,B|335:67|296:36,1,100,2|0,0:0|0:0,0:0:0:0:
422,136,61658,1,0,0:0:0:0:
381,279,61816,6,0,B|398:236|456:218,1,100,8|0,0:0|0:0,0:0:0:0:
422,136,62131,1,0,0:0:0:0:
490,298,62289,1,0,0:0:0:0:
274,202,62447,5,8,0:0:0:0:
240,192,62526,1,8,0:0:0:0:
205,196,62605,1,8,0:0:0:0:
174,213,62684,1,8,0:0:0:0:
149,237,62763,6,0,P|146:172|125:129,1,100,2|0,0:0|0:0,0:0:0:0:
219,110,63079,1,0,0:0:0:0:
233,287,63237,1,0,0:0:0:0:
40,206,63395,1,0,0:0:0:0:
309,61,63552,2,0,L|311:168,1,100
132,140,63868,6,0,L|130:33,1,100,8|0,0:0|0:0,0:0:0:0:
310,160,64184,1,0,0:0:0:0:
233,287,64342,1,0,0:0:0:0:
40,206,64500,6,0,L|38:99,1,100,2|0,0:0|0:0,0:0:0:0:
244,214,64816,1,0,0:0:0:0:
167,341,64974,1,0,0:0:0:0:
316,346,65131,1,8,0:0:0:0:
150,222,65289,6,0,P|213:205|260:224,1,100,2|0,0:0|0:0,0:0:0:0:
397,127,65605,2,0,P|334:144|287:125,1,100
193,116,65921,1,0,0:0:0:0:
353,234,66079,1,0,0:0:0:0:
343,63,66237,1,0,0:0:0:0:
66,164,66395,6,0,P|49:241|130:324,1,200,2|0,0:0|0:0,0:0:0:0:
142,227,66868,2,0,P|121:287|126:324,1,100,8|0,0:0|0:0,0:0:0:0:
215,290,67184,5,2,0:0:0:0:
235,191,67342,1,0,0:0:0:0:
237,378,67500,5,8,0:0:0:0:
303,302,67658,1,0,0:0:0:0:
142,227,67816,6,0,P|139:163|164:122,1,100,2|0,0:0|0:0,0:0:0:0:
235,191,68131,1,0,0:0:0:0:
215,290,68289,1,0,0:0:0:0:
125,322,68447,5,2,0:0:0:0:
303,302,68605,1,0,0:0:0:0:
215,290,68763,5,8,0:0:0:0:
381,358,68921,2,0,P|390:293|496:207,1,200,2|0,0:0|0:0,0:0:0:0:
486,303,69395,2,0,P|473:245|490:204,1,100,8|0,0:0|0:0,0:0:0:0:
391,135,69710,5,2,0:0:0:0:
303,302,69868,1,0,0:0:0:0:
235,191,70026,5,2,0:0:0:0:
215,290,70184,1,0,0:0:0:0:
146,223,70342,5,2,0:0:0:0:
256,192,70421,12,0,71605,0:0:0:0:
256,192,71683,12,0,73105,0:0:0:0:
309,103,80289,5,2,0:0:0:0:
245,208,80451,1,0,0:0:0:0:
240,216,80532,1,0,0:0:0:0:
235,224,80613,1,0,0:0:0:0:
230,232,80694,1,0,0:0:0:0:
225,240,80775,1,0,0:0:0:0:
220,248,80856,1,0,0:0:0:0:
210,265,80937,5,8,0:0:0:0:
196,250,81018,1,0,0:0:0:0:
179,239,81099,1,0,0:0:0:0:
159,234,81180,1,0,0:0:0:0:
131,246,81261,5,8,0:0:0:0:
136,216,81343,1,0,0:0:0:0:
133,186,81424,1,0,0:0:0:0:
125,157,81505,1,0,0:0:0:0:
99,116,81586,6,0,P|161:103|208:58,1,119.999996337891,4|0,0:0|0:0,0:0:0:0:
14,56,81910,2,0,P|-5:116|9:179,1,119.999996337891
256,192,82234,5,0,0:0:0:0:
114,25,82397,1,0,0:0:0:0:
131,246,82559,1,0,0:0:0:0:
372,132,82721,6,0,P|317:77|266:62,1,119.999996337891,2|0,0:0|0:0,0:0:0:0:
256,192,83045,1,0,0:0:0:0:
358,254,83207,1,0,0:0:0:0:
278,63,83370,1,2,0:0:0:0:
131,246,83532,5,0,0:0:0:0:
150,259,83613,1,0,0:0:0:0:
170,271,83694,2,0,L|229:307,1,59.9999981689454
256,192,83856,2,0,L|289:252,1,59.9999981689454
372,172,84018,2,0,L|370:241,1,59.9999981689454
483,218,84180,5,0,0:0:0:0:
474,226,84261,1,0,0:0:0:0:
465,234,84343,1,0,0:0:0:0:
456,242,84424,1,0,0:0:0:0:
450,277,84505,5,0,0:0:0:0:
439,280,84586,1,0,0:0:0:0:
428,284,84667,1,0,0:0:0:0:
416,288,84748,1,0,0:0:0:0:
408,323,84829,5,0,0:0:0:0:
256,192,84991,1,0,0:0:0:0:
372,172,85153,1,0,0:0:0:0:
221,302,85316,6,0,P|161:261|141:215,1,119.999996337891,8|0,0:0|0:0,0:0:0:0:
256,192,85640,1,0,0:0:0:0:
199,380,85802,1,0,0:0:0:0:
372,172,85964,1,0,0:0:0:0:
142,219,86126,5,2,0:0:0:0:
135,208,86207,1,0,0:0:0:0:
122,181,86289,2,0,L|125:121,1,59.9999981689454
153,66,86451,2,0,L|156:126,1,59.9999981689454
71,250,86613,5,0,0:0:0:0:
76,260,86694,1,0,0:0:0:0:
82,271,86775,2,0,P|154:255|213:287,1,119.999996337891,2|0,0:0|0:0,0:0:0:0:
284,167,87099,2,0,P|261:237|204:272,1,119.999996337891
138,336,87424,5,0,0:0:0:0:
197,185,87586,1,0,0:0:0:0:
322,296,87748,1,0,0:0:0:0:
76,164,87910,6,0,P|105:99|150:72,1,119.999996337891,2|0,0:0|0:0,0:0:0:0:
197,185,88234,1,0,0:0:0:0:
138,336,88397,1,0,0:0:0:0:
144,73,88559,1,2,0:0:0:0:
306,115,88721,5,0,0:0:0:0:
302,126,88802,1,0,0:0:0:0:
299,137,88883,2,0,L|275:216,1,59.9999981689454
395,188,89045,2,0,L|334:244,1,59.9999981689454
449,286,89207,2,0,L|368:304,1,59.9999981689454
248,346,89370,6,0,P|196:321|133:339,1,119.999996337891,2|0,0:0|0:0,0:0:0:0:
15,259,89613,1,0,0:0:0:0:
15,259,89694,1,0,0:0:0:0:
35,364,89856,1,0,0:0:0:0:
190,153,90018,1,0,0:0:0:0:
248,346,90180,1,0,0:0:0:0:
282,97,90343,1,0,0:0:0:0:
103,204,90505,6,0,B|54:168|54:168|89:120|89:120|75:46,1,179.999994506836,2|0,0:0|0:0,0:0:0:0:
73,36,90829,1,0,0:0:0:0:
15,259,90991,1,0,0:0:0:0:
220,133,91153,5,0,0:0:0:0:
251,115,91234,1,0,0:0:0:0:
282,97,91316,2,0,L|281:36,1,59.9999981689454
395,0,91478,1,0,0:0:0:0:
395,35,91559,1,0,0:0:0:0:
395,71,91641,2,0,L|448:100,1,59.9999981689454
414,197,91802,1,0,0:0:0:0:
381,213,91883,1,0,0:0:0:0:
350,229,91964,6,0,L|294:256,3,59.9999981689454,2|0|0|0,0:0|0:0|0:0|0:0,0:0:0:0:
368,316,92288,2,0,L|429:284,3,59.9999981689454
207,257,92613,6,0,L|212:326,1,59.9999981689454
99,241,92775,2,0,L|137:298,1,59.9999981689454
12,313,92937,2,0,L|74:343,1,59.9999981689454
0,212,93099,5,2,0:0:0:0:
9,190,93180,1,0,0:0:0:0:
23,170,93261,1,0,0:0:0:0:
42,155,93343,1,0,0:0:0:0:
64,146,93424,6,0,L|43:89,1,59.9999981689454
121,86,93586,2,0,L|131:26,1,59.9999981689454
209,53,93748,5,2,0:0:0:0:
208,76,93829,1,0,0:0:0:0:
215,98,93910,1,0,0:0:0:0:
227,118,93991,1,0,0:0:0:0:
246,133,94072,6,0,L|221:190,1,59.9999981689454
345,118,94234,2,0,L|308:67,1,59.9999981689454
311,209,94397,2,0,L|372:202,1,59.9999981689454
272,298,94559,5,2,0:0:0:0:
295,295,94640,1,0,0:0:0:0:
318,292,94721,1,0,0:0:0:0:
341,290,94802,1,0,0:0:0:0:
388,283,94883,5,2,0:0:0:0:
372,301,94964,1,0,0:0:0:0:
362,322,95045,1,0,0:0:0:0:
355,345,95126,1,0,0:0:0:0:
388,378,95207,6,0,L|455:368,1,59.9999981689454,2|0,0:0|0:0,0:0:0:0:
388,283,95370,2,0,L|441:240,1,59.9999981689454
346,194,95532,2,0,L|370:130,1,59.9999981689454
266,143,95694,5,2,0:0:0:0:
243,150,95775,1,0,0:0:0:0:
220,157,95856,1,0,0:0:0:0:
197,164,95937,1,0,0:0:0:0:
150,175,96018,6,0,L|163:102,1,59.9999981689454
71,116,96180,2,0,L|140:90,1,59.9999981689454
85,20,96343,2,0,L|141:67,1,59.9999981689454
266,143,96505,5,2,0:0:0:0:
269,166,96586,1,0,0:0:0:0:
277,202,96667,2,0,L|355:225,1,59.9999981689454
393,233,96829,2,0,L|335:249,1,59.9999981689454
150,175,96991,5,0,0:0:0:0:
153,198,97072,1,0,0:0:0:0:
157,221,97153,2,0,L|167:295,3,59.9999981689454,2|0|0|0,0:0|0:0|0:0|0:0,0:0:0:0:
74,265,97478,2,0,L|64:191,3,59.9999981689454
254,295,97802,6,0,L|264:367,1,59.9999981689454
353,261,97964,2,0,L|325:328,1,59.9999981689454
457,276,98126,2,0,L|399:320,1,59.9999981689454
411,188,98288,5,2,0:0:0:0:
399,166,98370,1,0,0:0:0:0:
387,145,98451,1,0,0:0:0:0:
375,124,98532,1,0,0:0:0:0:
363,103,98613,6,0,L|423:104,1,59.9999981689454
273,70,98775,2,0,L|303:18,1,59.9999981689454
180,89,98937,5,2,0:0:0:0:
191,110,99018,1,0,0:0:0:0:
202,131,99099,1,0,0:0:0:0:
213,152,99180,1,0,0:0:0:0:
223,173,99261,6,0,L|252:233,1,59.9999981689454
105,227,99424,2,0,L|142:171,1,59.9999981689454
207,299,99586,2,0,L|140:294,1,59.9999981689454
60,158,99748,5,2,0:0:0:0:
73,138,99829,1,0,0:0:0:0:
88,119,99910,1,0,0:0:0:0:
102,99,99991,1,0,0:0:0:0:
132,61,100072,5,0,0:0:0:0:
138,71,100153,1,0,0:0:0:0:
159,81,100234,1,0,0:0:0:0:
165,91,100315,1,0,0:0:0:0:
198,126,100397,1,0,0:0:0:0:
204,116,100478,1,0,0:0:0:0:
225,106,100559,1,0,0:0:0:0:
231,96,100640,1,0,0:0:0:0:
249,81,100721,1,0,0:0:0:0:
255,71,100802,1,0,0:0:0:0:
281,31,100883,5,2,0:0:0:0:
291,52,100964,1,0,0:0:0:0:
309,66,101045,1,0,0:0:0:0:
330,77,101126,1,0,0:0:0:0:
353,83,101207,1,0,0:0:0:0:
376,80,101288,1,0,0:0:0:0:
421,62,101370,6,0,L|440:139,1,59.9999981689454,2|0,0:0|0:0,0:0:0:0:
326,223,101532,2,0,L|340:164,1,59.9999981689454,2|0,0:0|0:0,0:0:0:0:
460,201,101694,6,0,L|479:278,1,59.9999981689454,2|0,0:0|0:0,0:0:0:0:
292,358,101856,2,0,L|306:299,1,59.9999981689454,2|0,0:0|0:0,0:0:0:0:
398,301,102018,6,0,L|383:359,1,59.9999981689454,2|0,0:0|0:0,0:0:0:0:
196,357,102180,2,0,L|210:298,1,59.9999981689454,2|0,0:0|0:0,0:0:0:0:
126,207,102343,5,2,0:0:0:0:
159,172,102424,1,0,0:0:0:0:
194,139,102505,1,0,0:0:0:0:
228,106,102586,1,0,0:0:0:0:
260,71,102667,1,0,0:0:0:0:
293,37,102748,1,0,0:0:0:0:
222,16,102829,5,2,0:0:0:0:
202,51,102910,1,0,0:0:0:0:
212,92,102991,1,0,0:0:0:0:
243,117,103072,1,0,0:0:0:0:
284,123,103153,1,0,0:0:0:0:
321,107,103234,1,0,0:0:0:0:
394,115,103316,6,0,L|435:173,1,59.9999981689454,2|0,0:0|0:0,0:0:0:0:
362,214,103478,2,0,L|368:284,1,59.9999981689454
268,207,103640,5,2,0:0:0:0:
224,187,103721,1,0,0:0:0:0:
176,179,103802,1,0,0:0:0:0:
128,183,103883,1,0,0:0:0:0:
82,199,103964,1,0,0:0:0:0:
44,229,104045,1,0,0:0:0:0:
105,267,104126,5,2,0:0:0:0:
145,254,104207,1,0,0:0:0:0:
170,220,104288,1,0,0:0:0:0:
176,179,104370,1,0,0:0:0:0:
164,138,104451,1,0,0:0:0:0:
133,109,104532,1,0,0:0:0:0:
61,101,104613,6,0,L|111:59,1,59.9999981689454,2|0,0:0|0:0,0:0:0:0:
179,36,104775,2,0,L|243:24,1,59.9999981689454
239,105,104937,5,2,0:0:0:0:
263,146,105018,1,0,0:0:0:0:
287,187,105099,1,0,0:0:0:0:
311,228,105180,1,0,0:0:0:0:
335,269,105261,1,0,0:0:0:0:
359,310,105343,1,0,0:0:0:0:
406,251,105424,5,2,0:0:0:0:
373,226,105505,1,0,0:0:0:0:
332,222,105586,1,0,0:0:0:0:
295,239,105667,1,0,0:0:0:0:
276,276,105748,1,0,0:0:0:0:
284,317,105829,1,0,0:0:0:0:
196,313,105910,6,0,L|182:250,1,59.9999981689454,2|0,0:0|0:0,0:0:0:0:
102,254,106072,2,0,L|121:192,1,59.9999981689454,2|0,0:0|0:0,0:0:0:0:
44,159,106234,5,2,0:0:0:0:
239,105,106397,1,8,0:0:0:0:
284,317,106559,1,8,0:0:0:0:
145,78,106721,5,2,0:0:0:0:
343,110,106884,1,8,0:0:0:0:
284,317,107046,1,8,0:0:0:0:
259,33,107207,5,2,0:0:0:0:
425,145,107370,1,8,0:0:0:0:
102,254,107532,6,0,L|121:192,1,59.9999981689454,2|0,0:0|0:0,0:0:0:0:
226,128,107694,2,0,L|207:190,3,59.9999981689454
102,254,108018,6,0,L|149:209,1,59.9999981689454,2|0,0:0|0:0,0:0:0:0:
277,215,108180,2,0,L|229:259,3,59.9999981689454
102,254,108505,6,0,L|165:239,1,59.9999981689454,2|0,0:0|0:0,0:0:0:0:
268,321,108667,2,0,L|204:335,3,59.9999981689454
442,337,108991,5,2,0:0:0:0:
434,289,109072,1,0,0:0:0:0:
426,241,109153,1,0,0:0:0:0:
418,193,109234,1,0,0:0:0:0:
409,145,109316,1,0,0:0:0:0:
400,97,109397,1,0,0:0:0:0:
403,25,109478,5,2,0:0:0:0:
383,54,109559,1,0,0:0:0:0:
363,83,109640,1,0,0:0:0:0:
343,113,109721,1,0,0:0:0:0:
306,160,109802,5,2,0:0:0:0:
480,64,109964,1,0,0:0:0:0:
222,99,110126,6,0,L|175:164,1,59.9999981689454,2|0,0:0|0:0,0:0:0:0:
88,186,110288,2,0,L|120:259,3,59.9999981689454
184,101,110613,6,0,L|137:166,1,59.9999981689454,2|0,0:0|0:0,0:0:0:0:
50,188,110775,2,0,L|82:261,3,59.9999981689454
160,81,111099,6,0,L|113:146,1,59.9999981689454,2|0,0:0|0:0,0:0:0:0:
208,246,111261,2,0,L|255:181,1,59.9999981689454,2|0,0:0|0:0,0:0:0:0:
50,188,112721,5,6,0:0:0:0:
295,164,112883,1,0,0:0:0:0:
299,187,112964,1,0,0:0:0:0:
319,216,113045,1,0,0:0:0:0:
315,239,113126,1,0,0:0:0:0:
293,268,113207,2,0,P|361:276|406:317,1,119.999996337891
392,104,113532,5,0,0:0:0:0:
397,128,113613,1,0,0:0:0:0:
402,152,113694,2,0,B|416:220|416:220|467:255,1,119.999996337891
488,160,114018,5,2,0:0:0:0:
294,45,114180,1,0,0:0:0:0:
272,53,114261,1,0,0:0:0:0:
236,50,114342,1,0,0:0:0:0:
219,65,114423,1,0,0:0:0:0:
204,98,114504,2,0,P|163:43|105:24,1,119.999996337891
49,263,114829,5,0,0:0:0:0:
54,239,114910,1,0,0:0:0:0:
59,215,114991,2,0,B|73:147|73:147|124:112,1,119.999996337891
215,192,115316,5,2,0:0:0:0:
160,358,115478,1,0,0:0:0:0:
182,350,115559,1,0,0:0:0:0:
218,353,115640,1,0,0:0:0:0:
235,338,115721,1,0,0:0:0:0:
250,305,115802,2,0,P|290:359|348:378,1,119.999996337891
404,140,116126,5,0,0:0:0:0:
399,164,116207,1,0,0:0:0:0:
394,188,116288,2,0,B|380:256|380:256|329:291,1,119.999996337891
307,193,116613,5,2,0:0:0:0:
495,92,116775,1,0,0:0:0:0:
490,115,116856,1,0,0:0:0:0:
485,138,116937,1,0,0:0:0:0:
439,344,117099,1,0,0:0:0:0:
266,76,117261,5,0,0:0:0:0:
326,249,117424,2,0,L|306:192,1,59.9999981689454
190,33,117586,1,0,0:0:0:0:
125,253,117748,1,0,0:0:0:0:
404,140,117910,5,2,0:0:0:0:
216,225,118072,1,0,0:0:0:0:
212,202,118153,1,0,0:0:0:0:
192,173,118234,1,0,0:0:0:0:
196,150,118315,1,0,0:0:0:0:
218,121,118396,2,0,P|150:113|105:72,1,119.999996337891
124,253,118721,5,0,0:0:0:0:
109,232,118802,1,0,0:0:0:0:
95,213,118883,2,0,B|53:157|53:157|-7:147,1,119.999996337891
13,242,119207,5,2,0:0:0:0:
218,339,119369,1,0,0:0:0:0:
240,331,119450,1,0,0:0:0:0:
276,334,119531,1,0,0:0:0:0:
293,319,119612,1,0,0:0:0:0:
308,286,119693,2,0,P|348:340|406:359,1,119.999996337891
467,120,120018,5,0,0:0:0:0:
462,144,120099,1,0,0:0:0:0:
457,168,120180,2,0,B|443:236|443:236|392:271,1,119.999996337891
297,192,120505,5,2,0:0:0:0:
352,26,120667,1,0,0:0:0:0:
330,34,120748,1,0,0:0:0:0:
294,31,120829,1,0,0:0:0:0:
277,46,120910,1,0,0:0:0:0:
262,79,120991,2,0,P|221:24|163:5,1,119.999996337891
108,244,121315,5,0,0:0:0:0:
113,220,121396,1,0,0:0:0:0:
118,196,121477,2,0,B|132:128|132:128|183:93,1,119.999996337891
205,191,121802,5,2,0:0:0:0:
17,292,121964,1,0,0:0:0:0:
22,269,122045,1,0,0:0:0:0:
27,245,122126,1,0,0:0:0:0:
69,52,122288,1,0,0:0:0:0:
252,303,122451,5,0,0:0:0:0:
459,195,122613,1,0,0:0:0:0:
241,334,122775,5,0,0:0:0:0:
343,13,122937,1,0,0:0:0:0:
357,252,123099,5,2,0:0:0:0:
166,46,123261,1,0,0:0:0:0:
167,64,123343,1,0,0:0:0:0:
168,82,123424,2,0,B|174:149|174:149|208:195,1,119.999996337891
296,159,123748,5,0,0:0:0:0:
89,87,123910,1,0,0:0:0:0:
90,104,123991,1,0,0:0:0:0:
92,122,124072,2,0,L|102:250,1,119.999996337891
142,353,124397,6,0,P|194:307|259:303,1,119.999996337891,2|0,0:0|0:0,0:0:0:0:
380,341,124640,1,0,0:0:0:0:
380,341,124721,2,0,P|334:289|330:224,1,119.999996337891
512,203,125045,6,0,P|460:249|395:253,1,119.999996337891,2|0,0:0|0:0,0:0:0:0:
374,68,125288,1,0,0:0:0:0:
374,68,125369,2,0,P|420:120|424:185,1,119.999996337891
490,357,125694,6,0,B|437:379|437:379|406:355|406:355|377:346|377:346|360:318|360:318|325:292,1,200
227,210,125937,1,0,0:0:0:0:
213,198,126018,2,0,B|165:157|165:157|151:96,1,119.999996337891
374,68,126343,5,2,0:0:0:0:
338,247,126505,1,0,0:0:0:0:
335,266,126586,1,0,0:0:0:0:
331,284,126667,2,0,B|319:346|319:346|273:388,1,119.999996337891
124,229,126991,5,2,0:0:0:0:
296,168,127153,1,0,0:0:0:0:
313,162,127234,1,0,0:0:0:0:
331,156,127315,2,0,B|390:134|390:134|450:153,1,119.999996337891
211,299,127640,5,2,0:0:0:0:
187,317,127721,1,0,0:0:0:0:
159,329,127802,1,0,0:0:0:0:
129,332,127883,1,0,0:0:0:0:
99,328,127964,1,0,0:0:0:0:
72,314,128045,1,0,0:0:0:0:
50,293,128126,1,0,0:0:0:0:
37,265,128207,1,0,0:0:0:0:
32,235,128288,5,2,0:0:0:0:
115,81,128451,1,0,0:0:0:0:
120,98,128532,1,0,0:0:0:0:
125,114,128613,2,0,B|142:177|142:177|120:239,1,119.999996337891
41,145,128937,5,0,0:0:0:0:
202,46,129099,1,0,0:0:0:0:
206,63,129180,1,0,0:0:0:0:
210,80,129261,2,0,L|245:212,1,119.999996337891
396,270,129586,6,0,P|327:256|269:285,1,119.999996337891,2|0,0:0|0:0,0:0:0:0:
183,378,129829,1,0,0:0:0:0:
183,378,129910,2,0,P|196:309|167:251,1,119.999996337891
0,325,130234,6,0,P|68:338|126:309,1,119.999996337891,2|0,0:0|0:0,0:0:0:0:
52,139,130477,1,0,0:0:0:0:
52,139,130558,2,0,P|38:207|67:265,1,119.999996337891
7,71,130883,6,0,B|60:49|60:49|91:73|91:73|120:82|120:82|137:110|137:110|180:119,1,200
332,142,131126,1,0,0:0:0:0:
346,130,131207,2,0,B|394:89|394:89|408:28,1,119.999996337891
216,0,131532,5,2,0:0:0:0:
247,205,131694,1,0,0:0:0:0:
250,224,131775,1,0,0:0:0:0:
254,242,131856,2,0,B|265:304|265:304|311:346,1,119.999996337891
435,161,132180,5,2,0:0:0:0:
263,100,132342,1,0,0:0:0:0:
246,94,132423,1,0,0:0:0:0:
228,88,132504,2,0,B|168:66|168:66|108:85,1,119.999996337891
80,198,132829,6,0,L|149:176,1,59.9999981689454,8|0,0:0|0:0,0:0:0:0:
235,302,132991,2,0,L|166:280,1,59.9999981689454
210,164,133153,6,0,L|232:233,1,59.9999981689454,8|0,0:0|0:0,0:0:0:0:
88,326,133315,2,0,L|110:257,1,59.9999981689454
330,286,133477,5,2,0:0:0:0:
400,16,133640,1,0,0:0:0:0:
401,33,133721,1,0,0:0:0:0:
401,50,133802,2,0,B|403:114|403:114|441:170,1,119.999996337891
486,84,134126,5,0,0:0:0:0:
317,39,134288,1,0,0:0:0:0:
318,57,134370,1,0,0:0:0:0:
318,74,134451,2,0,L|321:214,1,119.999996337891
303,364,134775,6,0,P|280:298|226:262,1,119.999996337891,2|0,0:0|0:0,0:0:0:0:
102,233,135018,1,0,0:0:0:0:
102,233,135099,2,0,P|167:210|203:156,1,119.999996337891
57,48,135424,6,0,P|79:113|133:149,1,119.999996337891,2|0,0:0|0:0,0:0:0:0:
244,1,135666,1,0,0:0:0:0:
244,1,135747,2,0,P|178:23|142:77,1,119.999996337891
20,325,136072,6,0,B|98:361|98:361|149:342|149:342|197:364,1,179.999994506836,2|0,0:0|0:0,0:0:0:0:
350,325,136397,2,0,B|272:361|272:361|221:342|221:342|173:364,1,179.999994506836,2|0,0:0|0:0,0:0:0:0:
18,309,136721,6,0,B|96:345|96:345|147:326|147:326|195:348,1,179.999994506836,2|0,0:0|0:0,0:0:0:0:
348,309,137046,2,0,B|270:345|270:345|219:326|219:326|171:348,1,179.999994506836,2|0,0:0|0:0,0:0:0:0:
80,237,137370,6,0,B|15:207|15:207|-1:99,1,179.999994506836,2|0,0:0|0:0,0:0:0:0:
10,6,137694,2,0,B|75:36|75:36|91:144,1,179.999994506836,2|0,0:0|0:0,0:0:0:0:
146,270,138018,6,0,B|81:240|81:240|65:132,1,179.999994506836,2|0,0:0|0:0,0:0:0:0:
157,52,138343,1,2,0:0:0:0:
173,59,138424,1,0,0:0:0:0:
189,66,138505,1,0,0:0:0:0:
205,73,138586,1,0,0:0:0:0:
221,80,138667,5,2,0:0:0:0:
337,183,138829,1,0,0:0:0:0:
340,165,138910,1,0,0:0:0:0:
343,147,138991,2,0,B|354:81|354:81|328:17,1,119.999996337891
249,158,139316,5,0,0:0:0:0:
421,170,139478,1,0,0:0:0:0:
425,152,139559,1,0,0:0:0:0:
428,134,139640,2,0,L|450:6,1,119.999996337891
145,168,139964,6,0,P|175:233|233:263,1,119.999996337891,2|0,0:0|0:0,0:0:0:0:
362,275,140207,1,0,0:0:0:0:
362,275,140288,2,0,P|297:305|267:363,1,119.999996337891
455,320,140613,6,0,P|461:248|426:193,1,119.999996337891,2|0,0:0|0:0,0:0:0:0:
347,162,140856,1,0,0:0:0:0:
347,162,140937,2,0,P|340:233|375:288,1,119.999996337891
428,116,141261,6,0,L|384:65,1,59.9999981689454,2|0,0:0|0:0,0:0:0:0:
270,16,141424,2,0,L|314:67,1,59.9999981689454
347,162,141586,6,0,L|283:139,1,59.9999981689454,2|0,0:0|0:0,0:0:0:0:
160,154,141749,2,0,L|223:176,1,59.9999981689454
359,198,141910,6,0,L|295:175,1,59.9999981689454,2|0,0:0|0:0,0:0:0:0:
172,190,142073,2,0,L|235:212,1,59.9999981689454
423,152,142234,6,0,L|379:101,1,59.9999981689454,2|0,0:0|0:0,0:0:0:0:
265,52,142397,2,0,L|309:103,1,59.9999981689454
392,290,142559,6,0,L|335:318,1,59.9999981689454,2|0,0:0|0:0,0:0:0:0:
160,290,142721,2,0,L|217:318,1,59.9999981689454
419,309,142883,6,0,L|350:343,1,59.9999981689454,2|0,0:0|0:0,0:0:0:0:
140,309,143045,2,0,L|209:343,1,59.9999981689454
280,242,143207,1,0,0:0:0:0:
172,190,143370,1,0,0:0:0:0:
282,361,143532,1,0,0:0:0:0:
388,186,143694,1,0,0:0:0:0:
175,21,143856,6,0,B|173:85|173:85|299:146,1,179.999994506836,2|0,0:0|0:0,0:0:0:0:
299,144,144180,1,0,0:0:0:0:
64,38,144343,1,0,0:0:0:0:
64,38,144424,1,0,0:0:0:0:
64,38,144505,2,0,L|58:166,1,119.999996337891,2|0,0:0|0:0,0:0:0:0:
149,330,144829,2,0,B|156:185,1,119.999996337891,2|0,0:0|0:0,0:0:0:0:
256,247,145153,6,0,B|291:303|291:303|350:326,1,119.999996337891,2|0,0:0|0:0,0:0:0:0:
487,302,145478,2,0,B|431:337|431:337|408:396,1,119.999996337891,2|0,0:0|0:0,0:0:0:0:
343,235,145802,5,2,0:0:0:0:
349,211,145883,1,0,0:0:0:0:
360,189,145964,1,0,0:0:0:0:
375,170,146045,1,0,0:0:0:0:
414,143,146126,5,2,0:0:0:0:
378,144,146207,1,0,0:0:0:0:
343,132,146288,1,0,0:0:0:0:
315,108,146370,1,0,0:0:0:0:
278,60,146451,6,0,B|230:154|116:130,1,179.999994506836,2|0,0:0|0:0,0:0:0:0:
105,124,146775,1,0,0:0:0:0:
265,193,146937,6,0,B|159:187|123:298,1,179.999994506836,2|0,0:0|0:0,0:0:0:0:
123,310,147261,1,0,0:0:0:0:
254,326,147424,1,0,0:0:0:0:
381,291,147586,6,0,P|356:217|382:106,1,179.999994506836,2|0,0:0|0:0,0:0:0:0:
387,98,147910,1,0,0:0:0:0:
451,196,148072,5,2,0:0:0:0:
254,326,148234,1,0,0:0:0:0:
462,323,148397,5,2,0:0:0:0:
265,193,148559,1,0,0:0:0:0:
451,196,148721,5,2,0:0:0:0:
254,326,148883,1,0,0:0:0:0:
59,158,149045,6,0,B|86:92|86:92|149:62,1,119.999996337891,2|0,0:0|0:0,0:0:0:0:
265,193,149370,1,0,0:0:0:0:
154,147,149532,5,0,0:0:0:0:
176,137,149613,1,0,0:0:0:0:
197,127,149694,2,0,L|327:68,1,119.999996337891,2|0,0:0|0:0,0:0:0:0:
451,196,150018,2,0,L|321:255,1,119.999996337891,2|0,0:0|0:0,0:0:0:0:
133,261,150343,6,0,B|195:259|195:259|254:304,1,119.999996337891,2|0,0:0|0:0,0:0:0:0:
372,346,150667,2,0,B|310:348|310:348|250:304,1,119.999996337891,2|0,0:0|0:0,0:0:0:0:
265,193,150991,5,2,0:0:0:0:
265,169,151072,1,0,0:0:0:0:
294,148,151153,1,0,0:0:0:0:
306,127,151234,1,0,0:0:0:0:
295,92,151316,5,2,0:0:0:0:
271,92,151397,1,0,0:0:0:0:
248,84,151478,1,0,0:0:0:0:
228,70,151559,1,0,0:0:0:0:
197,33,151640,6,0,P|144:83|32:119,1,179.999994506836,2|0,0:0|0:0,0:0:0:0:
20,118,151964,1,0,0:0:0:0:
182,163,152126,6,0,P|112:183|25:262,1,179.999994506836,2|0,0:0|0:0,0:0:0:0:
19,273,152450,1,0,0:0:0:0:
134,338,152613,1,0,0:0:0:0:
260,300,152775,6,0,P|257:220|317:127,1,179.999994506836,2|0,0:0|0:0,0:0:0:0:
445,185,153099,1,0,0:0:0:0:
445,185,153180,1,0,0:0:0:0:
445,185,153261,2,0,P|396:229|338:233,1,119.999996337891
394,98,153586,5,2,0:0:0:0:
494,275,153748,1,0,0:0:0:0:
485,113,153910,5,2,0:0:0:0:
374,310,154072,1,0,0:0:0:0:
302,119,154234,6,0,B|276:46|276:46|167:4,1,179.999994506836,2|2,0:0|0:0,0:0:0:0:
100,59,154559,2,0,L|214:102,1,119.999996337891
387,137,154883,6,0,B|348:194|348:194|348:253,1,119.999996337891,2|0,0:0|0:0,0:0:0:0:
508,307,155207,2,0,B|478:244|478:244|427:215,1,119.999996337891,2|0,0:0|0:0,0:0:0:0:
264,196,155532,6,0,B|227:248|227:248|166:277,1,119.999996337891,2|0,0:0|0:0,0:0:0:0:
62,356,155856,2,0,B|98:303|98:303|158:276,1,119.999996337891,2|0,0:0|0:0,0:0:0:0:
148,175,156180,5,2,0:0:0:0:
156,152,156261,1,0,0:0:0:0:
171,133,156343,1,0,0:0:0:0:
190,118,156424,1,0,0:0:0:0:
201,71,156505,5,2,0:0:0:0:
232,88,156586,1,0,0:0:0:0:
267,92,156667,1,0,0:0:0:0:
302,87,156748,1,0,0:0:0:0:
353,56,156829,6,0,P|358:130|430:223,1,179.999994506836
439,223,157153,1,0,0:0:0:0:
264,196,157316,6,0,P|325:237|370:346,1,179.999994506836,2|0,0:0|0:0,0:0:0:0:
365,353,157640,1,0,0:0:0:0:
222,368,157802,1,0,0:0:0:0:
95,299,157964,6,0,P|141:254|176:134,1,179.999994506836,2|0,0:0|0:0,0:0:0:0:
175,122,158288,1,0,0:0:0:0:
51,196,158451,5,2,0:0:0:0:
247,284,158613,1,0,0:0:0:0:
10,282,158775,5,2,0:0:0:0:
253,174,158937,1,0,0:0:0:0:
51,196,159099,5,2,0:0:0:0:
247,284,159261,1,0,0:0:0:0:
430,167,159424,6,0,B|416:101|416:101|324:19,1,179.999994506836,2|0,0:0|0:0,0:0:0:0:
256,62,159748,2,0,L|354:151,1,119.999996337891
443,278,160072,6,0,B|379:273|379:273|339:318,1,119.999996337891,2|0,0:0|0:0,0:0:0:0:
145,320,160397,2,0,B|209:325|209:325|249:280,1,119.999996337891,2|0,0:0|0:0,0:0:0:0:
147,128,160721,6,0,B|142:195|142:195|170:242,1,119.999996337891,2|0,0:0|0:0,0:0:0:0:
233,169,161045,1,2,0:0:0:0:
242,157,161126,1,0,0:0:0:0:
251,149,161207,1,0,0:0:0:0:
259,140,161288,1,0,0:0:0:0:
283,113,161370,5,2,0:0:0:0:
300,129,161451,1,0,0:0:0:0:
322,138,161532,1,0,0:0:0:0:
345,142,161613,1,0,0:0:0:0:
390,127,161694,5,2,0:0:0:0:
378,160,161775,1,0,0:0:0:0:
378,195,161856,1,0,0:0:0:0:
383,230,161937,1,0,0:0:0:0:
405,285,162018,6,0,P|319:289|228:336,1,179.999994506836,2|0,0:0|0:0,0:0:0:0:
218,346,162343,1,0,0:0:0:0:
286,210,162505,6,0,P|200:206|109:159,1,179.999994506836,2|0,0:0|0:0,0:0:0:0:
99,149,162830,1,0,0:0:0:0:
208,56,162991,1,0,0:0:0:0:
351,41,163153,6,0,P|363:127|439:216,1,179.999994506836,2|0,0:0|0:0,0:0:0:0:
436,211,163478,1,0,0:0:0:0:
484,86,163640,1,0,0:0:0:0:
208,56,163802,1,0,0:0:0:0:
226,174,163964,6,0,L|275:268,1,79.9999975585938,8|0,0:0|0:0,0:0:0:0:
134,308,164180,2,0,L|191:217,1,79.9999975585938,8|0,0:0|0:0,0:0:0:0:
301,322,164397,2,0,L|195:317,1,79.9999975585938,8|0,0:0|0:0,0:0:0:0:
91,223,164613,5,2,0:0:0:0:
63,148,164721,1,0,0:0:0:0:
141,162,164829,1,0,0:0:0:0:
34,291,164937,2,0,L|-4:193,2,79.9999975585938
169,236,165261,5,2,0:0:0:0:
118,297,165369,1,0,0:0:0:0:
91,223,165477,1,0,0:0:0:0:
256,251,165585,2,0,L|190:332,2,79.9999975585938
141,162,165910,5,2,0:0:0:0:
219,175,166018,1,0,0:0:0:0:
169,236,166126,1,0,0:0:0:0:
110,79,166234,2,0,L|213:95,2,79.9999975585938
342,29,166559,6,0,L|388:123,1,79.9999975585938,8|0,0:0|0:0,0:0:0:0:
285,216,166775,2,0,P|298:170|290:136,1,79.9999975585938,8|0,0:0|0:0,0:0:0:0:
399,237,166991,2,0,L|354:303,1,79.9999975585938,8|0,0:0|0:0,0:0:0:0:
137,334,167207,5,2,0:0:0:0:
108,318,167316,1,0,0:0:0:0:
86,294,167424,1,0,0:0:0:0:
74,264,167532,1,0,0:0:0:0:
68,232,167640,1,0,0:0:0:0:
73,200,167748,1,0,0:0:0:0:
46,121,167856,5,2,0:0:0:0:
85,147,167964,1,0,0:0:0:0:
132,146,168072,1,0,0:0:0:0:
175,124,168180,1,0,0:0:0:0:
202,84,168288,1,0,0:0:0:0:
201,35,168397,1,0,0:0:0:0:
275,20,168505,5,2,0:0:0:0:
277,67,168613,1,0,0:0:0:0:
279,114,168721,1,0,0:0:0:0:
281,161,168829,1,0,0:0:0:0:
283,208,168937,1,0,0:0:0:0:
285,255,169045,1,0,0:0:0:0:
289,339,169153,6,0,L|380:312,1,79.9999975585938,8|0,0:0|0:0,0:0:0:0:
215,297,169370,2,0,L|192:389,1,79.9999975585938,8|0,0:0|0:0,0:0:0:0:
285,255,169586,2,0,L|216:189,1,79.9999975585938,8|0,0:0|0:0,0:0:0:0:
104,185,169802,5,2,0:0:0:0:
160,241,169910,1,0,0:0:0:0:
215,297,170018,1,0,0:0:0:0:
136,314,170126,2,0,L|76:256,2,79.9999975585938
215,297,170451,5,2,0:0:0:0:
235,220,170559,1,0,0:0:0:0:
256,144,170667,1,0,0:0:0:0:
310,204,170775,2,0,L|289:284,2,79.9999975585938
256,144,171099,5,2,0:0:0:0:
179,165,171207,1,0,0:0:0:0:
102,184,171315,1,0,0:0:0:0:
127,108,171423,2,0,L|207:85,2,79.9999975585938
102,184,171748,6,0,L|74:267,1,79.9999975585938,8|0,0:0|0:0,0:0:0:0:
232,221,171964,2,0,L|319:201,1,79.9999975585938,8|0,0:0|0:0,0:0:0:0:
203,85,172180,2,0,L|145:19,1,79.9999975585938,8|0,0:0|0:0,0:0:0:0:
102,184,172397,5,2,0:0:0:0:
132,176,172505,1,0,0:0:0:0:
163,168,172613,1,0,0:0:0:0:
193,160,172721,1,0,0:0:0:0:
224,153,172829,1,0,0:0:0:0:
255,143,172937,1,0,0:0:0:0:
313,69,173045,5,2,0:0:0:0:
326,115,173153,1,0,0:0:0:0:
362,146,173261,1,0,0:0:0:0:
447,147,173370,5,2,0:0:0:0:
432,175,173478,1,0,0:0:0:0:
415,202,173586,1,0,0:0:0:0:
373,271,173694,6,0,L|342:324,3,59.9999981689454,2|0|0|0,0:0|0:0|0:0|0:0,0:0:0:0:
268,272,174018,2,0,L|258:212,3,59.9999981689454
191,341,174343,5,2,0:0:0:0:
185,293,174424,1,0,0:0:0:0:
164,249,174505,1,0,0:0:0:0:
127,217,174586,1,0,0:0:0:0:
82,199,174667,1,0,0:0:0:0:
44,169,174748,1,0,0:0:0:0:
20,127,174829,1,0,0:0:0:0:
18,79,174910,1,0,0:0:0:0:
39,26,174991,6,0,B|93:64|112:115|112:115|142:96,1,150,6|0,0:0|0:0,0:0:0:0:
254,149,175316,2,0,B|194:121|140:130|140:130|141:94,1,150
129,0,175640,6,0,B|142:49|142:49|141:109,1,100
220,39,175964,2,0,B|184:74|184:74|131:103,1,100
311,65,176288,6,0,B|364:102|349:165|349:165|357:199,1,150,2|0,0:0|0:0,0:0:0:0:
321,288,176613,2,0,P|329:239|356:198,1,100
460,139,176937,5,2,0:0:0:0:
256,147,177099,1,0,0:0:0:0:
415,58,177261,5,2,0:0:0:0:
218,239,177423,1,0,0:0:0:0:
203,252,177505,1,0,0:0:0:0:
188,265,177586,6,0,P|132:251|36:278,1,150,2|0,0:0|0:0,0:0:0:0:
31,132,177910,2,0,B|57:185|57:185|24:242|53:296,1,150
141,172,178234,2,0,L|88:66,1,100
223,17,178559,6,0,B|250:69|250:69|308:48|357:99,1,150,2|0,0:0|0:0,0:0:0:0:
450,17,178883,2,0,B|423:69|423:69|365:48|316:99,1,150
283,147,179207,1,0,0:0:0:0:
395,147,179370,5,0,0:0:0:0:
406,163,179451,1,0,0:0:0:0:
417,179,179532,1,2,0:0:0:0:
352,255,179694,1,0,0:0:0:0:
283,147,179856,1,2,0:0:0:0:
492,140,180018,1,0,0:0:0:0:
269,322,180180,6,0,B|200:301|191:243|191:243|148:224,1,150,2|0,0:0|0:0,0:0:0:0:
55,322,180505,2,0,B|124:301|133:243|133:243|176:224,1,150
107,158,180829,2,0,L|9:198,1,100
181,129,181153,6,0,P|246:103|332:122,1,150,2|0,0:0|0:0,0:0:0:0:
404,233,181478,2,0,P|348:189|322:105,1,150
383,45,181802,2,0,P|358:96|313:118,1,100
239,212,182126,6,0,L|311:351,1,150,2|0,0:0|0:0,0:0:0:0:
327,351,182451,1,0,0:0:0:0:
180,310,182613,1,0,0:0:0:0:
171,292,182694,1,0,0:0:0:0:
161,274,182775,6,0,B|134:221|134:221|155:161|133:109,1,150,2|0,0:0|0:0,0:0:0:0:
134,112,183099,1,0,0:0:0:0:
27,205,183261,1,0,0:0:0:0:
36,222,183343,1,0,0:0:0:0:
45,239,183424,2,0,L|96:337,1,100,2|0,0:0|0:0,0:0:0:0:
286,300,183748,2,0,L|235:202,1,100
289,82,184072,6,0,P|350:145|424:153,1,150,2|0,0:0|0:0,0:0:0:0:
428,149,184397,1,0,0:0:0:0:
402,242,184559,1,0,0:0:0:0:
397,261,184640,1,0,0:0:0:0:
391,280,184721,5,2,0:0:0:0:
383,58,184883,1,0,0:0:0:0:
330,220,185045,5,2,0:0:0:0:
478,54,185207,1,0,0:0:0:0:
190,64,185370,6,0,B|161:116|161:116|174:170|140:210,1,150,2|0,0:0|0:0,0:0:0:0:
23,282,185694,2,0,B|52:230|52:230|39:176|73:136,1,150
238,204,186018,6,0,P|191:219|144:201,1,100
190,64,186343,2,0,P|237:49|284:67,1,100
281,353,186667,6,0,B|348:286|436:315,1,150,2|0,0:0|0:0,0:0:0:0:
485,236,186991,2,0,B|407:322|407:322,1,100
238,204,187316,5,2,0:0:0:0:
369,152,187478,1,0,0:0:0:0:
281,353,187640,5,2,0:0:0:0:
130,258,187802,1,0,0:0:0:0:
113,246,187883,1,0,0:0:0:0:
96,235,187964,6,0,B|143:195|135:134|135:134|176:114,1,150,2|0,0:0|0:0,0:0:0:0:
178,36,188288,2,0,B|70:89|70:89|50:130,1,150
29,198,188613,2,0,P|65:161|38:99,1,100
249,171,188937,6,0,B|350:134|350:134|409:164,1,150,2|0,0:0|0:0,0:0:0:0:
448,149,189261,2,0,B|351:101|351:101|288:123,1,150
142,175,189586,2,0,L|245:140,1,100
347,225,189910,5,2,0:0:0:0:
204,272,190072,1,0,0:0:0:0:
124,42,190234,5,2,0:0:0:0:
236,142,190396,1,0,0:0:0:0:
204,272,190559,6,0,P|136:288|57:250,1,150,2|0,0:0|0:0,0:0:0:0:
7,129,190883,2,0,P|54:179|61:267,1,150
32,324,191207,2,0,P|83:352|135:361,1,100
142,175,191532,6,0,B|181:123|181:123|241:116|285:73,1,150,2|0,0:0|0:0,0:0:0:0:
377,175,191856,2,0,B|338:123|338:123|278:116|234:73,1,150
208,11,192180,2,0,P|225:61|264:96,1,100
480,197,192505,6,0,L|389:63,1,150,2|0,0:0|0:0,0:0:0:0:
404,54,192829,1,0,0:0:0:0:
362,249,192991,1,0,0:0:0:0:
358,268,193072,1,0,0:0:0:0:
354,287,193153,6,0,P|298:277|199:295,1,150,2|0,0:0|0:0,0:0:0:0:
189,302,193478,1,0,0:0:0:0:
67,183,193640,1,0,0:0:0:0:
62,202,193721,1,0,0:0:0:0:
58,221,193802,2,0,P|84:270|93:322,1,100,2|0,0:0|0:0,0:0:0:0:
180,208,194126,2,0,P|154:159|145:107,1,100
419,141,194451,5,2,0:0:0:0:
286,107,194613,2,0,P|346:150|419:141,1,150
332,241,194937,1,0,0:0:0:0:
319,256,195018,1,0,0:0:0:0:
307,271,195099,5,2,0:0:0:0:
483,68,195261,1,0,0:0:0:0:
470,206,195424,5,2,0:0:0:0:
312,19,195586,1,0,0:0:0:0:
180,208,195748,6,0,B|142:256|142:256|79:268|74:318,1,150,2|0,0:0|0:0,0:0:0:0:
0,184,196072,2,0,B|24:240|24:240|82:268|73:317,1,150
244,282,196397,6,0,L|310:199,1,100
179,63,196721,2,0,L|113:146,1,100
347,330,197045,6,0,P|398:295|488:319,1,150,2|0,0:0|0:0,0:0:0:0:
460,215,197370,2,0,B|452:267|486:322,1,100
244,282,197694,5,2,0:0:0:0:
421,374,197856,1,0,0:0:0:0:
157,325,198018,5,2,0:0:0:0:
334,233,198180,1,0,0:0:0:0:
333,213,198261,1,0,0:0:0:0:
332,192,198343,6,0,B|331:140|331:140|274:55,1,150,2|0,0:0|0:0,0:0:0:0:
103,141,198667,2,0,B|148:166|148:166|250:159,1,150
376,52,198991,2,0,L|261:59,1,100
105,235,199316,6,0,B|151:258|151:258|213:229|267:269,1,150,2|0,0:0|0:0,0:0:0:0:
343,357,199640,2,0,B|297:334|297:334|235:363|181:323,1,150
247,160,199964,2,0,P|258:219|239:266,1,100
93,324,200288,5,2,0:0:0:0:
119,147,200451,1,0,0:0:0:0:
245,255,200613,5,2,0:0:0:0:
250,71,200776,1,0,0:0:0:0:
417,235,200937,6,0,B|464:261|464:261|407:152,1,150,2|0,0:0|0:0,0:0:0:0:
369,38,201261,2,0,B|422:144|422:144|418:186,1,150
451,339,201586,2,0,L|356:285,1,100
303,106,201910,6,0,P|324:164|277:252,1,150,2|0,0:0|0:0,0:0:0:0:
116,227,202234,2,0,P|155:179|255:176,1,150
272,322,202559,2,0,P|224:295|207:245,1,100
219,30,202883,6,0,B|205:113|205:113|246:180,1,150,2|0,0:0|0:0,0:0:0:0:
251,184,203207,1,0,0:0:0:0:
121,80,203370,1,0,0:0:0:0:
116,99,203451,1,0,0:0:0:0:
110,118,203532,6,0,B|95:174|95:174|122:221|122:221|100:288,1,150,2|0,0:0|0:0,0:0:0:0:
105,275,203856,1,0,0:0:0:0:
235,379,204018,1,0,0:0:0:0:
241,359,204099,1,0,0:0:0:0:
248,340,204180,6,0,B|263:284|263:284|308:262,1,100,2|0,0:0|0:0,0:0:0:0:
303,109,204505,2,0,B|288:165|288:165|243:187,1,100
343,358,204829,5,2,0:0:0:0:
435,201,204991,1,0,0:0:0:0:
486,284,205153,5,2,0:0:0:0:
394,127,205315,1,0,0:0:0:0:
398,107,205397,1,0,0:0:0:0:
403,87,205478,5,2,0:0:0:0:
367,260,205640,1,0,0:0:0:0:
393,0,205802,5,2,0:0:0:0:
435,202,205964,1,0,0:0:0:0:
214,109,206126,6,0,B|164:131|164:131|131:230,1,150,2|0,0:0|0:0,0:0:0:0:
120,358,206451,2,0,B|152:313|152:313|131:211,1,150
105,56,206775,6,0,L|69:165,1,100
242,342,207099,2,0,L|219:227,1,100
339,83,207424,6,0,B|326:121|326:121|380:160|363:228,1,150,2|0,0:0|0:0,0:0:0:0:
378,311,207748,2,0,P|358:258|369:208,1,100
442,88,208072,5,2,0:0:0:0:
284,201,208234,1,0,0:0:0:0:
440,253,208397,5,2,0:0:0:0:
250,117,208559,1,0,0:0:0:0:
233,105,208640,1,0,0:0:0:0:
217,93,208721,6,0,P|140:128|120:204,1,150,2|0,0:0|0:0,0:0:0:0:
148,279,209045,2,0,B|147:224|115:180,1,100
72,358,209370,2,0,P|60:304|69:252,1,100
244,221,209694,6,0,B|244:255|244:255|292:264|311:301|311:301|348:287,1,150,2|0,0:0|0:0,0:0:0:0:
443,228,210018,2,0,B|439:261|439:261|391:268|370:303|370:303|341:290,1,150
341,189,210343,2,0,L|339:302,1,100
442,352,210667,5,2,0:0:0:0:
237,338,210829,1,0,0:0:0:0:
469,374,210991,5,2,0:0:0:0:
218,358,211153,1,0,0:0:0:0:
342,190,211316,6,0,B|405:127|405:127|469:143,1,150,2|0,0:0|0:0,0:0:0:0:
483,11,211640,2,0,B|506:97|506:97|460:144,1,150
319,95,211964,2,0,L|399:10,1,100
432,228,212288,6,2,B|355:277|346:367,1,150,2|0,0:0|0:0,0:0:0:0:
203,335,212613,2,0,B|289:377|366:339,1,150
476,312,212937,2,0,B|480:252|412:216,1,100
223,114,213261,6,0,P|272:172|367:185,1,150,2|0,0:0|0:0,0:0:0:0:
361,184,213586,1,0,0:0:0:0:
151,159,213748,1,0,0:0:0:0:
159,176,213829,1,0,0:0:0:0:
169,192,213910,6,0,B|197:240|197:240|202:346,1,150,2|0,0:0|0:0,0:0:0:0:
188,348,214234,1,0,0:0:0:0:
298,255,214397,1,0,0:0:0:0:
297,274,214478,1,0,0:0:0:0:
298,293,214559,6,0,B|326:345|376:349,1,100,2|0,0:0|0:0,0:0:0:0:
361,184,214883,2,0,B|332:131|282:127,1,100
397,263,215207,5,2,0:0:0:0:
416,114,215370,1,0,0:0:0:0:
469,183,215532,5,2,0:0:0:0:
441,33,215695,1,0,0:0:0:0:
421,31,215775,1,0,0:0:0:0:
401,29,215856,5,2,0:0:0:0:
361,184,216018,1,0,0:0:0:0:
416,114,216180,5,2,0:0:0:0:
397,263,216343,1,0,0:0:0:0:
287,75,216505,6,0,L|253:222,1,150
241,300,216829,1,0,0:0:0:0:
241,300,216991,1,0,0:0:0:0:
211,102,217153,6,0,L|177:258,1,150
165,327,217477,1,0,0:0:0:0:
165,327,217639,1,0,0:0:0:0:
136,123,217802,6,0,L|102:279,1,150
90,348,218126,1,0,0:0:0:0:
90,348,218288,1,0,0:0:0:0:
41,131,218451,6,0,L|-2:332,1,200
238,145,218937,2,0,L|250:92,1,50
287,75,219099,2,0,L|256:218,1,133.333333333333
172,243,219424,2,0,L|101:274,2,66.6666666666667
99,184,219748,2,0,L|37:210,2,66.6666666666667
258,205,220072,5,0,0:0:0:0:
238,296,220180,1,0,0:0:0:0:
172,243,220288,1,0,0:0:0:0:
342,297,220397,6,0,L|371:348,3,50
426,289,220721,1,0,0:0:0:0:
438,282,220802,1,0,0:0:0:0:
452,279,220883,1,0,0:0:0:0:
467,279,220964,1,0,0:0:0:0:
476,251,221045,5,2,0:0:0:0:
453,231,221126,1,0,0:0:0:0:
445,202,221207,1,0,0:0:0:0:
446,172,221288,1,0,0:0:0:0:
460,145,221370,1,0,0:0:0:0:
461,115,221451,1,0,0:0:0:0:
453,86,221532,1,0,0:0:0:0:
436,61,221613,1,0,0:0:0:0:
436,61,222991,5,6,0:0:0:0:
318,181,223153,1,0,0:0:0:0:
299,189,223234,1,0,0:0:0:0:
273,172,223316,1,0,0:0:0:0:
254,164,223397,1,0,0:0:0:0:
225,171,223478,2,0,P|218:105|184:58,1,100
31,60,223802,5,0,0:0:0:0:
35,89,223883,1,0,0:0:0:0:
40,120,223964,2,0,P|89:123|133:145,1,100
395,133,224288,6,0,P|401:192|387:241,1,100,2|0,0:0|0:0,0:0:0:0:
439,351,224532,1,0,0:0:0:0:
439,351,224613,2,0,P|457:304|491:267,1,100
489,115,224937,6,0,P|429:114|385:141,1,100,2|0,0:0|0:0,0:0:0:0:
339,314,225180,1,0,0:0:0:0:
339,314,225261,2,0,P|372:276|391:230,1,100
297,0,225586,6,0,B|255:23|255:23|261:60|261:60|250:98|250:98|265:132|265:132|241:175,1,200
182,276,225829,1,0,0:0:0:0:
171,293,225910,2,0,B|142:342|142:342|145:391,1,100
260,294,226234,5,2,0:0:0:0:
161,119,226396,1,0,0:0:0:0:
151,102,226477,1,0,0:0:0:0:
142,84,226558,2,0,B|114:34|114:34|70:12,1,100
40,174,226883,5,2,0:0:0:0:
239,172,227045,1,0,0:0:0:0:
258,172,227126,1,0,0:0:0:0:
278,173,227207,2,0,B|334:173|334:173|375:146,1,100
436,38,227532,5,2,0:0:0:0:
436,57,227613,1,0,0:0:0:0:
438,76,227694,1,0,0:0:0:0:
444,94,227775,1,0,0:0:0:0:
463,128,227856,5,0,0:0:0:0:
454,156,227937,1,0,0:0:0:0:
449,185,228018,1,0,0:0:0:0:
449,214,228099,1,0,0:0:0:0:
458,263,228180,5,2,0:0:0:0:
279,79,228343,1,0,0:0:0:0:
260,71,228424,1,0,0:0:0:0:
234,88,228506,1,0,0:0:0:0:
215,96,228587,1,0,0:0:0:0:
186,89,228668,2,0,P|179:155|145:202,1,100
0,200,228992,5,0,0:0:0:0:
4,171,229073,1,0,0:0:0:0:
8,141,229154,2,0,P|57:137|101:113,1,100
355,36,229478,6,0,P|361:95|347:144,1,100,2|0,0:0|0:0,0:0:0:0:
300,217,229722,1,0,0:0:0:0:
300,217,229803,2,0,P|318:170|352:133,1,100
465,313,230127,6,0,P|405:312|361:339,1,100,2|0,0:0|0:0,0:0:0:0:
170,335,230370,1,0,0:0:0:0:
170,335,230451,2,0,P|230:336|274:309,1,100,2|0,0:0|0:0,0:0:0:0:
97,29,230775,6,0,B|150:7|150:7|181:31|181:31|210:40|210:40|254:104,1,200
334,222,231018,1,0,0:0:0:0:
345,239,231099,2,0,B|374:288|374:288|371:337,1,100
38,311,231423,5,2,0:0:0:0:
137,136,231585,1,0,0:0:0:0:
147,119,231666,1,0,0:0:0:0:
156,101,231747,2,0,B|183:51|183:51|227:29,1,100
371,330,232072,5,2,0:0:0:0:
169,333,232234,1,0,0:0:0:0:
150,333,232315,1,0,0:0:0:0:
130,334,232396,2,0,B|73:334|73:334|32:307,1,100
216,205,232721,6,0,L|186:261,1,50,8|0,0:0|0:0,0:0:0:0:
137,136,232883,2,0,L|113:91,1,50
108,223,233045,6,0,L|32:182,1,50,8|0,0:0|0:0,0:0:0:0:
230,110,233207,2,0,L|289:78,1,50
319,195,233370,5,2,0:0:0:0:
224,328,233533,1,0,0:0:0:0:
205,336,233614,1,0,0:0:0:0:
179,319,233694,1,0,0:0:0:0:
160,311,233775,1,0,0:0:0:0:
131,317,233856,2,0,P|129:267|107:222,1,100
34,50,234180,5,0,0:0:0:0:
38,79,234261,1,0,0:0:0:0:
42,108,234344,2,0,P|91:111|135:134,1,100
294,27,234667,6,0,P|300:86|287:134,1,100,2|0,0:0|0:0,0:0:0:0:
341,237,234911,1,0,0:0:0:0:
341,237,234992,2,0,P|352:187|379:145,1,100
462,95,235316,6,0,P|407:119|372:155,1,100,2|0,0:0|0:0,0:0:0:0:
247,213,235560,1,0,0:0:0:0:
247,213,235641,2,0,P|277:173|292:126,1,100
467,204,235964,6,0,B|417:239|433:298|433:298|418:347,1,150,2|0,0:0|0:0,0:0:0:0:
281,310,236288,2,0,B|336:284|379:327|379:327|429:339,1,150,2|0,0:0|0:0,0:0:0:0:
484,238,236613,6,0,B|434:273|450:332|450:332|435:381,1,150,2|0,0:0|0:0,0:0:0:0:
298,344,236937,2,0,B|353:318|396:361|396:361|446:373,1,150,2|0,0:0|0:0,0:0:0:0:
366,255,237261,6,0,B|316:228|316:228|252:233|252:233|222:217,1,150,2|0,0:0|0:0,0:0:0:0:
127,125,237586,2,0,B|177:152|177:152|241:147|241:147|271:163,1,150,2|0,0:0|0:0,0:0:0:0:
203,291,237910,5,2,0:0:0:0:
184,282,237991,1,0,0:0:0:0:
165,273,238072,1,0,0:0:0:0:
146,264,238153,1,0,0:0:0:0:
106,267,238234,5,2,0:0:0:0:
89,241,238316,1,0,0:0:0:0:
75,214,238397,1,0,0:0:0:0:
60,187,238478,1,0,0:0:0:0:
38,142,238559,5,2,0:0:0:0:
275,29,238721,1,0,0:0:0:0:
278,48,238802,1,0,0:0:0:0:
281,67,238883,2,0,B|289:124|289:124|259:171,1,100
207,109,239207,5,0,0:0:0:0:
364,28,239370,1,0,0:0:0:0:
367,47,239451,1,0,0:0:0:0:
371,66,239532,2,0,L|390:184,1,100
492,253,239856,6,0,P|428:240|380:260,1,100,2|0,0:0|0:0,0:0:0:0:
214,223,240099,1,0,0:0:0:0:
214,223,240180,2,0,P|278:236|326:216,1,100
471,120,240505,6,0,P|409:140|377:182,1,100,2|0,0:0|0:0,0:0:0:0:
245,359,240748,1,0,0:0:0:0:
245,359,240829,2,0,P|306:338|338:296,1,100
289,130,241153,6,0,L|243:94,1,50,2|0,0:0|0:0,0:0:0:0:
104,132,241316,2,0,L|150:96,1,50
197,212,241478,6,0,L|151:176,1,50,2|0,0:0|0:0,0:0:0:0:
12,214,241641,2,0,L|58:178,1,50
331,130,241802,6,0,L|285:94,1,50,2|0,0:0|0:0,0:0:0:0:
146,132,241965,2,0,L|192:96,1,50
239,212,242126,6,0,L|193:176,1,50,2|0,0:0|0:0,0:0:0:0:
54,214,242288,2,0,L|100:178,1,50
335,218,242451,6,0,L|381:252,1,50,2|0,0:0|0:0,0:0:0:0:
155,331,242613,2,0,L|147:281,1,50
472,232,242775,6,0,L|518:266,1,50,2|0,0:0|0:0,0:0:0:0:
292,345,242937,2,0,L|284:295,1,50
427,312,243099,6,0,L|420:368,1,50,2|0,0:0|0:0,0:0:0:0:
335,218,243261,2,0,L|374:186,1,50
179,297,243424,5,2,0:0:0:0:
147,272,243505,1,0,0:0:0:0:
115,247,243586,1,0,0:0:0:0:
82,223,243667,1,0,0:0:0:0:
48,200,243748,6,0,B|93:197|119:160|119:160|142:152|142:152|154:132|154:132|199:125|217:81,1,200,6|0,0:0|0:0,0:0:0:0:
43,190,244397,6,0,B|88:187|114:150|114:150|137:142|137:142|149:122|149:122|194:115,1,150
194,90,244721,1,2,0:0:0:0:
87,82,244883,1,0,0:0:0:0:
179,297,245045,5,2,0:0:0:0:
296,144,245207,1,0,0:0:0:0:
335,302,245370,5,2,0:0:0:0:
357,135,245532,1,0,0:0:0:0:
174,254,245694,5,2,0:0:0:0:
288,103,245856,1,0,0:0:0:0:
366,276,246019,5,2,0:0:0:0:
386,101,246181,1,0,0:0:0:0:
169,213,246343,5,2,0:0:0:0:
150,221,246424,1,0,0:0:0:0:
118,196,246505,1,0,0:0:0:0:
99,188,246586,1,0,0:0:0:0:
85,150,246667,5,2,0:0:0:0:
104,158,246748,1,0,0:0:0:0:
136,133,246829,1,0,0:0:0:0:
155,125,246910,1,0,0:0:0:0:
192,110,246991,6,0,L|152:64,1,50,8|0,0:0|0:0,0:0:0:0:
308,64,247153,2,0,L|348:18,1,50,8|0,0:0|0:0,0:0:0:0:
341,74,247316,6,0,L|381:28,1,50,8|0,0:0|0:0,0:0:0:0:
225,120,247478,2,0,L|185:74,1,50,8|0,0:0|0:0,0:0:0:0:
369,79,247640,6,0,L|424:93,3,50,2|0|0|0,0:0|0:0|0:0|0:0,0:0:0:0:
419,172,247964,2,0,L|474:186,3,50,2|0|0|0,0:0|0:0|0:0|0:0,0:0:0:0:
308,174,248288,5,2,0:0:0:0:
269,185,248370,1,0,0:0:0:0:
239,211,248451,1,0,0:0:0:0:
224,248,248532,1,0,0:0:0:0:
233,307,248613,5,2,0:0:0:0:
200,284,248694,1,0,0:0:0:0:
160,277,248775,1,0,0:0:0:0:
120,282,248856,1,0,0:0:0:0:
68,313,248937,6,0,B|81:258|59:207|59:207|37:155|56:90,1,200,6|0,0:0|0:0,0:0:0:0:
67,81,249424,1,0,0:0:0:0:
314,264,249586,6,0,P|323:320|309:374,1,100,2|0,0:0|0:0,0:0:0:0:
216,264,249910,2,0,P|207:208|221:154,1,100,2|0,0:0|0:0,0:0:0:0:
314,361,250234,6,0,P|258:370|204:356,1,100,2|0,0:0|0:0,0:0:0:0:
216,264,250559,2,0,P|272:255|326:269,1,100,2|0,0:0|0:0,0:0:0:0:
411,340,250802,1,0,0:0:0:0:
411,340,250883,2,0,L|410:228,1,100,2|0,0:0|0:0,0:0:0:0:
409,128,251207,2,0,P|450:128|486:146,2,66.6666666666667
362,50,251532,6,0,P|301:98|282:129,1,100,2|0,0:0|0:0,0:0:0:0:
205,202,251857,2,0,P|266:154|285:123,1,100
345,202,252180,6,0,P|284:250|265:281,1,100,2|0,0:0|0:0,0:0:0:0:
188,354,252505,2,0,P|249:306|268:275,1,100
355,304,252829,5,2,0:0:0:0:
179,277,252991,1,0,0:0:0:0:
159,273,253072,1,0,0:0:0:0:
139,269,253153,1,0,0:0:0:0:
119,266,253234,1,0,0:0:0:0:
78,260,253316,2,0,L|114:214,1,50
345,202,253478,5,2,0:0:0:0:
315,197,253559,1,0,0:0:0:0:
285,192,253640,1,0,0:0:0:0:
255,187,253721,1,0,0:0:0:0:
206,176,253802,2,0,L|241:126,1,50
358,82,253964,2,0,L|323:132,1,50
113,133,254126,5,6,0:0:0:0:
75,165,254207,1,0,0:0:0:0:
62,213,254288,1,0,0:0:0:0:
78,260,254370,1,0,0:0:0:0:
141,290,254451,5,2,0:0:0:0:
101,296,254532,1,0,0:0:0:0:
95,335,254613,1,0,0:0:0:0:
126,359,254694,1,0,0:0:0:0:
184,346,254775,5,2,0:0:0:0:
211,333,254856,1,0,0:0:0:0:
240,327,254937,1,0,0:0:0:0:
269,330,255018,1,0,0:0:0:0:
314,351,255099,5,2,0:0:0:0:
306,332,255180,1,0,0:0:0:0:
331,301,255261,1,0,0:0:0:0:
339,282,255342,1,0,0:0:0:0:
327,243,255424,6,0,B|402:217|360:155|455:113,1,150,2|0,0:0|0:0,0:0:0:0:
460,125,255748,1,0,0:0:0:0:
305,164,255910,5,0,0:0:0:0:
274,138,255991,1,0,0:0:0:0:
242,113,256072,2,0,B|198:80|198:80|142:73,1,100,2|0,0:0|0:0,0:0:0:0:
274,25,256397,5,0,0:0:0:0:
210,203,256559,1,0,0:0:0:0:
66,36,256721,5,2,0:0:0:0:
47,82,256802,1,0,0:0:0:0:
99,127,256883,1,8,0:0:0:0:
118,173,256964,1,0,0:0:0:0:
76,216,257045,5,2,0:0:0:0:
61,253,257126,1,0,0:0:0:0:
103,289,257207,1,8,0:0:0:0:
118,326,257288,1,0,0:0:0:0:
140,371,257370,5,2,0:0:0:0:
152,341,257451,1,0,0:0:0:0:
196,319,257532,1,0,0:0:0:0:
181,282,257613,1,8,0:0:0:0:
196,235,257694,6,0,L|219:292,1,50,2|0,0:0|0:0,0:0:0:0:
325,354,257856,2,0,L|302:297,1,50
244,148,258018,6,0,L|218:82,2,66.6666666666667,2|0|0,0:0|0:0|0:0,0:0:0:0:
388,257,258343,2,0,L|412:319,2,66.6666666666667,2|0|0,0:0|0:0|0:0,0:0:0:0:
353,172,258667,5,2,0:0:0:0:
319,89,258775,1,0,0:0:0:0:
408,99,258883,1,0,0:0:0:0:
375,177,258991,5,2,0:0:0:0:
341,94,259099,1,0,0:0:0:0:
430,103,259207,1,0,0:0:0:0:
244,148,259316,6,0,B|221:91|221:91|268:17,1,150,2|0,0:0|0:0,0:0:0:0:
185,5,259640,2,0,L|122:97,1,100
133,301,259964,6,0,B|107:236|107:236|103:201|103:201|79:146,1,150.000005722046,2|0,0:0|0:0,0:0:0:0:
0,212,260207,1,0,0:0:0:0:
0,212,260288,2,0,L|60:364,1,150.000005722046
222,332,260613,6,0,P|286:311|373:338,1,150,2|0,0:0|0:0,0:0:0:0:
488,258,260937,1,0,0:0:0:0:
488,258,261018,2,0,L|520:314,2,50
398,242,261261,6,0,B|370:191|370:191|383:134,1,100,2|0,0:0|0:0,0:0:0:0:
360,58,261586,2,0,B|388:109|388:109|375:166,1,100
292,188,261910,6,0,L|307:124,1,66.6666666666667,2|0,0:0|0:0,0:0:0:0:
485,30,262126,1,0,0:0:0:0:
468,108,262234,2,0,L|453:172,1,66.6666666666667,2|0,0:0|0:0,0:0:0:0:
346,292,262451,5,0,0:0:0:0:
363,214,262559,2,0,L|378:150,1,66.6666666666667,2|0,0:0|0:0,0:0:0:0:
216,223,262775,1,0,0:0:0:0:
187,82,262883,2,0,L|208:12,2,66.6666666666667
155,164,263207,5,2,0:0:0:0:
147,192,263288,1,0,0:0:0:0:
139,221,263370,1,0,0:0:0:0:
130,249,263451,1,0,0:0:0:0:
112,306,263532,5,8,0:0:0:0:
115,315,263613,1,0,0:0:0:0:
119,323,263694,1,2,0:0:0:0:
148,318,263775,1,0,0:0:0:0:
177,325,263856,1,0,0:0:0:0:
202,340,263937,1,0,0:0:0:0:
243,367,264018,5,8,0:0:0:0:
251,372,264099,1,0,0:0:0:0:
259,377,264180,1,2,0:0:0:0:
308,367,264261,1,0,0:0:0:0:
342,329,264343,1,0,0:0:0:0:
351,280,264424,1,0,0:0:0:0:
336,221,264505,6,0,B|389:246|427:239|427:172|385:120|305:122|264:156|247:204|273:294|273:294|208:262|185:189|430:88|167:22|71:-14|41:188|126:233|217:166|164:126,1,800,4|0,0:0|0:0,0:0:0:0:
332,223,269045,5,2,0:0:0:0:
430,290,269207,1,0,0:3:0:0:
359,116,269370,1,0,0:3:0:0:
306,333,269532,1,0,0:3:0:0:
457,193,269694,6,0,L|484:86,1,100,4|0,0:0|0:0,0:0:0:0:
241,133,270018,2,0,L|214:240,1,100,2|0,0:0|0:0,0:0:0:0:
212,136,270343,5,10,0:0:0:0:
182,252,270505,1,2,0:0:0:0:
65,222,270667,1,0,0:0:0:0:
95,338,270829,1,2,0:0:0:0:
457,193,270991,6,0,L|484:86,1,100
241,133,271315,2,0,L|214:240,1,100,2|0,0:0|0:0,0:0:0:0:
212,136,271640,5,10,0:0:0:0:
182,252,271802,1,2,0:0:0:0:
303,351,271964,2,0,B|306:294|306:294|338:251|338:251|343:192,1,150,0|0,0:2|0:0,0:0:0:0:
375,162,272288,6,0,L|367:276,1,100
174,351,272613,2,0,L|182:237,1,100,2|0,0:0|0:0,0:0:0:0:
461,124,272937,5,10,0:0:0:0:
283,203,273099,2,0,L|291:89,1,100,2|0,0:0|0:0,0:0:0:0:
280,239,273424,1,2,0:0:0:0:
375,162,273586,5,0,0:0:0:0:
201,45,273748,1,0,0:0:0:0:
371,42,273910,1,0,0:0:0:0:
197,159,274072,1,2,0:0:0:0:
172,176,274153,1,0,0:0:0:0:
130,203,274234,5,8,0:0:0:0:
162,227,274316,1,0,0:0:0:0:
176,264,274397,1,0,0:0:0:0:
168,303,274478,1,0,0:0:0:0:
140,332,274559,1,0,0:0:0:0:
101,343,274640,1,0,0:0:0:0:
61,334,274721,1,0,0:0:0:0:
38,301,274802,1,0,0:0:0:0:
31,261,274883,6,0,B|37:202|37:202|22:150,1,100,4|0,0:0|0:0,0:0:0:0:
105,24,275207,2,0,B|99:83|99:83|114:135,1,100,2|0,0:0|0:0,0:0:0:0:
142,14,275532,5,10,0:0:0:0:
0,42,275694,1,2,0:0:0:0:
110,122,275856,5,0,0:0:0:0:
251,149,276018,1,2,0:0:0:0:
31,261,276180,6,0,B|37:202|37:202|22:150,1,100
105,24,276504,2,0,B|99:83|99:83|114:135,1,100,2|0,0:0|0:0,0:0:0:0:
142,14,276829,5,10,0:0:0:0:
0,42,276991,1,2,0:0:0:0:
110,122,277153,2,0,B|146:141|146:141|216:133|216:133|258:153,1,150,4|0,0:0|0:0,0:0:0:0:
238,184,277478,6,0,L|142:138,1,100
260,57,277802,2,0,L|356:103,1,100,2|0,0:0|0:0,0:0:0:0:
348,241,278126,5,10,0:0:0:0:
119,232,278288,2,0,P|148:179|145:131,1,100,2|0,0:0|0:0,0:0:0:0:
111,265,278613,1,0,0:0:0:0:
238,184,278775,5,2,0:0:0:0:
45,160,278937,1,0,0:0:0:0:
299,125,279099,5,0,0:0:0:0:
0,236,279261,1,2,0:0:0:0:
334,51,279424,5,0,0:0:0:0:
374,108,279586,1,8,0:3:0:0:
413,165,279748,1,0,0:3:0:0:
453,222,279910,1,0,0:3:0:0:
412,29,280072,6,0,L|449:82,3,50,4|0|0|0,0:0|0:0|0:0|0:0,0:0:0:0:
299,125,280397,2,0,L|336:178,3,50
218,268,280721,5,0,0:0:0:0:
215,287,280802,1,0,0:0:0:0:
212,306,280883,1,0,0:0:0:0:
188,287,280964,1,0,0:0:0:0:
159,278,281045,1,0,0:0:0:0:
129,280,281126,1,0,0:0:0:0:
103,295,281207,2,0,L|119:357,1,50
311,222,281370,6,0,L|302:279,1,50,2|0,0:0|0:0,0:0:0:0:
291,342,281532,2,0,L|300:285,1,50
448,285,281694,2,0,L|457:228,3,50
323,330,282018,6,0,L|332:266,1,50,2|0,0:0|0:0,0:0:0:0:
482,271,282180,2,0,L|491:207,1,50
371,187,282343,5,0,0:0:0:0:
357,149,282424,1,0,0:0:0:0:
317,118,282505,1,0,0:0:0:0:
331,80,282586,1,0,0:0:0:0:
302,38,282667,6,0,L|346:8,3,50,2|0|0|0,0:0|0:0|0:0|0:0,0:0:0:0:
140,35,282991,2,0,L|96:5,3,50
220,115,283316,5,0,0:0:0:0:
225,137,283397,1,0,0:0:0:0:
230,156,283478,1,0,0:0:0:0:
203,142,283559,1,0,0:0:0:0:
173,138,283640,1,0,0:0:0:0:
143,143,283721,1,0,0:0:0:0:
117,158,283802,2,0,L|128:101,1,50
176,223,283964,6,0,L|165:280,1,50,2|0,0:0|0:0,0:0:0:0:
53,308,284126,2,0,L|60:247,1,50
256,287,284288,6,0,L|210:339,1,50,2|0,0:0|0:0,0:0:0:0:
53,308,284450,2,0,L|98:255,1,50
319,368,284613,6,0,L|252:390,3,50,2|0|0|0,0:0|0:0|0:0|0:0,0:0:0:0:
166,272,284937,2,0,L|176:223,1,50,2|0,0:0|0:0,0:0:0:0:
256,287,285099,2,0,L|210:339,1,50
53,308,285261,6,0,L|34:253,3,50,2|0|0|0,0:0|0:0|0:0|0:0,0:0:0:0:
117,158,285586,2,0,L|73:119,3,50
127,4,285910,5,0,0:0:0:0:
136,21,285991,1,0,0:0:0:0:
145,38,286072,1,0,0:0:0:0:
174,32,286153,1,0,0:0:0:0:
203,34,286234,1,0,0:0:0:0:
231,44,286316,1,0,0:0:0:0:
254,62,286397,2,0,L|289:21,1,50
485,77,286559,6,0,L|450:118,1,50,2|0,0:0|0:0,0:0:0:0:
402,173,286721,2,0,L|437:132,1,50
350,112,286883,2,0,L|385:71,3,50
495,111,287207,6,0,L|460:152,1,50,2|0,0:0|0:0,0:0:0:0:
345,162,287370,2,0,L|380:121,1,50
412,223,287532,5,0,0:0:0:0:
398,261,287613,1,0,0:0:0:0:
409,310,287694,1,0,0:0:0:0:
373,330,287775,1,0,0:0:0:0:
369,381,287856,6,0,L|316:375,3,50,2|0|0|0,0:0|0:0|0:0|0:0,0:0:0:0:
315,273,288180,2,0,L|266:294,3,50
217,206,288505,5,0,0:0:0:0:
203,220,288586,1,0,0:0:0:0:
189,234,288667,1,0,0:0:0:0:
159,229,288748,1,0,0:0:0:0:
129,231,288829,1,0,0:0:0:0:
101,243,288910,1,0,0:0:0:0:
78,262,288991,2,0,L|37:226,1,50
151,313,289153,6,0,L|164:370,3,50,2|0|0|0,0:0|0:0|0:0|0:0,0:0:0:0:
60,118,289478,2,0,L|90:165,1,50,8|0,0:0|0:0,0:0:0:0:
73,121,289640,2,0,L|103:168,1,50,8|0,0:0|0:0,0:0:0:0:
217,206,289802,6,0,L|187:159,1,50,2|0,0:0|0:0,0:0:0:0:
269,34,289964,2,0,L|242:76,3,50
321,161,290288,5,2,0:0:0:0:
350,153,290370,1,0,0:0:0:0:
379,155,290451,1,0,0:0:0:0:
406,167,290532,1,0,0:0:0:0:
425,189,290613,2,0,L|464:148,1,50,8|0,0:0|0:0,0:0:0:0:
412,84,290775,2,0,L|425:28,1,50,8|0,0:0|0:0,0:0:0:0:
357,237,290937,5,2,0:0:0:0:
350,266,291018,1,0,0:0:0:0:
344,295,291099,1,0,0:0:0:0:
338,324,291180,1,0,0:0:0:0:
331,353,291261,2,0,L|305:299,1,50,8|0,0:0|0:0,0:0:0:0:
266,225,291424,2,0,L|232:274,1,50,8|0,0:0|0:0,0:0:0:0:
182,348,291586,2,0,L|241:352,1,50,8|0,0:0|0:0,0:0:0:0:
123,233,291748,6,0,L|95:174,3,50,6|0|0|0,0:0|0:0|0:0|0:0,0:0:0:0:
208,107,292073,2,0,L|182:49,3,50
376,120,292397,5,0,0:0:0:0:
379,101,292478,1,0,0:0:0:0:
382,82,292559,1,0,0:0:0:0:
406,101,292640,1,0,0:0:0:0:
435,110,292721,1,0,0:0:0:0:
465,108,292802,1,0,0:0:0:0:
491,93,292883,2,0,L|475:31,1,50
304,25,293046,6,0,L|295:82,1,50,2|0,0:0|0:0,0:0:0:0:
283,154,293207,2,0,L|292:97,1,50
64,99,293370,2,0,L|55:156,3,50
189,54,293694,6,0,L|180:118,1,50,2|0,0:0|0:0,0:0:0:0:
30,113,293856,2,0,L|21:177,1,50
141,197,294019,5,0,0:0:0:0:
155,235,294100,1,0,0:0:0:0:
195,266,294181,1,0,0:0:0:0:
181,304,294262,1,0,0:0:0:0:
210,346,294343,6,0,L|166:376,3,50,2|0|0|0,0:0|0:0|0:0|0:0,0:0:0:0:
372,349,294667,2,0,L|416:379,3,50
292,269,294992,5,0,0:0:0:0:
287,247,295073,1,0,0:0:0:0:
282,228,295154,1,0,0:0:0:0:
309,242,295235,1,0,0:0:0:0:
339,246,295316,1,0,0:0:0:0:
369,241,295397,1,0,0:0:0:0:
395,226,295478,2,0,L|384:283,1,50
336,161,295640,6,0,L|347:104,1,50,2|0,0:0|0:0,0:0:0:0:
459,76,295802,2,0,L|444:129,1,50
256,97,295964,6,0,L|302:45,1,50,2|0,0:0|0:0,0:0:0:0:
459,76,296126,2,0,L|414:129,1,50
193,16,296289,6,0,L|260:-6,3,50,2|0|0|0,0:0|0:0|0:0|0:0,0:0:0:0:
346,112,296613,2,0,L|336:161,1,50,2|0,0:0|0:0,0:0:0:0:
256,97,296775,2,0,L|302:45,1,50
459,76,296937,6,0,L|478:131,3,50,2|0|0|0,0:0|0:0|0:0|0:0,0:0:0:0:
395,226,297262,2,0,L|439:265,3,50
385,380,297586,5,0,0:0:0:0:
376,363,297667,1,0,0:0:0:0:
367,346,297748,1,0,0:0:0:0:
338,352,297829,1,0,0:0:0:0:
309,350,297910,1,0,0:0:0:0:
281,340,297992,1,0,0:0:0:0:
258,322,298073,2,0,L|223:363,1,50
27,307,298234,6,0,L|62:266,1,50,2|0,0:0|0:0,0:0:0:0:
110,211,298397,2,0,L|75:252,1,50
162,272,298559,2,0,L|127:313,3,50
17,273,298883,6,0,L|52:232,1,50,2|0,0:0|0:0,0:0:0:0:
167,222,299046,2,0,L|132:263,1,50
100,161,299208,5,0,0:0:0:0:
114,123,299289,1,0,0:0:0:0:
103,74,299370,1,0,0:0:0:0:
139,54,299451,1,0,0:0:0:0:
143,3,299532,6,0,L|196:9,3,50,2|0|0|0,0:0|0:0|0:0|0:0,0:0:0:0:
197,111,299856,2,0,L|246:90,3,50
295,178,300181,5,0,0:0:0:0:
309,164,300262,1,0,0:0:0:0:
323,150,300343,1,0,0:0:0:0:
353,155,300424,1,0,0:0:0:0:
383,153,300505,1,0,0:0:0:0:
411,141,300586,1,0,0:0:0:0:
434,122,300667,2,0,L|475:158,1,50
363,68,300829,5,2,0:0:0:0:
360,44,301153,5,0,0:0:0:0:
392,242,301316,1,0,0:0:0:0:
323,150,301478,5,2,0:0:0:0:
461,332,301640,2,0,L|482:222,1,100
305,248,301964,6,0,L|284:358,1,100,2|0,0:0|0:0,0:0:0:0:
276,217,302288,1,0,0:0:0:0:
257,320,302451,1,0,0:0:0:0:
88,328,302613,6,0,L|109:218,1,100,2|0,0:0|0:0,0:0:0:0:
116,352,302937,2,0,L|127:298,1,50
144,220,303100,1,0,0:0:0:0:
10,271,303261,1,0,0:0:0:0:
36,144,303424,6,0,P|104:121|145:69,1,112.500004291535,6|0,0:0|0:0,0:0:0:0:
146,66,303748,1,0,0:0:0:0:
145,143,303910,1,0,0:0:0:0:
144,220,304072,1,2,0:0:0:0:
277,257,304234,2,0,P|183:253|141:216,1,150.000005722046
310,155,304721,6,0,P|355:183|387:251,1,112.500004291535
387,263,305045,1,0,0:0:0:0:
407,190,305207,1,0,0:0:0:0:
430,118,305370,2,0,L|392:47,1,75.0000028610231
274,88,305694,2,0,L|312:159,1,75.0000028610231
387,263,306018,6,0,P|337:300|317:354,1,112.500004291535,2|0,0:0|0:0,0:0:0:0:
313,375,306343,1,0,0:0:0:0:
279,308,306505,1,0,0:0:0:0:
246,240,306667,1,2,0:0:0:0:
191,193,306829,2,0,P|224:209|245:239,1,75.0000028610231
161,285,307153,1,0,0:0:0:0:
119,129,307316,6,0,P|172:102|237:106,1,112.500004291535,2|0,0:0|0:0,0:0:0:0:
252,112,307640,1,0,0:0:0:0:
186,76,307802,1,0,0:0:0:0:
119,41,307964,1,2,0:0:0:0:
191,193,308126,1,0,0:0:0:0:
186,76,308288,1,2,0:0:0:0:
114,228,308450,1,0,0:0:0:0:
252,112,308613,6,0,P|307:111|356:85,1,112.500004291535,2|0,0:0|0:0,0:0:0:0:
373,59,308937,1,0,0:0:0:0:
355,131,309099,1,0,0:0:0:0:
337,203,309261,1,2,0:0:0:0:
477,219,309424,2,0,P|385:228|336:202,1,150.000005722046
462,71,309910,6,0,L|441:152,1,75.0000028610231,2|0,0:0|0:0,0:0:0:0:
399,321,310234,1,0,0:0:0:0:
373,337,310397,1,0,0:0:0:0:
266,257,310559,1,0,0:0:0:0:
292,273,310722,1,0,0:0:0:0:
212,338,310883,1,0,0:0:0:0:
186,354,311046,1,0,0:0:0:0:
20,309,311207,6,0,P|69:278|136:266,1,112.500004291535,2|0,0:0|0:0,0:0:0:0:
151,271,311532,1,0,0:0:0:0:
99,216,311694,1,0,0:0:0:0:
48,160,311856,2,0,P|102:147|149:117,1,112.500004291535
166,92,312180,1,0,0:0:0:0:
161,167,312343,1,0,0:0:0:0:
171,17,312505,6,0,B|226:37|226:37|276:25,1,100.000003814697,2|0,0:0|0:0,0:0:0:0:
405,0,312829,1,0,0:0:0:0:
371,36,312937,1,0,0:0:0:0:
369,85,313045,1,0,0:0:0:0:
403,121,313153,5,2,0:0:0:0:
364,131,313261,1,0,0:0:0:0:
339,162,313369,1,0,0:0:0:0:
329,201,313478,1,2,0:0:0:0:
334,240,313586,1,0,0:0:0:0:
356,272,313694,1,0,0:0:0:0:
393,287,313802,6,0,P|345:299|289:358,1,112.500004291535,2|0,0:0|0:0,0:0:0:0:
286,367,314126,1,0,0:0:0:0:
288,292,314288,1,0,0:0:0:0:
290,216,314451,1,2,0:0:0:0:
160,158,314613,2,0,P|242:172|298:231,1,150.000005722046
263,26,315099,6,0,L|214:90,1,75.0000028610231,2|0,0:0|0:0,0:0:0:0:
103,228,315424,1,0,0:0:0:0:
84,251,315586,1,0,0:0:0:0:
62,151,315748,1,0,0:0:0:0:
43,174,315910,1,0,0:0:0:0:
19,75,316072,1,0,0:0:0:0:
0,98,316234,1,0,0:0:0:0:
103,228,316397,6,0,L|179:133,1,112.500004291535,2|0,0:0|0:0,0:0:0:0:
193,117,316721,1,0,0:0:0:0:
239,175,316883,1,0,0:0:0:0:
198,241,317045,1,2,0:0:0:0:
243,300,317207,2,0,L|195:237,1,75.0000028610231
281,114,317532,1,0,0:0:0:0:
429,132,317694,6,0,P|414:171|419:212,1,75.0000028610231,2|0,0:0|0:0,0:0:0:0:
442,305,318018,2,0,P|443:267|429:233,1,75.0000028610231
363,58,318343,1,2,0:0:0:0:
281,114,318505,1,0,0:0:0:0:
305,208,318667,1,2,0:0:0:0:
258,18,318829,1,0,0:0:0:0:
138,80,318991,6,0,P|198:71|259:19,1,112.500004291535,2|0,0:0|0:0,0:0:0:0:
258,18,319316,1,0,0:0:0:0:
226,85,319478,1,0,0:0:0:0:
192,151,319640,1,2,0:0:0:0:
73,225,319802,2,0,P|140:159|195:152,1,150.000005722046
211,312,320288,6,0,L|166:238,1,75.0000028610231,2|0,0:0|0:0,0:0:0:0:
305,208,320613,1,0,0:0:0:0:
320,233,320775,1,0,0:0:0:0:
433,250,320937,1,0,0:0:0:0:
418,275,321099,1,0,0:0:0:0:
338,318,321261,1,0,0:0:0:0:
353,343,321423,1,0,0:0:0:0:
386,184,321586,6,0,L|323:86,1,112.500004291535,2|0,0:0|0:0,0:0:0:0:
355,92,321910,1,0,0:0:0:0:
283,69,322072,1,0,0:0:0:0:
212,44,322234,2,0,P|203:100|161:145,1,112.500004291535
140,154,322559,1,0,0:0:0:0:
260,179,322721,6,0,L|260:218,1,37.5000014305115
233,214,322883,2,0,B|196:263|196:263|194:305,1,100.000003814697,2|0,0:0|0:0,0:0:0:0:
255,354,323207,5,0,0:0:0:0:
197,334,323316,1,0,0:0:0:0:
137,339,323424,1,0,0:0:0:0:
81,361,323532,5,2,0:0:0:0:
102,327,323640,1,0,0:0:0:0:
104,287,323748,1,0,0:0:0:0:
88,250,323856,1,0,0:0:0:0:
88,210,323964,1,0,0:0:0:0:
105,174,324072,1,0,0:0:0:0:
140,154,324180,6,0,P|104:111|146:32,1,150,2|0,0:0|0:0,0:0:0:0:
180,31,324505,1,0,0:0:0:0:
40,22,324667,1,0,0:0:0:0:
241,90,324829,1,2,0:0:0:0:
415,49,324991,2,0,P|377:89|230:82,1,200
458,139,325478,6,0,L|389:220,1,100,2|0,0:0|0:0,0:0:0:0:
305,323,325802,1,2,0:0:0:0:
300,253,325964,1,0,0:0:0:0:
430,244,326126,1,2,0:0:0:0:
369,285,326288,1,0,0:0:0:0:
296,181,326451,1,2,0:0:0:0:
363,211,326613,1,0,0:0:0:0:
217,362,326775,6,0,L|209:202,1,150,2|0,0:0|0:0,0:0:0:0:
206,172,327099,1,0,0:0:0:0:
128,288,327261,1,0,0:0:0:0:
140,47,327424,1,2,0:0:0:0:
231,14,327586,2,0,P|168:45|132:45,1,100
43,21,327910,1,0,0:0:0:0:
273,101,328072,6,0,L|336:181,1,100,2|0,0:0|0:0,0:0:0:0:
402,254,328397,1,0,0:0:0:0:
434,159,328559,1,0,0:0:0:0:
304,269,328721,5,2,0:0:0:0:
501,238,328883,1,0,0:0:0:0:
369,76,329045,1,0,0:0:0:0:
422,356,329207,1,0,0:0:0:0:
188,187,329370,6,0,P|186:255|144:331,1,150,2|0,0:0|0:0,0:0:0:0:
118,353,329694,1,0,0:0:0:0:
236,367,329856,1,0,0:0:0:0:
304,269,330018,1,2,0:0:0:0:
197,117,330180,2,0,P|223:211|303:268,1,200
283,95,330667,6,0,P|291:148|326:182,1,100,2|0,0:0|0:0,0:0:0:0:
433,147,330991,1,2,0:0:0:0:
377,103,331153,1,0,0:0:0:0:
422,221,331316,1,2,0:0:0:0:
490,193,331478,1,0,0:0:0:0:
365,176,331640,1,2,0:0:0:0:
354,246,331802,1,0,0:0:0:0:
512,112,331964,6,0,L|384:10,1,150,2|0,0:0|0:0,0:0:0:0:
429,13,332288,1,0,0:0:0:0:
308,22,332451,1,0,0:0:0:0:
188,32,332613,2,0,L|316:134,1,150,2|0,0:0|0:0,0:0:0:0:
331,148,332937,1,0,0:0:0:0:
211,160,333099,2,0,L|159:119,1,50
238,187,333261,6,0,B|163:187|163:187|115:235,1,133.333333333333,2|0,0:0|0:0,0:0:0:0:
71,272,333586,1,0,0:0:0:0:
136,261,333694,1,0,0:0:0:0:
197,286,333802,1,0,0:0:0:0:
239,337,333910,5,2,0:0:0:0:
243,297,334018,1,0,0:0:0:0:
270,268,334126,1,0,0:0:0:0:
307,253,334234,1,0,0:0:0:0:
347,257,334343,1,0,0:0:0:0:
381,277,334451,1,0,0:0:0:0:
397,313,334559,6,0,P|417:226|488:179,1,150,2|0,0:0|0:0,0:0:0:0:
490,186,334883,1,0,0:0:0:0:
353,155,335045,1,0,0:0:0:0:
313,20,335207,1,2,0:0:0:0:
156,105,335370,2,0,P|229:105|313:18,1,200
94,27,335856,6,0,P|62:76|62:129,1,100,2|0,0:0|0:0,0:0:0:0:
128,240,336180,1,2,0:0:0:0:
169,179,336343,1,0,0:0:0:0:
50,235,336505,1,2,0:0:0:0:
84,303,336668,1,0,0:0:0:0:
92,172,336829,1,2,0:0:0:0:
20,166,336992,1,0,0:0:0:0:
170,318,337153,6,0,L|261:185,1,150,2|0,0:0|0:0,0:0:0:0:
267,232,337478,1,0,0:0:0:0:
236,115,337640,1,0,0:0:0:0:
320,29,337802,1,2,0:0:0:0:
415,40,337964,2,0,P|351:21|305:34,1,100
236,115,338288,1,0,0:0:0:0:
458,329,338451,6,0,L|443:218,1,100,2|0,0:0|0:0,0:0:0:0:
236,115,338775,1,0,0:0:0:0:
267,232,338937,1,0,0:0:0:0:
319,28,339099,5,2,0:0:0:0:
124,72,339261,1,0,0:0:0:0:
267,232,339424,1,0,0:0:0:0:
210,0,339586,1,0,0:0:0:0:
35,153,339748,6,0,P|90:174|148:245,1,150,2|0,0:0|0:0,0:0:0:0:
152,282,340072,1,0,0:0:0:0:
32,272,340234,1,0,0:0:0:0:
267,232,340397,1,2,0:0:0:0:
379,374,340559,2,0,P|324:353|267:230,1,200
460,192,341045,6,0,L|369:262,1,100,2|0,0:0|0:0,0:0:0:0:
331,162,341370,1,2,0:0:0:0:
395,128,341532,1,0,0:0:0:0:
267,119,341694,1,2,0:0:0:0:
265,191,341856,1,0,0:0:0:0:
333,87,342018,1,2,0:0:0:0:
270,47,342180,1,0,0:0:0:0:
113,90,342343,6,0,P|153:138|152:233,1,150
140,259,342667,1,0,0:0:0:0:
34,188,342829,1,0,0:0:0:0:
250,330,342991,6,0,B|329:378|402:346,1,150,2|0,0:0|0:0,0:0:0:0:
429,331,343316,1,0,0:0:0:0:
498,109,343478,2,0,L|442:141,1,50
488,144,343640,6,0,B|468:212|468:212|406:244,1,133.333333333333,2|0,0:0|0:0,0:0:0:0:
317,218,343964,1,0,0:0:0:0:
325,169,344072,1,0,0:0:0:0:
364,201,344180,1,0,0:0:0:0:
269,232,344288,5,2,0:0:0:0:
277,192,344397,1,0,0:0:0:0:
285,153,344505,1,0,0:0:0:0:
293,114,344613,1,0,0:0:0:0:
302,75,344721,1,0,0:0:0:0:
311,36,344829,1,0,0:0:0:0:
382,76,344937,5,2,0:0:0:0:
232,0,345099,1,0,0:0:0:0:
82,97,345261,1,0,0:0:0:0:
311,36,345424,5,2,0:0:0:0:
143,45,345586,1,0,0:0:0:0:
61,204,345748,1,0,0:0:0:0:
233,131,345910,1,0,0:0:0:0:
70,21,346072,1,0,0:0:0:0:
149,170,346234,5,2,0:0:0:0:
311,246,346397,1,0,0:0:0:0:
286,60,346559,1,0,0:0:0:0:
233,131,346721,1,0,0:0:0:0:
326,143,346883,5,2,0:0:0:0:
286,60,347045,1,0,0:0:0:0:
149,170,347207,5,2,0:0:0:0:
311,246,347370,1,0,0:0:0:0:
466,142,347532,6,0,P|440:89|443:52,1,85.0000016212464,2|0,0:0|0:0,0:0:0:0:
131,4,347856,2,0,P|157:57|154:94,1,85.0000016212464
311,246,348180,5,2,0:0:0:0:
387,208,348343,1,0,0:0:0:0:
149,170,348505,5,2,0:0:0:0:
143,254,348668,1,0,0:0:0:0:
385,298,348829,6,0,L|467:259,1,85.0000016212464,2|0,0:0|0:0,0:0:0:0:
309,157,349153,2,0,L|391:118,1,85.0000016212464
215,40,349478,5,2,0:0:0:0:
328,6,349640,1,0,0:0:0:0:
216,83,349802,1,2,0:0:0:0:
92,26,349964,1,0,0:0:0:0:
309,157,350126,5,2,0:0:0:0:
216,83,350288,1,0,0:0:0:0:
78,151,350451,1,0,0:0:0:0:
388,95,350613,5,2,0:0:0:0:
216,83,350775,1,0,0:0:0:0:
127,247,350937,1,0,0:0:0:0:
401,195,351099,5,2,0:0:0:0:
216,83,351261,1,0,0:0:0:0:
282,308,351424,5,2,0:0:0:0:
388,95,351586,1,0,0:0:0:0:
309,157,351748,1,0,0:0:0:0:
490,112,351910,1,0,0:0:0:0:
216,83,352072,5,2,0:0:0:0:
78,151,352234,1,0,0:0:0:0:
171,182,352397,5,2,0:0:0:0:
85,309,352559,1,0,0:0:0:0:
282,308,352721,6,0,P|330:304|372:316,1,85.0000016212464,2|0,0:0|0:0,0:0:0:0:
482,331,353045,2,0,P|434:335|392:323,1,85.0000016212464
318,384,353370,5,2,0:0:0:0:
336,221,353532,1,0,0:0:0:0:
482,331,353694,5,2,0:0:0:0:
257,160,353856,1,0,0:0:0:0:
282,308,354018,5,2,0:0:0:0:
336,221,354180,1,0,0:0:0:0:
257,160,354343,1,0,0:0:0:0:
462,224,354505,5,0,0:0:0:0:
462,224,354586,1,0,0:0:0:0:
462,224,354667,1,2,0:0:0:0:
337,127,354829,1,0,0:0:0:0:
336,221,354991,5,2,0:0:0:0:
339,31,355153,1,0,0:0:0:0:
337,127,355316,5,2,0:0:0:0:
161,97,355478,1,0,0:0:0:0:
336,221,355640,5,0,0:0:0:0:
512,191,355802,1,0,0:0:0:0:
161,97,355964,6,0,P|141:154|108:183,1,85.0000016212464,2|0,0:0|0:0,0:0:0:0:
116,8,356288,2,0,P|175:-3|216:10,1,85.0000016212464,2|0,0:0|0:0,0:0:0:0:
336,221,356613,5,2,0:0:0:0:
337,127,356775,1,0,0:0:0:0:
512,191,356937,5,0,0:0:0:0:
411,338,357099,1,0,0:0:0:0:
246,350,357261,5,2,0:0:0:0:
336,221,357424,1,0,0:0:0:0:
448,54,357586,5,0,0:0:0:0:
512,191,357748,1,0,0:0:0:0:
215,136,357910,5,2,0:0:0:0:
36,139,358072,1,0,0:0:0:0:
128,213,358234,5,0,0:0:0:0:
130,76,358397,1,0,0:0:0:0:
30,239,358559,6,0,P|53:282|95:313,1,85.0000016212464,2|0,0:0|0:0,0:0:0:0:
231,238,358883,2,0,P|208:281|166:312,1,85.0000016212464
130,76,359207,5,2,0:0:0:0:
173,48,359288,1,0,0:0:0:0:
214,78,359370,1,0,0:0:0:0:
263,62,359451,1,0,0:0:0:0:
305,90,359532,6,0,P|357:99|391:122,1,85.0000016212464
340,257,359856,2,0,P|321:207|324:166,1,85.0000016212464,2|0,0:0|0:0,0:0:0:0:
468,150,360180,2,0,P|434:190|397:208,1,85.0000016212464,2|0,0:0|0:0,0:0:0:0:
250,157,360505,5,2,0:0:0:0:
180,304,360667,1,0,0:0:0:0:
188,217,360829,5,0,0:0:0:0:
258,364,360991,1,0,0:0:0:0:
250,157,361153,5,2,0:0:0:0:
180,304,361315,1,0,0:0:0:0:
287,231,361478,5,0,0:0:0:0:
217,84,361640,1,0,0:0:0:0:
47,85,361802,5,2,0:0:0:0:
246,85,361964,1,0,0:0:0:0:
71,209,362126,5,0,0:0:0:0:
277,88,362288,1,0,0:0:0:0:
180,304,362451,5,2,0:0:0:0:
306,90,362613,1,0,0:0:0:0:
250,157,362775,1,0,0:0:0:0:
287,231,362937,1,0,0:0:0:0:
393,96,363099,5,2,0:0:0:0:
217,84,363261,1,0,0:0:0:0:
394,202,363424,5,0,0:0:0:0:
492,55,363586,1,0,0:0:0:0:
100,44,363748,5,2,0:0:0:0:
178,202,363910,1,0,0:0:0:0:
114,145,364072,1,0,0:0:0:0:
31,165,364234,1,0,0:0:0:0:
171,290,364397,5,2,0:0:0:0:
194,121,364559,1,0,0:0:0:0:
31,165,364721,1,0,0:0:0:0:
248,359,364883,5,2,0:0:0:0:
250,342,364964,1,0,0:0:0:0:
252,316,365045,2,0,L|256:267,1,42.5000008106232,2|0,0:0|0:0,0:0:0:0:
330,290,365207,2,0,L|357:249,1,42.5000008106232
411,307,365370,5,2,0:0:0:0:
402,265,365451,1,0,0:0:0:0:
400,222,365532,1,0,0:0:0:0:
407,180,365613,1,0,0:0:0:0:
429,121,365694,5,2,0:0:0:0:
285,164,365856,1,0,0:0:0:0:
165,74,366018,1,0,0:0:0:0:
257,327,366180,5,0,0:0:0:0:
257,327,366261,1,0,0:0:0:0:
257,327,366343,1,2,0:0:0:0:
147,223,366505,1,0,0:0:0:0:
165,74,366667,1,0,0:0:0:0:
297,4,366829,1,0,0:0:0:0:
285,164,366991,5,2,0:0:0:0:
147,223,367153,1,0,0:0:0:0:
165,74,367316,1,0,0:0:0:0:
405,252,367478,5,0,0:0:0:0:
405,252,367559,1,0,0:0:0:0:
405,252,367640,1,2,0:0:0:0:
131,374,367802,1,0,0:0:0:0:
165,74,367964,1,0,0:0:0:0:
405,252,368126,1,0,0:0:0:0:
43,265,368288,6,0,L|61:132,1,125,2|0,0:0|0:0,0:0:0:0:
282,0,368613,2,0,L|264:133,1,125
245,272,368856,1,0,0:0:0:0:
245,272,368937,1,2,0:0:0:0:
165,74,369099,1,0,0:0:0:0:
375,97,369261,1,2,0:0:0:0:
43,265,369424,1,0,0:0:0:0:
282,0,369586,6,0,L|264:133,1,125,2|0,0:0|0:0,0:0:0:0:
407,321,369910,2,0,L|425:188,1,125,2|0,0:0|0:0,0:0:0:0:
447,44,370153,1,0,0:0:0:0:
447,44,370234,2,0,L|437:126,1,62.5
448,254,370397,2,0,L|423:196,1,62.5
388,67,370559,2,0,L|454:116,1,62.5
485,204,370721,2,0,L|422:196,1,62.5
342,252,370883,5,2,0:0:0:0:
262,155,371045,1,0,0:0:0:0:
137,157,371207,1,0,0:0:0:0:
158,383,371370,5,0,0:0:0:0:
158,383,371451,1,0,0:0:0:0:
158,383,371532,1,2,0:0:0:0:
202,265,371694,1,0,0:0:0:0:
70,51,371856,5,2,0:0:0:0:
137,157,372018,1,0,0:0:0:0:
267,369,372180,5,2,0:0:0:0:
262,155,372343,1,0,0:0:0:0:
77,266,372505,1,0,0:0:0:0:
202,265,372667,5,0,0:0:0:0:
202,265,372748,1,0,0:0:0:0:
202,265,372829,1,2,0:0:0:0:
323,46,372991,1,0,0:0:0:0:
416,222,373153,2,0,L|486:351,1,125,2|0,0:0|0:0,0:0:0:0:
77,266,373478,6,0,P|119:212|136:156,1,125,2|0,0:0|0:0,0:0:0:0:
261,157,373802,2,0,P|219:211|201:266,1,125
30,161,374126,5,2,0:0:0:0:
307,252,374288,1,0,0:0:0:0:
77,266,374451,5,2,0:0:0:0:
261,157,374613,1,0,0:0:0:0:
30,161,374775,5,2,0:0:0:0:
87,93,374937,2,0,L|156:112,1,62.5
185,50,375099,2,0,L|247:87,1,62.5
296,42,375261,2,0,L|331:105,1,62.5
388,81,375424,2,0,L|386:154,1,62.5
432,129,375586,2,0,L|394:191,1,62.5
442,162,375748,2,0,L|389:211,1,62.5
438,179,375910,2,0,L|387:227,1,62.5
453,316,376072,5,2,0:0:0:0:
428,314,376153,1,0,0:0:0:0:
403,310,376234,1,0,0:0:0:0:
378,305,376316,1,0,0:0:0:0:
336,276,376397,5,2,0:0:0:0:
311,278,376478,1,0,0:0:0:0:
286,282,376559,1,0,0:0:0:0:
261,287,376641,1,0,0:0:0:0:
223,319,376721,5,2,0:0:0:0:
198,317,376802,1,0,0:0:0:0:
173,313,376883,1,0,0:0:0:0:
148,308,376965,1,0,0:0:0:0:
106,279,377046,5,2,0:0:0:0:
81,281,377127,1,0,0:0:0:0:
56,285,377208,1,0,0:0:0:0:
31,290,377288,1,0,0:0:0:0:
5,332,377370,5,2,0:0:0:0:
42,336,377451,1,0,0:0:0:0:
75,319,377532,1,0,0:0:0:0:
81,281,377613,1,0,0:0:0:0:
55,253,377694,1,0,0:0:0:0:
36,220,377775,1,0,0:0:0:0:
37,182,377856,1,0,0:0:0:0:
61,153,377937,1,0,0:0:0:0:
78,92,378018,5,2,0:0:0:0:
92,126,378099,1,0,0:0:0:0:
120,149,378180,1,0,0:0:0:0:
156,155,378261,1,0,0:0:0:0:
192,143,378343,1,0,0:0:0:0:
219,117,378424,1,0,0:0:0:0:
219,79,378505,1,0,0:0:0:0:
207,43,378586,1,0,0:0:0:0:
150,84,378667,5,2,0:0:0:0:
170,114,378748,1,0,0:0:0:0:
192,143,378829,1,0,0:0:0:0:
212,174,378910,1,0,0:0:0:0:
216,236,378991,5,2,0:0:0:0:
240,207,379072,1,0,0:0:0:0:
274,192,379153,1,0,0:0:0:0:
311,196,379234,1,0,0:0:0:0:
359,236,379316,5,2,0:0:0:0:
348,200,379397,1,0,0:0:0:0:
355,163,379478,1,0,0:0:0:0:
383,138,379559,1,0,0:0:0:0:
420,135,379640,1,0,0:0:0:0:
453,152,379721,1,0,0:0:0:0:
468,186,379802,1,0,0:0:0:0:
464,223,379883,1,0,0:0:0:0:
416,281,379964,5,2,0:0:0:0:
353,285,380045,1,0,0:0:0:0:
290,289,380126,1,0,0:0:0:0:
227,294,380207,1,0,0:0:0:0:
177,299,380288,5,2,0:0:0:0:
226,310,380370,1,0,0:0:0:0:
274,321,380451,1,0,0:0:0:0:
322,332,380532,1,0,0:0:0:0:
357,343,380613,5,2,0:0:0:0:
319,346,380694,1,0,0:0:0:0:
281,348,380775,1,0,0:0:0:0:
243,350,380856,1,0,0:0:0:0:
205,352,380937,6,0,L|126:355,3,62.5,2|0|0|0,0:0|0:0|0:0|0:0,0:0:0:0:
96,263,381261,6,0,L|61:201,1,62.5,2|0,0:0|0:0,0:0:0:0:
187,195,381424,2,0,L|187:132,1,62.5
61,263,381586,6,0,L|26:201,1,62.5,2|0,0:0|0:0,0:0:0:0:
217,177,381749,2,0,L|217:114,1,62.5
91,105,381910,5,2,0:0:0:0:
220,29,382072,1,0,0:0:0:0:
217,177,382234,5,2,0:0:0:0:
91,105,382396,1,0,0:0:0:0:
346,51,382559,6,0,P|405:91|418:157,1,125,2|0,0:0|0:0,0:0:0:0:
343,282,382883,2,0,P|336:240|348:208,1,62.5,8|0,0:0|0:0,0:0:0:0:
447,306,383045,2,0,P|453:347|442:380,1,62.5,8|0,0:0|0:0,0:0:0:0:
352,384,383207,1,0,0:0:0:0:
282,283,383370,6,0,P|323:276|356:288,1,62.5,8|0,0:0|0:0,0:0:0:0:
507,304,383532,2,0,P|465:310|433:298,1,62.5,8|0,0:0|0:0,0:0:0:0:
419,139,383694,2,0,P|425:181|413:213,1,62.5,8|0,0:0|0:0,0:0:0:0:
218,373,383856,5,2,0:0:0:0:
181,363,383937,1,0,0:0:0:0:
148,344,384018,1,0,0:0:0:0:
126,314,384099,1,0,0:0:0:0:
116,277,384180,1,0,0:0:0:0:
118,239,384261,1,0,0:0:0:0:
135,205,384343,2,0,L|78:236,1,62.5
92,122,384505,6,0,L|43:244,1,125,2|0,0:0|0:0,0:0:0:0:
432,266,384829,2,0,L|383:144,1,125,2|0,0:0|0:0,0:0:0:0:
126,118,385153,6,0,L|77:240,1,125,2|0,0:0|0:0,0:0:0:0:
466,270,385478,2,0,L|417:148,1,125,2|0,0:0|0:0,0:0:0:0:
373,35,385802,5,2,0:0:0:0:
312,144,385964,1,0,0:0:0:0:
362,279,386126,1,2,0:0:0:0:
419,154,386288,1,0,0:0:0:0:
130,109,386451,6,0,P|91:136|85:287,1,200,6|0,0:0|0:0,0:0:0:0:
208,160,387748,6,0,P|160:163|80:291,1,200
249,240,389045,6,0,P|206:219|72:290,1,200
219,384,390343,6,0,B|175:352|171:294,1,100
350,205,390991,2,0,L|406:243,1,50
467,167,391316,2,0,L|496:227,1,50
249,238,391640,6,0,P|247:165|271:132,1,100
222,248,392288,1,0,0:0:0:0:
160,168,392451,1,0,0:0:0:0:
175,131,392775,1,0,0:0:0:0:
189,93,393099,5,0,0:0:0:0:
129,251,393261,1,0,0:0:0:0:
12,126,393424,1,0,0:0:0:0:
28,141,393748,5,0,0:0:0:0:
145,266,393911,1,0,0:0:0:0:
205,108,394073,1,0,0:0:0:0:
23,266,394234,6,0,L|105:355,1,100
39,238,394883,1,0,0:0:0:0:
222,286,395045,1,0,0:0:0:0:
260,298,395370,1,0,0:0:0:0:
297,310,395694,5,0,0:0:0:0:
145,266,395856,1,0,0:0:0:0:
282,184,396018,1,0,0:0:0:0:
313,196,396343,5,0,0:0:0:0:
176,278,396505,1,0,0:0:0:0:
328,322,396667,1,0,0:0:0:0:
481,278,396829,6,0,P|445:246|424:182,1,100,2|0,0:0|0:0,0:0:0:0:
382,32,397478,2,0,L|398:88,1,50
250,41,397802,2,0,L|291:81,1,50
141,114,398126,6,0,L|197:128,1,50
314,210,398451,2,0,L|257:195,1,50
137,83,398775,6,0,L|193:97,1,50
310,179,399100,2,0,L|253:164,1,50
120,216,399424,6,0,P|177:239|217:277,1,100
278,384,400072,2,0,L|244:326,1,50
403,344,400397,2,0,L|344:310,1,50
491,248,400721,6,0,L|423:248,1,50
336,141,401045,2,0,L|403:140,1,50
506,277,401370,6,0,L|438:277,1,50
351,170,401694,2,0,L|418:169,1,50
487,47,402018,6,0,L|375:48,1,100,2|0,0:0|0:0,0:0:0:0:
86,46,402667,1,0,0:0:0:0:
221,109,402829,1,0,0:0:0:0:
257,125,403153,1,0,0:0:0:0:
293,141,403478,5,0,0:0:0:0:
145,164,403640,1,0,0:0:0:0:
198,23,403802,1,0,0:0:0:0:
177,38,404126,5,0,0:0:0:0:
124,179,404288,1,0,0:0:0:0:
272,156,404450,1,0,0:0:0:0:
52,75,404613,6,0,L|16:178,1,100
213,310,405261,1,0,0:0:0:0:
124,179,405424,1,0,0:0:0:0:
100,146,405748,1,0,0:0:0:0:
76,113,406072,5,0,0:0:0:0:
82,252,406234,1,0,0:0:0:0:
210,195,406397,1,0,0:0:0:0:
232,204,406721,5,0,0:0:0:0:
104,261,406884,1,0,0:0:0:0:
98,122,407046,1,0,0:0:0:0:
301,137,407207,6,0,P|323:190|321:246,1,100,2|0,0:0|0:0,0:0:0:0:
404,345,407856,2,0,P|406:313|416:287,1,50
412,196,408180,2,0,P|429:169|451:151,1,50
438,57,408505,6,0,P|466:42|494:38,1,50
301,137,408829,2,0,P|272:151|244:155,1,50
453,97,409153,6,0,P|485:99|511:108,1,50
294,97,409477,2,0,P|262:94|236:85,1,50
117,9,409802,6,0,P|120:54|95:108,1,100
149,234,410451,2,0,P|158:207|176:184,1,50
70,184,410775,2,0,P|42:189|13:185,1,50
71,273,411099,6,0,P|89:294|100:321,1,50
249,316,411424,2,0,P|230:337|219:364,1,50
49,293,411748,6,0,P|67:314|78:341,1,50
275,330,412073,2,0,P|256:351|245:378,1,50
149,234,412397,6,0,P|207:193|244:188,1,100,2|0,0:0|0:0,0:0:0:0:
397,234,413045,1,0,0:0:0:0:
330,122,413207,1,0,0:0:0:0:
310,86,413532,1,0,0:0:0:0:
290,51,413856,5,0,0:0:0:0:
321,207,414018,1,0,0:0:0:0:
438,98,414180,1,0,0:0:0:0:
434,76,414505,5,0,0:0:0:0:
317,185,414667,1,0,0:0:0:0:
286,29,414829,1,0,0:0:0:0:
455,173,414991,6,0,L|480:294,1,100
209,303,415640,1,0,0:0:0:0:
370,220,415802,1,0,0:0:0:0:
414,196,416126,1,0,0:0:0:0:
455,173,416451,5,0,0:0:0:0:
377,312,416613,1,0,0:0:0:0:
268,194,416775,1,0,0:0:0:0:
227,217,417099,5,0,0:0:0:0:
336,335,417261,1,0,0:0:0:0:
414,196,417423,1,0,0:0:0:0:
311,104,417586,6,0,B|259:129|216:86|216:86|174:37|111:28|44:66|56:162|99:185|176:171|144:108,1,400,2|0,0:0|0:0,0:0:0:0:
19,183,419045,1,0,0:0:0:0:
19,183,419207,2,0,P|48:207|70:251,1,75
36,303,419532,2,0,P|67:282|119:276,1,75
94,347,419856,2,0,P|91:309|112:261,1,75
183,320,420180,6,0,B|193:274|235:254|235:254|219:278|223:333|274:365|323:329|320:274|305:252|305:252|351:271|367:317,1,375,2|0,0:0|0:0,0:0:0:0:
365,313,421478,2,0,B|320:297|305:252|305:252|327:272|382:274|420:228|390:175|336:171|312:183|312:183|336:140|380:130,1,375,2|0,0:0|0:0,0:0:0:0:
377,131,422775,5,2,0:0:0:0:
345,139,422868,1,0,0:0:0:0:
312,143,422961,1,0,0:0:0:0:
279,141,423054,1,0,0:0:0:0:
246,133,423147,1,0,0:0:0:0:
216,121,423240,1,0,0:0:0:0:
187,103,423333,1,0,0:0:0:0:
162,82,423426,1,0,0:0:0:0:
140,56,423519,1,0,0:0:0:0:
122,6,423612,5,2,0:0:0:0:
94,66,423705,1,0,0:0:0:0:
66,126,423798,1,0,0:0:0:0:
44,181,423891,6,0,L|115:167,2,66.6666666666667
93,243,424206,2,0,L|164:229,2,66.6666666666667
145,304,424522,2,0,L|216:290,2,66.6666666666667
205,368,424838,6,0,P|278:352|278:352,1,66.6666666666667
283,275,425066,2,0,B|274:276|348:261,2,66.6666666666667
234,213,425370,5,2,0:0:0:0:
206,181,425694,6,0,L|273:184,3,50
257,119,426018,2,0,L|315:155,3,50
330,87,426342,2,0,L|362:152,3,50
432,94,426667,6,0,L|463:152,1,50
476,260,426991,2,0,L|499:215,1,50
397,215,427315,2,0,L|398:264,1,50
323,260,427639,2,0,L|296:217,1,50
151,350,427964,6,0,B|95:263|95:263|126:285|181:285|212:234|211:188|165:145|116:157|89:189|89:189|107:131|77:87|77:87|146:122|183:88,1,575,2|0,0:0|0:0,0:0:0:0:
176,93,429910,2,0,P|224:122|345:93,1,175,2|0,0:0|0:0,0:0:0:0:
336,100,430558,2,0,B|374:160|432:158|432:158|408:141|411:101|454:72|513:97|511:157|520:203|436:233,1,375,2|0,0:0|0:0,0:0:0:0:
438,232,431856,6,0,P|371:256|451:307,1,200,2|0,0:0|0:0,0:0:0:0:
319,200,432829,2,0,P|298:236|297:282,1,75
298,298,433153,6,0,P|251:268|203:259,1,100,2|0,0:0|0:0,0:0:0:0:
268,139,433802,1,0,0:0:0:0:
371,262,433964,1,0,0:0:0:0:
396,292,434288,1,0,0:0:0:0:
423,321,434612,5,0,0:0:0:0:
298,298,434775,1,0,0:0:0:0:
390,180,434937,1,0,0:0:0:0:
372,203,435261,5,0,0:0:0:0:
280,321,435423,1,0,0:0:0:0:
405,344,435586,1,0,0:0:0:0:
235,232,435748,6,0,L|160:324,1,100
280,321,436396,1,0,0:0:0:0:
192,146,436558,1,0,0:0:0:0:
174,109,436883,1,0,0:0:0:0:
156,73,437207,5,0,0:0:0:0:
146,222,437369,1,0,0:0:0:0:
284,165,437531,1,0,0:0:0:0:
302,201,437856,5,0,0:0:0:0:
164,258,438018,1,0,0:0:0:0:
174,109,438180,1,0,0:0:0:0:
410,276,438342,5,6,0:0:0:0:
410,276,443531,6,0,B|377:245|379:189|379:189|382:134|359:95,1,166.666666666667,6|0,0:0|0:0,0:0:0:0:
440,273,444829,6,0,B|407:242|409:186|409:186|412:131|389:92,1,166.666666666667,2|0,0:0|0:0,0:0:0:0:
365,60,445477,2,0,P|391:91|401:124,1,66.6666666666667
244,114,445802,2,0,P|257:75|281:50,1,66.6666666666667
256,203,446126,2,0,B|224:202|183:191|166:140|166:140|156:88|143:31|27:32|-28:144|87:198|103:122,1,400,2|0,0:0|0:0,0:0:0:0:
35,224,448072,6,0,L|55:304,1,66.6666666666667
135,258,448396,2,0,L|115:338,1,66.6666666666667
209,322,448721,2,0,B|210:283|250:237|303:259|328:309|302:348|266:356|266:356|325:331|380:363|380:363|361:278,1,400,2|0,0:0|0:0,0:0:0:0:
343,178,450667,6,0,L|360:264,1,66.6666666666667
457,224,450991,2,0,L|440:310,1,66.6666666666667
237,187,451315,2,0,B|232:108|310:74|310:74|262:82|203:62|176:21|176:21|220:142,1,400,2|0,0:0|0:0,0:0:0:0:
92,81,453261,6,0,L|129:179,1,100.000003814697,2|0,0:0|0:0,0:0:0:0:
43,355,453585,2,0,L|6:257,1,100.000003814697,2|0,0:0|0:0,0:0:0:0:
237,187,453910,2,0,B|290:134|364:167|362:236|362:236|254:170|234:345|374:369|435:324|473:286|450:189|416:141|416:141|443:96|426:45,1,700,2|0,0:0|0:0,0:0:0:0:
347,87,456342,5,0,0:0:0:0:
336,82,456396,1,0,0:0:0:0:
325,77,456450,1,0,0:0:0:0:
316,72,456504,2,0,B|207:128|124:50|124:50|236:95|237:186|237:186|202:132|122:126|120:244|182:228|203:207,1,566.666666666667,2|0,0:0|0:0,0:0:0:0:
89,127,458450,2,0,P|64:174|62:202,1,66.6666666666667
0,240,458775,2,0,P|28:285|51:300,1,66.6666666666667
66,366,459099,6,0,P|120:335|205:345,1,127.50000243187,2|0,0:0|0:0,0:0:0:0:
207,346,459423,1,8,0:0:0:0:
147,243,459585,1,0,0:0:0:0:
259,347,459748,5,8,0:0:0:0:
299,199,459910,1,0,0:0:0:0:
316,282,460072,1,0,0:0:0:0:
383,230,460234,1,0,0:0:0:0:
367,146,460396,5,0,0:0:0:0:
299,199,460558,1,0,0:0:0:0:
383,230,460721,5,10,0:0:0:0:
283,119,460883,1,0,0:0:0:0:
86,139,461045,5,2,0:0:0:0:
88,155,461126,1,0,0:0:0:0:
90,171,461207,1,0,0:0:0:0:
92,187,461288,1,0,0:0:0:0:
120,218,461369,1,2,0:0:0:0:
118,234,461450,1,0,0:0:0:0:
116,250,461531,1,0,0:0:0:0:
114,266,461612,1,0,0:0:0:0:
92,303,461694,5,10,0:0:0:0:
163,86,461856,1,0,0:0:0:0:
182,102,461937,1,0,0:0:0:0:
205,111,462018,1,0,0:0:0:0:
229,117,462099,1,0,0:0:0:0:
255,118,462180,1,0,0:0:0:0:
280,113,462261,1,0,0:0:0:0:
312,85,462342,5,2,0:0:0:0:
319,109,462423,1,0,0:0:0:0:
326,133,462504,1,0,0:0:0:0:
333,157,462585,1,0,0:0:0:0:
369,178,462666,5,10,0:0:0:0:
340,196,462748,1,0,0:0:0:0:
318,222,462829,1,0,0:0:0:0:
303,252,462910,1,0,0:0:0:0:
297,302,462991,5,2,0:0:0:0:
282,262,463072,1,0,0:0:0:0:
269,220,463153,1,0,0:0:0:0:
255,179,463234,1,0,0:0:0:0:
241,138,463315,1,0,0:0:0:0:
227,97,463396,1,0,0:0:0:0:
212,56,463477,1,0,0:0:0:0:
50,35,463639,6,0,B|91:108|91:108|157:124,1,150,2|0,0:0|0:0,0:0:0:0:
412,17,463964,2,0,B|371:90|371:90|305:106,1,150,2|0,0:0|0:0,0:0:0:0:
34,181,464288,6,0,B|154:212|154:212|116:222|46:291|102:378|200:378|243:339|245:288|227:231|227:231|302:308|389:257,1,637.500012159348,2|0,0:0|0:0,0:0:0:0:
414,237,465585,1,10,0:0:0:0:
295,360,465748,1,0,0:0:0:0:
295,360,465910,1,0,0:0:0:0:
335,153,466072,5,10,0:0:0:0:
489,312,466235,1,0,0:0:0:0:
489,312,466396,1,0,0:0:0:0:
443,130,466558,5,10,0:0:0:0:
226,181,466721,1,0,0:0:0:0:
38,65,466883,5,2,0:0:0:0:
48,88,466964,1,0,0:0:0:0:
53,112,467045,1,0,0:0:0:0:
53,137,467126,1,0,0:0:0:0:
49,162,467207,2,0,L|100:154,1,42.5000008106232,10|0,0:0|0:0,0:0:0:0:
226,181,467369,5,0,0:0:0:0:
205,195,467450,1,0,0:0:0:0:
189,214,467531,1,0,0:0:0:0:
177,235,467612,1,0,0:0:0:0:
170,260,467694,2,0,L|129:227,1,42.5000008106232,2|0,0:0|0:0,0:0:0:0:
34,244,467856,2,0,L|24:291,1,42.5000008106232
94,365,468018,2,0,L|102:323,1,42.5000008106232
149,110,468180,5,2,0:0:0:0:
190,100,468261,1,0,0:0:0:0:
231,90,468342,1,0,0:0:0:0:
272,80,468423,1,0,0:0:0:0:
314,76,468504,6,0,L|299:126,1,42.5000008106232
455,136,468666,2,0,L|470:186,1,42.5000008106232
330,130,468829,6,0,L|315:180,1,42.5000008106232
441,192,468991,2,0,L|456:242,1,42.5000008106232
345,187,469153,6,0,L|330:237,1,42.5000008106232
500,330,469315,2,0,L|515:280,1,42.5000008106232
212,190,469477,6,4,B|187:269|187:269|216:323,1,127.50000243187,6|0,0:0|0:0,0:0:0:0:
173,118,469802,2,0,B|148:197|148:197|184:262,1,150,2|0,0:0|0:0,0:0:0:0:
139,48,470126,5,2,0:0:0:0:
76,237,470288,1,0,0:0:0:0:
252,105,470450,1,0,0:0:0:0:
27,108,470612,2,0,P|22:164|94:244,1,150,2|0,0:0|0:0,0:0:0:0:
213,273,470937,5,0,0:0:0:0:
229,261,471018,1,0,0:0:0:0:
244,250,471099,1,2,0:0:0:0:
257,287,471180,1,0,0:0:0:0:
288,312,471261,1,0,0:0:0:0:
326,323,471342,1,0,0:0:0:0:
365,320,471423,2,0,L|353:376,1,50,2|0,0:0|0:0,0:0:0:0:
473,271,471585,2,0,L|485:327,1,50
337,227,471748,5,2,0:0:0:0:
452,164,471910,1,0,0:0:0:0:
342,94,472072,6,0,P|270:112|189:84,1,150,2|0,0:0|0:0,0:0:0:0:
176,71,472396,1,0,0:0:0:0:
243,198,472558,6,0,P|171:218|115:283,1,150,2|0,0:0|0:0,0:0:0:0:
111,301,472882,1,0,0:0:0:0:
110,160,473045,1,0,0:0:0:0:
22,46,473207,2,0,L|22:263,1,200,2|0,0:0|0:0,0:0:0:0:
228,311,473694,5,2,0:0:0:0:
110,160,473856,1,0,0:0:0:0:
251,336,474018,2,0,P|308:320|356:337,1,100,2|0,0:0|0:0,0:0:0:0:
483,157,474342,1,0,0:0:0:0:
365,308,474504,1,0,0:0:0:0:
201,205,474666,6,0,P|265:182|327:120,1,150,2|0,0:0|0:0,0:0:0:0:
329,96,474991,1,0,0:0:0:0:
483,157,475153,1,0,0:0:0:0:
483,157,475234,1,0,0:0:0:0:
483,157,475315,2,0,L|422:71,1,100,2|0,0:0|0:0,0:0:0:0:
151,5,475639,2,0,L|212:91,1,100,2|0,0:0|0:0,0:0:0:0:
370,304,475964,6,0,B|318:281|318:281|276:299,1,100,2|0,0:0|0:0,0:0:0:0:
101,331,476288,2,0,B|153:354|153:354|195:336,1,100,2|0,0:0|0:0,0:0:0:0:
353,174,476612,1,2,0:0:0:0:
324,183,476694,1,0,0:0:0:0:
295,193,476775,1,0,0:0:0:0:
266,202,476856,1,0,0:0:0:0:
230,236,476937,5,2,0:0:0:0:
196,214,477018,1,0,0:0:0:0:
162,192,477099,1,0,0:0:0:0:
128,170,477180,1,0,0:0:0:0:
77,138,477261,6,0,P|136:131|225:79,1,150,2|0,0:0|0:0,0:0:0:0:
233,64,477585,1,0,0:0:0:0:
230,236,477748,6,0,P|289:243|378:295,1,150,2|0,0:0|0:0,0:0:0:0:
386,310,478072,1,0,0:0:0:0:
353,174,478234,1,0,0:0:0:0:
434,54,478396,2,0,L|467:236,1,150,2|0,0:0|0:0,0:0:0:0:
230,236,478721,5,0,0:0:0:0:
230,236,478802,1,0,0:0:0:0:
230,236,478883,2,0,L|250:128,1,100
353,174,479207,5,2,0:0:0:0:
272,351,479369,1,0,0:0:0:0:
321,35,479531,5,2,0:0:0:0:
386,310,479693,1,0,0:0:0:0:
183,26,479856,6,0,P|168:90|106:157,1,150,2|0,0:0|0:0,0:0:0:0:
84,161,480180,1,0,0:0:0:0:
78,327,480342,1,0,0:0:0:0:
78,327,480423,1,0,0:0:0:0:
78,327,480504,2,0,B|105:274|105:274|158:250,1,100,2|0,0:0|0:0,0:0:0:0:
70,6,480829,2,0,B|43:59|43:59|-10:83,1,100,2|0,0:0|0:0,0:0:0:0:
236,178,481153,6,0,L|265:280,1,100,2|0,0:0|0:0,0:0:0:0:
352,95,481477,2,0,L|326:197,1,100,2|0,0:0|0:0,0:0:0:0:
491,58,481802,1,2,0:0:0:0:
475,83,481883,1,0,0:0:0:0:
469,112,481964,1,0,0:0:0:0:
475,141,482045,1,0,0:0:0:0:
493,165,482126,5,2,0:0:0:0:
476,200,482207,1,0,0:0:0:0:
474,240,482288,1,0,0:0:0:0:
486,279,482369,1,0,0:0:0:0:
451,331,482450,6,0,P|395:321|296:357,1,150,2|0,0:0|0:0,0:0:0:0:
283,366,482775,1,0,0:0:0:0:
263,274,482937,6,0,P|207:284|108:248,1,150,2|0,0:0|0:0,0:0:0:0:
95,239,483262,1,0,0:0:0:0:
212,91,483423,1,0,0:0:0:0:
358,153,483585,2,0,L|455:338,1,200,2|0,0:0|0:0,0:0:0:0:
196,180,484072,5,2,0:0:0:0:
507,130,484234,1,0,0:0:0:0:
212,91,484396,5,2,0:0:0:0:
495,215,484558,1,0,0:0:0:0:
196,180,484721,5,2,0:0:0:0:
507,130,484883,1,0,0:0:0:0:
128,63,485045,6,0,L|97:228,1,150,2|0,0:0|0:0,0:0:0:0:
95,239,485369,1,0,0:0:0:0:
285,158,485531,1,0,0:0:0:0:
285,158,485612,1,0,0:0:0:0:
285,158,485694,2,0,B|291:223|291:223|323:258,1,100,2|0,0:0|0:0,0:0:0:0:
506,312,486018,2,0,B|500:247|500:247|468:212,1,100,2|0,0:0|0:0,0:0:0:0:
288,350,486342,6,0,L|214:270,1,100,2|0,0:0|0:0,0:0:0:0:
387,80,486666,2,0,L|377:180,1,100,2|0,0:0|0:0,0:0:0:0:
198,186,486991,1,2,0:0:0:0:
180,161,487072,1,0,0:0:0:0:
170,132,487153,1,0,0:0:0:0:
173,102,487234,1,0,0:0:0:0:
207,65,487315,5,2,0:0:0:0:
171,83,487396,1,0,0:0:0:0:
131,87,487477,1,0,0:0:0:0:
91,78,487558,1,0,0:0:0:0:
41,44,487639,6,0,P|68:162|64:211,1,150,2|0,0:0|0:0,0:0:0:0:
61,219,487964,1,0,0:0:0:0:
198,186,488126,6,0,P|171:304|175:353,1,150,2|0,0:0|0:0,0:0:0:0:
178,361,488451,1,0,0:0:0:0:
309,377,488612,1,0,0:0:0:0:
387,269,488775,2,0,P|369:170|326:81,1,200
162,92,489261,2,0,L|202:199,1,100
304,253,489585,6,0,L|263:334,1,66.6666666666667,8|0,0:0|0:0,0:0:0:0:
387,269,489802,2,0,L|310:318,1,66.6666666666667,8|0,0:0|0:0,0:0:0:0:
447,334,490018,2,0,L|356:338,1,66.6666666666667,8|0,0:0|0:0,0:0:0:0:
361,187,490234,5,2,0:0:0:0:
316,137,490342,1,0,0:0:0:0:
381,124,490450,1,0,0:0:0:0:
426,172,490558,2,0,L|487:239,2,66.6666666666667
316,137,490883,5,2,0:0:0:0:
295,200,490991,1,0,0:0:0:0:
251,151,491099,1,0,0:0:0:0:
270,88,491207,2,0,L|297:1,2,66.6666666666667
295,200,491531,5,2,0:0:0:0:
360,186,491639,1,0,0:0:0:0:
339,249,491747,1,0,0:0:0:0:
275,264,491855,2,0,L|186:283,2,66.6666666666667
270,88,492180,6,0,L|247:162,1,66.6666666666667,8|0,0:0|0:0,0:0:0:0:
209,278,492396,2,0,L|154:220,1,66.6666666666667,8|0,0:0|0:0,0:0:0:0:
75,125,492612,2,0,L|151:106,1,66.6666666666667,8|0,0:0|0:0,0:0:0:0:
438,155,492829,5,2,0:0:0:0:
427,193,492937,1,0,0:0:0:0:
421,232,493045,1,0,0:0:0:0:
421,271,493153,1,0,0:0:0:0:
429,309,493261,1,0,0:0:0:0:
444,345,493369,1,0,0:0:0:0:
355,361,493477,5,2,0:0:0:0:
322,337,493585,1,0,0:0:0:0:
282,329,493694,1,0,0:0:0:0:
242,327,493802,1,0,0:0:0:0:
202,334,493910,1,0,0:0:0:0:
166,352,494018,1,0,0:0:0:0:
88,314,494126,5,2,0:0:0:0:
120,290,494234,1,0,0:0:0:0:
152,266,494342,1,0,0:0:0:0:
184,243,494450,1,0,0:0:0:0:
216,220,494558,1,0,0:0:0:0:
248,197,494666,1,0,0:0:0:0:
318,152,494775,6,0,L|261:116,1,66.6666666666667,8|0,0:0|0:0,0:0:0:0:
332,8,494991,2,0,L|328:74,1,66.6666666666667,8|0,0:0|0:0,0:0:0:0:
197,72,495207,2,0,L|266:35,1,66.6666666666667,8|0,0:0|0:0,0:0:0:0:
426,68,495423,5,2,0:0:0:0:
424,134,495531,1,0,0:0:0:0:
420,200,495639,1,0,0:0:0:0:
474,239,495748,2,0,L|476:157,2,66.6666666666667
420,200,496072,5,2,0:0:0:0:
364,166,496180,1,0,0:0:0:0:
309,130,496288,1,0,0:0:0:0:
247,157,496397,2,0,L|317:199,2,66.6666666666667
310,130,496721,5,2,0:0:0:0:
367,98,496829,1,0,0:0:0:0:
426,68,496937,1,0,0:0:0:0:
433,1,497046,2,0,L|360:40,2,66.6666666666667
420,200,497369,6,0,L|355:233,1,66.6666666666667,8|0,0:0|0:0,0:0:0:0:
64,87,497585,2,0,L|129:120,1,66.6666666666667,8|0,0:0|0:0,0:0:0:0:
127,229,497802,2,0,L|67:198,1,66.6666666666667,8|0,0:0|0:0,0:0:0:0:
153,24,498018,5,2,0:0:0:0:
192,18,498126,1,0,0:0:0:0:
231,20,498234,1,0,0:0:0:0:
268,32,498342,1,0,0:0:0:0:
299,57,498450,1,0,0:0:0:0:
321,90,498558,1,0,0:0:0:0:
349,177,498666,5,2,0:0:0:0:
378,149,498775,1,0,0:0:0:0:
416,138,498883,1,0,0:0:0:0:
487,178,498991,5,2,0:0:0:0:
458,206,499100,1,0,0:0:0:0:
420,217,499208,1,0,0:0:0:0:
273,193,499315,6,0,L|305:242,3,50
278,279,499639,2,0,L|334:295,3,50
256,353,499964,5,2,0:0:0:0:
214,324,500045,1,0,0:0:0:0:
165,312,500126,1,0,0:0:0:0:
115,318,500207,1,0,0:0:0:0:
68,336,500288,1,0,0:0:0:0:
21,318,500369,1,0,0:0:0:0:
2,271,500450,1,0,0:0:0:0:
24,226,500531,1,0,0:0:0:0:
84,209,500612,6,0,B|42:152|42:152|90:104|84:42,1,187.5,6|0,0:0|0:0,0:0:0:0:
165,187,500937,2,0,B|172:116|172:116|107:99|81:42,1,187.5
252,193,501261,6,0,L|264:60,1,125
442,15,501585,2,0,L|453:139,1,125
311,281,501910,6,0,P|368:247|489:281,1,187.5,2|0,0:0|0:0,0:0:0:0:
401,352,502234,2,0,P|427:292|481:272,1,125
252,193,502558,5,2,0:0:0:0:
311,371,502721,1,0,0:0:0:0:
282,104,502883,5,2,0:0:0:0:
223,282,503046,1,0,0:0:0:0:
214,305,503126,1,0,0:0:0:0:
205,328,503207,6,0,P|151:289|28:286,1,187.5,2|0,0:0|0:0,0:0:0:0:
42,111,503531,2,0,B|69:175|69:175|25:223|33:288,1,187.5
170,194,503856,2,0,L|117:75,1,125
282,104,504180,6,0,B|356:136|359:229|359:229|383:194,1,187.5,2|0,0:0|0:0,0:0:0:0:
471,104,504504,2,0,B|397:136|394:229|394:229|370:194,1,187.5
375,41,504829,1,0,0:0:0:0:
375,321,504991,5,0,0:0:0:0:
375,321,505072,1,0,0:0:0:0:
375,321,505153,1,2,0:0:0:0:
485,204,505315,1,0,0:0:0:0:
264,197,505477,1,2,0:0:0:0:
475,304,505639,1,0,0:0:0:0:
282,104,505802,6,0,P|194:133|177:236,1,187.5,2|0,0:0|0:0,0:0:0:0:
213,328,506126,2,0,B|171:222|171:222|97:189,1,187.5
69,0,506450,2,0,L|114:118,1,125
264,197,506775,6,0,B|326:203|366:243|366:243|351:282|351:282|333:236,1,187.5,2|0,0:0|0:0,0:0:0:0:
415,197,507099,2,0,B|353:203|313:243|313:243|328:282|328:282|346:236,1,187.5
376,384,507423,2,0,L|428:264,1,125
407,116,507748,6,0,P|343:131|236:80,1,187.5
212,37,508072,1,0,0:0:0:0:
44,108,508234,5,0,0:0:0:0:
53,144,508315,1,0,0:0:0:0:
62,180,508396,2,0,B|81:216|50:258|127:260|98:328|98:328|69:377|21:346|31:311,1,250,2|0,0:0|0:0,0:0:0:0:
146,130,508883,5,0,0:0:0:0:
156,165,508964,1,0,0:0:0:0:
166,201,509045,2,0,B|172:259|224:264|149:302|208:347|208:347|258:375|284:324|258:298,1,250,2|0,0:0|0:0,0:0:0:0:
293,190,509531,5,0,0:0:0:0:
305,225,509612,1,0,0:0:0:0:
318,261,509694,2,0,P|337:336|266:295,1,187.5
436,235,510018,2,0,L|471:310,1,62.5
293,190,510180,5,0,0:0:0:0:
306,155,510261,1,0,0:0:0:0:
319,120,510342,2,0,L|344:49,1,62.5,8|0,0:0|0:0,0:0:0:0:
238,79,510504,2,0,L|213:8,1,62.5,8|0,0:0|0:0,0:0:0:0:
353,112,510666,6,0,L|378:41,1,62.5,8|0,0:0|0:0,0:0:0:0:
205,75,510828,2,0,L|180:4,1,62.5,8|0,0:0|0:0,0:0:0:0:
460,47,510991,6,0,B|434:129|519:220|451:310,1,250,2|0,0:0|0:0,0:0:0:0:
8,194,511639,2,0,P|78:169|146:193,1,125
267,181,511964,2,0,P|197:206|129:182,1,125
31,103,512288,6,0,P|8:170|59:299,1,187.5,2|0,0:0|0:0,0:0:0:0:
186,286,512612,2,0,P|125:281|67:303,1,125
200,116,512937,5,0,0:0:0:0:
332,247,513099,1,0,0:0:0:0:
357,77,513261,5,0,0:0:0:0:
186,286,513423,1,0,0:0:0:0:
163,315,513504,1,0,0:0:0:0:
140,344,513585,6,0,B|248:273|297:378|410:324,1,250,2|0,0:0|0:0,0:0:0:0:
357,77,514234,2,0,P|375:146|425:199,1,125
432,25,514558,6,0,P|341:-11|264:69,1,187.5,2|0,0:0|0:0,0:0:0:0:
103,75,514883,2,0,P|194:111|271:31,1,187.5
357,77,515207,2,0,L|283:187,1,125
46,204,515531,5,2,0:0:0:0:
145,186,515694,1,0,0:0:0:0:
188,276,515856,1,2,0:0:0:0:
122,351,516018,1,0,0:0:0:0:
30,310,516180,1,2,0:0:0:0:
287,180,516504,6,0,B|342:222|342:222|353:291,1,125
493,112,516829,2,0,B|438:154|438:154|427:223,1,125
341,71,517153,6,0,P|248:63|165:157,1,187.5
189,237,517477,2,0,P|166:173|182:112,1,125,2|0,0:0|0:0,0:0:0:0:
287,180,517802,2,0,P|298:240|276:297,1,125
35,338,518126,6,0,P|22:274|80:345,1,250,2|0,0:0|0:0,0:0:0:0:
14,171,518612,1,0,0:0:0:0:
33,124,518694,1,0,0:0:0:0:
56,66,518775,5,2,0:0:0:0:
85,88,518856,1,0,0:0:0:0:
121,97,518937,1,0,0:0:0:0:
158,97,519018,1,0,0:0:0:0:
194,89,519099,1,0,0:0:0:0:
226,69,519180,1,0,0:0:0:0:
249,39,519261,2,0,L|277:106,1,62.5
441,33,519423,5,2,0:0:0:0:
406,68,519504,1,0,0:0:0:0:
388,114,519585,1,0,0:0:0:0:
385,163,519666,1,0,0:0:0:0:
406,235,519748,5,2,0:0:0:0:
377,211,519829,1,0,0:0:0:0:
340,217,519910,1,2,0:0:0:0:
311,193,519991,1,0,0:0:0:0:
243,169,520072,6,0,L|233:244,1,62.5,2|0,0:0|0:0,0:0:0:0:
348,355,520234,2,0,L|339:293,1,62.5
253,324,520396,5,2,0:0:0:0:
215,318,520477,1,0,0:0:0:0:
178,311,520558,1,0,0:0:0:0:
141,302,520639,1,0,0:0:0:0:
79,317,520721,5,2,0:0:0:0:
90,294,520802,1,0,0:0:0:0:
96,269,520883,1,0,0:0:0:0:
97,244,520964,1,0,0:0:0:0:
83,208,521045,2,0,P|144:191|157:131,1,125
58,106,521369,6,0,P|116:92|157:135,1,125,2|0,0:0|0:0,0:0:0:0:
249,39,521694,2,0,P|288:92|426:124,1,187.5
436,118,522018,6,0,L|406:269,1,125,2|0,0:0|0:0,0:0:0:0:
314,209,522342,2,0,L|344:360,1,125
157,135,522666,6,0,B|120:144|120:144|177:170|198:268|135:300,1,187.5,2|0,0:0|0:0,0:0:0:0:
208,309,522991,2,0,P|135:310|84:346,1,125
60,238,523315,5,2,0:0:0:0:
252,134,523477,1,0,0:0:0:0:
37,79,523639,5,2,0:0:0:0:
314,209,523801,1,0,0:0:0:0:
348,225,523883,1,0,0:0:0:0:
381,242,523964,6,0,B|372:169|372:169|414:122|421:50,1,187.5,2|0,0:0|0:0,0:0:0:0:
500,226,524288,2,0,B|489:153|489:153|437:118|411:50,1,187.5
252,134,524612,2,0,P|219:212|226:250,1,125
300,334,524937,6,0,B|224:381|158:339|158:339|127:358,1,187.5,2|0,0:0|0:0,0:0:0:0:
21,218,525261,2,0,B|41:304|117:321|117:321|126:357,1,187.5
137,206,525585,2,0,P|103:138|44:104,1,125
173,42,525910,5,2,0:0:0:0:
225,249,526072,1,0,0:0:0:0:
285,17,526234,5,2,0:0:0:0:
137,206,526396,1,0,0:0:0:0:
407,35,526558,6,0,B|443:86|443:86|427:152|427:152|487:208,1,187.5,2|0,0:0|0:0,0:0:0:0:
302,171,526883,2,0,B|350:201|350:201|410:168|410:168|468:190,1,187.5
331,314,527207,2,0,L|200:233,1,125
110,30,527531,6,0,B|139:97|108:158|108:158|141:214,1,187.5,2|0,0:0|0:0,0:0:0:0:
162,30,527856,2,0,B|133:97|164:158|164:158|131:214,1,187.5
32,148,528180,2,0,P|52:78|19:21,1,125
244,95,528504,6,0,P|294:141|422:137,1,187.5,2|0,0:0|0:0,0:0:0:0:
440,123,528829,1,0,0:0:0:0:
297,244,528991,1,0,0:0:0:0:
269,269,529072,1,0,0:0:0:0:
241,294,529153,6,0,P|233:204|137:164,1,187.5,2|0,0:0|0:0,0:0:0:0:
83,303,529477,2,0,P|164:341|247:277,1,187.5
153,162,529802,6,0,P|79:210|69:249,1,125,2|0,0:0|0:0,0:0:0:0:
240,293,530126,2,0,P|235:204|206:176,1,125
35,48,530450,6,0,P|97:78|167:67,1,125,2|0,0:0|0:0,0:0:0:0:
2,148,530775,1,0,0:0:0:0:
228,115,530937,5,0,0:0:0:0:
228,115,531018,1,0,0:0:0:0:
228,115,531099,1,2,0:0:0:0:
158,247,531261,1,0,0:0:0:0:
288,62,531423,5,2,0:0:0:0:
240,293,531585,1,0,0:0:0:0:
355,13,531748,6,0,B|383:64|356:113|356:113|391:154|391:154|389:198,1,187.5,2|0,0:0|0:0,0:0:0:0:
504,53,532072,2,0,B|454:83|453:139|453:139|402:157|402:157|382:196,1,187.5
299,172,532396,6,0,P|331:244|325:294,1,125
456,223,532721,2,0,P|424:295|430:345,1,125
240,293,533045,6,0,B|168:292|168:292|127:356|43:341,1,187.5,2|0,0:0|0:0,0:0:0:0:
2,253,533369,2,0,P|32:326|85:345,1,125
203,195,533694,5,0,0:0:0:0:
87,259,533856,1,0,0:0:0:0:
169,97,534018,5,0,0:0:0:0:
240,293,534180,1,0,0:0:0:0:
254,327,534261,1,0,0:0:0:0:
266,362,534342,6,0,B|306:304|306:304|386:289|377:207,1,187.5,2|0,0:0|0:0,0:0:0:0:
489,362,534666,2,0,B|449:304|449:304|369:289|378:207,1,187.5
460,110,534991,6,0,P|469:176|441:236,1,125
315,29,535315,2,0,P|355:81|361:147,1,125
304,230,535639,6,0,P|206:251|128:176,1,187.5,2|0,0:0|0:0,0:0:0:0:
167,38,535964,2,0,P|187:136|112:214,1,187.5
79,106,536288,5,2,0:0:0:0:
272,117,536450,1,0,0:0:0:0:
28,209,536612,5,2,0:0:0:0:
315,29,536775,1,0,0:0:0:0:
489,182,536937,6,0,B|423:170|342:203|342:203|399:256,1,187.5,2|0,0:0|0:0,0:0:0:0:
250,275,537261,2,0,B|316:287|397:254|397:254|340:201,1,187.5
484,85,537585,2,0,P|413:110|344:103,1,125
167,38,537910,6,0,B|177:102|121:134|121:134|159:211,1,187.5,2|0,0:0|0:0,0:0:0:0:
40,39,538234,2,0,B|30:103|86:135|86:135|48:212,1,187.5
96,311,538558,2,0,L|157:191,1,125
262,14,538883,6,0,L|305:212,1,187.5,2|0,0:0|0:0,0:0:0:0:
274,223,539207,1,0,0:0:0:0:
383,88,539369,1,0,0:0:0:0:
408,60,539450,1,0,0:0:0:0:
433,32,539531,6,0,P|427:105|451:164,1,125,2|0,0:0|0:0,0:0:0:0:
471,301,539856,2,0,P|477:228|453:169,1,125
462,23,540180,6,0,P|456:96|480:155,1,125,2|0,0:0|0:0,0:0:0:0:
441,305,540505,2,0,P|447:232|423:173,1,125
262,14,540829,6,0,L|291:147,1,125,2|0,0:0|0:0,0:0:0:0:
330,305,541153,1,0,0:0:0:0:
181,99,541315,5,0,0:0:0:0:
173,135,541396,1,0,0:0:0:0:
166,171,541477,1,2,0:0:0:0:
77,56,541639,1,0,0:0:0:0:
288,136,541802,1,2,0:0:0:0:
43,206,541964,1,0,0:0:0:0:
371,39,542126,6,0,B|423:127|423:127|414:237,1,187.5,2|0,0:0|0:0,0:0:0:0:
330,305,542450,1,0,0:0:0:0:
330,305,542612,1,0,0:0:0:0:
88,32,542775,6,0,B|36:120|36:120|45:230,1,187.5,2|0,0:0|0:0,0:0:0:0:
120,308,543099,1,0,0:0:0:0:
120,308,543261,1,0,0:0:0:0:
402,33,543423,6,0,B|454:121|454:121|445:231,1,187.5,2|0,0:0|0:0,0:0:0:0:
330,305,543747,1,0,0:0:0:0:
330,305,543909,1,0,0:0:0:0:
57,24,544072,6,0,B|5:112|5:112|14:222,1,187.5,2|0,0:0|0:0,0:0:0:0:
121,304,544396,1,0,0:0:0:0:
121,304,544558,2,0,L|111:228,1,62.5
100,142,544721,1,2,0:0:0:0:
402,33,544937,5,0,0:0:0:0:
363,64,545045,1,0,0:0:0:0:
354,113,545153,1,0,0:0:0:0:
373,159,545261,1,0,0:0:0:0:
413,187,545369,1,2,0:0:0:0:
267,57,545585,5,0,0:0:0:0:
269,107,545694,1,0,0:0:0:0:
270,156,545802,1,0,0:0:0:0:
272,205,545910,1,0,0:0:0:0:
274,254,546018,1,2,0:0:0:0:
161,128,546342,5,2,0:0:0:0:
144,147,546423,1,0,0:0:0:0:
123,161,546504,1,0,0:0:0:0:
98,166,546585,1,0,0:0:0:0:
48,156,546666,5,2,0:0:0:0:
62,190,546748,1,0,0:0:0:0:
77,224,546829,1,0,0:0:0:0:
92,258,546910,1,0,0:0:0:0:
141,251,546991,5,0,0:0:0:0:
127,285,547073,1,0,0:0:0:0:
112,319,547154,1,0,0:0:0:0:
97,353,547235,1,0,0:0:0:0:
292,122,548612,6,0,L|241:153,2,50,2|0|0,0:0|0:0|0:0,0:0:0:0:
320,104,548856,1,8,0:0:0:0:
255,102,548937,6,0,L|227:154,2,50,2|0|0,0:0|0:0|0:0,0:0:0:0:
273,69,549180,1,8,0:0:0:0:
209,103,549261,6,0,L|211:162,2,50,2|0|0,0:0|0:0|0:0,0:0:0:0:
209,73,549504,1,8,0:0:0:0:
178,124,549585,5,2,0:0:0:0:
179,163,549666,1,0,0:0:0:0:
181,203,549748,1,0,0:0:0:0:
183,242,549829,1,0,0:0:0:0:
187,301,549910,6,0,P|249:314|296:359,1,119.999996337891,6|0,0:0|0:0,0:0:0:0:
100,366,550234,2,0,P|81:306|95:243,1,119.999996337891
284,199,550558,5,0,0:0:0:0:
187,301,550721,1,0,0:0:0:0:
178,124,550883,1,0,0:0:0:0:
400,259,551045,6,0,P|345:314|294:329,1,119.999996337891,2|0,0:0|0:0,0:0:0:0:
284,199,551369,1,0,0:0:0:0:
386,137,551531,1,0,0:0:0:0:
306,328,551694,1,0,0:0:0:0:
178,124,551856,5,0,0:0:0:0:
197,111,551937,1,0,0:0:0:0:
217,99,552018,2,0,L|276:63,1,59.9999981689454
284,199,552180,2,0,L|317:139,1,59.9999981689454
400,219,552342,2,0,L|398:150,1,59.9999981689454
511,173,552504,5,2,0:0:0:0:
502,165,552585,1,0,0:0:0:0:
493,157,552667,1,0,0:0:0:0:
484,149,552748,1,0,0:0:0:0:
478,114,552829,5,2,0:0:0:0:
467,111,552910,1,0,0:0:0:0:
456,107,552991,1,0,0:0:0:0:
444,103,553072,1,0,0:0:0:0:
418,77,553153,5,2,0:0:0:0:
284,199,553315,1,0,0:0:0:0:
400,219,553477,1,0,0:0:0:0:
249,89,553640,6,0,P|189:130|169:176,1,119.999996337891,2|0,0:0|0:0,0:0:0:0:
284,199,553964,1,0,0:0:0:0:
227,11,554126,1,0,0:0:0:0:
400,219,554288,1,0,0:0:0:0:
170,172,554450,5,2,0:0:0:0:
163,183,554531,1,0,0:0:0:0:
149,206,554612,2,0,L|152:266,1,59.9999981689454
179,324,554775,2,0,L|182:264,1,59.9999981689454
99,141,554937,5,0,0:0:0:0:
104,131,555018,1,0,0:0:0:0:
110,120,555099,2,0,P|182:136|241:104,1,119.999996337891,2|0,0:0|0:0,0:0:0:0:
312,224,555423,2,0,P|289:154|232:119,1,119.999996337891
166,55,555748,5,0,0:0:0:0:
225,206,555910,1,0,0:0:0:0:
350,95,556072,1,0,0:0:0:0:
104,229,556234,6,0,P|133:294|178:321,1,119.999996337891,2|0,0:0|0:0,0:0:0:0:
225,206,556558,1,0,0:0:0:0:
166,55,556721,1,0,0:0:0:0:
173,320,556883,1,2,0:0:0:0:
336,303,557045,5,0,0:0:0:0:
332,292,557126,1,0,0:0:0:0:
329,281,557207,2,0,L|305:202,1,59.9999981689454
408,204,557369,2,0,L|347:148,1,59.9999981689454
449,98,557531,2,0,L|368:80,1,59.9999981689454
276,71,557694,6,0,P|215:98|161:76,1,119.999996337891,2|0,0:0|0:0,0:0:0:0:
108,28,557937,1,0,0:0:0:0:
108,28,558018,1,0,0:0:0:0:
92,172,558180,1,0,0:0:0:0:
15,125,558342,5,0,0:0:0:0:
73,258,558504,1,0,0:0:0:0:
182,163,558667,1,0,0:0:0:0:
92,172,558829,6,0,B|43:208|43:208|99:264|63:332,1,179.999994506836,2|0,0:0|0:0,0:0:0:0:
62,340,559153,1,0,0:0:0:0:
15,125,559315,1,0,0:0:0:0:
222,248,559477,5,0,0:0:0:0:
253,266,559558,1,0,0:0:0:0:
284,284,559640,2,0,L|283:345,1,59.9999981689454
397,381,559802,1,0,0:0:0:0:
397,346,559883,1,0,0:0:0:0:
397,310,559965,2,0,L|450:280,1,59.9999981689454
416,184,560126,1,0,0:0:0:0:
383,168,560207,1,0,0:0:0:0:
352,152,560288,6,0,L|296:124,3,59.9999981689454,2|0|0|0,0:0|0:0|0:0|0:0,0:0:0:0:
370,65,560612,2,0,L|431:97,3,59.9999981689454
207,127,560937,6,0,L|212:58,1,59.9999981689454
99,143,561099,2,0,L|137:86,1,59.9999981689454
12,71,561261,2,0,L|74:41,1,59.9999981689454
0,172,561423,5,2,0:0:0:0:
9,194,561504,1,0,0:0:0:0:
23,214,561585,1,0,0:0:0:0:
42,229,561667,1,0,0:0:0:0:
64,238,561748,6,0,L|43:295,1,59.9999981689454
121,298,561910,2,0,L|131:358,1,59.9999981689454
209,331,562072,5,2,0:0:0:0:
208,308,562153,1,0,0:0:0:0:
215,286,562234,1,0,0:0:0:0:
227,266,562315,1,0,0:0:0:0:
246,253,562396,6,0,L|221:196,1,59.9999981689454
345,266,562558,2,0,L|308:317,1,59.9999981689454
311,175,562721,2,0,L|372:182,1,59.9999981689454
272,86,562883,5,2,0:0:0:0:
295,89,562964,1,0,0:0:0:0:
318,92,563045,1,0,0:0:0:0:
341,94,563126,1,0,0:0:0:0:
388,101,563207,5,2,0:0:0:0:
372,83,563288,1,0,0:0:0:0:
362,62,563369,1,0,0:0:0:0:
355,39,563450,1,0,0:0:0:0:
388,6,563531,6,0,L|455:16,1,59.9999981689454,2|0,0:0|0:0,0:0:0:0:
388,101,563694,2,0,L|441:144,1,59.9999981689454,8|0,0:0|0:0,0:0:0:0:
346,190,563856,2,0,L|370:254,1,59.9999981689454
266,241,564018,5,2,0:0:0:0:
243,234,564099,1,0,0:0:0:0:
220,227,564180,1,0,0:0:0:0:
197,220,564261,1,0,0:0:0:0:
150,209,564342,6,0,L|163:282,1,59.9999981689454
71,268,564504,2,0,L|140:294,1,59.9999981689454
85,364,564667,2,0,L|141:317,1,59.9999981689454
266,241,564829,5,2,0:0:0:0:
269,218,564910,1,0,0:0:0:0:
277,176,564991,2,0,L|355:153,1,59.9999981689454
395,146,565153,2,0,L|337:129,1,59.9999981689454
150,209,565315,5,0,0:0:0:0:
154,185,565396,1,0,0:0:0:0:
158,161,565477,2,0,L|168:87,3,59.9999981689454,2|0|0|0,0:0|0:0|0:0|0:0,0:0:0:0:
74,119,565802,2,0,L|64:193,3,59.9999981689454
254,89,566126,6,0,L|264:17,1,59.9999981689454
353,123,566288,2,0,L|325:56,1,59.9999981689454
457,108,566450,2,0,L|399:64,1,59.9999981689454
411,196,566612,5,2,0:0:0:0:
399,218,566694,1,0,0:0:0:0:
387,239,566775,1,0,0:0:0:0:
375,260,566856,1,0,0:0:0:0:
363,281,566937,6,0,L|423:280,1,59.9999981689454
273,314,567099,2,0,L|303:366,1,59.9999981689454
180,295,567261,5,2,0:0:0:0:
191,274,567342,1,0,0:0:0:0:
202,253,567423,1,0,0:0:0:0:
213,232,567504,1,0,0:0:0:0:
223,211,567585,6,0,L|252:151,1,59.9999981689454
105,157,567748,2,0,L|142:213,1,59.9999981689454
213,85,567910,2,0,L|146:90,1,59.9999981689454
60,226,568072,5,2,0:0:0:0:
73,246,568153,1,0,0:0:0:0:
88,265,568234,1,0,0:0:0:0:
102,285,568315,1,0,0:0:0:0:
132,323,568396,5,0,0:0:0:0:
138,313,568477,1,0,0:0:0:0:
159,303,568558,1,0,0:0:0:0:
165,293,568639,1,0,0:0:0:0:
198,258,568721,5,0,0:0:0:0:
204,268,568802,1,0,0:0:0:0:
225,278,568883,1,0,0:0:0:0:
231,288,568964,1,0,0:0:0:0:
249,303,569045,1,0,0:0:0:0:
255,313,569126,1,0,0:0:0:0:
281,353,569207,5,2,0:0:0:0:
291,332,569288,1,0,0:0:0:0:
309,318,569369,1,0,0:0:0:0:
330,307,569450,1,0,0:0:0:0:
353,301,569531,1,0,0:0:0:0:
376,304,569612,1,0,0:0:0:0:
421,322,569694,6,0,L|488:272,1,59.9999981689454
379,219,569856,2,0,L|462:210,1,59.9999981689454
378,109,570018,6,0,L|454:143,1,59.9999981689454,2|0,0:0|0:0,0:0:0:0:
287,190,570180,2,0,L|210:157,1,59.9999981689454
262,58,570342,6,0,L|312:125,1,59.9999981689454,2|0,0:0|0:0,0:0:0:0:
142,83,570504,2,0,L|91:17,1,59.9999981689454
7,144,570666,5,2,0:0:0:0:
41,155,570748,1,0,0:0:0:0:
67,179,570829,1,0,0:0:0:0:
83,211,570910,1,0,0:0:0:0:
83,247,570991,6,0,L|46:308,1,59.9999981689454
234,251,571153,2,0,L|271:312,1,59.9999981689454
36,265,571315,6,0,L|-1:326,1,59.9999981689454
278,265,571477,2,0,L|315:326,1,59.9999981689454
192,362,571639,2,0,L|155:301,1,59.9999981689454
165,185,571802,5,2,0:0:0:0:
193,146,571883,1,0,0:0:0:0:
236,124,571964,1,0,0:0:0:0:
283,123,572045,1,0,0:0:0:0:
328,138,572126,1,0,0:0:0:0:
362,171,572207,1,0,0:0:0:0:
378,216,572288,6,0,L|420:157,1,59.9999981689454
390,70,572450,2,0,L|455:39,1,59.9999981689454
174,27,572612,5,2,0:0:0:0:
145,65,572694,1,0,0:0:0:0:
117,104,572775,1,0,0:0:0:0:
90,143,572856,1,0,0:0:0:0:
20,160,572937,5,2,0:0:0:0:
56,209,573019,1,0,0:0:0:0:
92,257,573100,1,0,0:0:0:0:
128,305,573181,1,0,0:0:0:0:
172,359,573261,6,0,P|218:332|278:343,1,100,6|0,0:0|0:0,0:0:0:0:
197,268,573585,2,0,P|243:294|263:351,1,100
324,243,573910,6,0,L|347:351,1,100
440,178,574262,2,0,L|417:286,1,100
245,180,574615,6,0,P|300:148|350:150,1,100
259,86,574990,2,0,P|314:117|338:155,1,100
165,101,575365,2,0,P|172:50|206:5,2,100
245,180,575965,2,0,P|228:262|133:355,1,200
34,177,576611,6,0,P|97:171|151:192,1,100
79,263,577039,2,0,P|105:205|150:169,1,100
340,182,577504,6,0,L|328:296,1,100
245,180,577985,2,0,L|232:72,1,100
440,81,578489,2,0,L|429:184,1,100
232,285,579016,6,0,P|293:273|343:288,1,100
452,286,579561,2,0,P|391:298|341:283,1,100
245,180,580161,5,2,0:0:0:0:
250,185,581511,5,2,0:0:0:0:
256,192,582888,5,6,0:0:0:0:
256,192,583038,12,0,592488,0:0:0:0:
