osu file format v14

[General]
AudioFilename: audio.mp3
AudioLeadIn: 0
PreviewTime: 88210
Countdown: 0
SampleSet: Normal
StackLeniency: 0.4
Mode: 0
LetterboxInBreaks: 0
WidescreenStoryboard: 0

[Editor]
Bookmarks: 94,9024,17954,26884,30233,44745,57024,78233,88280,96093,105024,108373,122884,135163,156373,165303,174233,183163
DistanceSpacing: 3.6
BeatDivisor: 4
GridSize: 4
TimelineZoom: 2.7

[Metadata]
Title:Unrestrained
TitleUnicode:Unrestrained
Artist:Whispered
ArtistUnicode:Whispered
Creator:Maakkeli
Version:Touhou's unfinished cancer
Source:
Tags:Shogunate Macabre melodic power death folk oriental metal samuraimetal
BeatmapID:1028456
BeatmapSetID:481938

[Difficulty]
HPDrainRate:5
CircleSize:4
OverallDifficulty:7
ApproachRate:9
SliderMultiplier:1.8
SliderTickRate:1

[Events]
//Background and Video events
0,0,"unrestrained.png",0,0
//Break Periods
2,93363,103168
//Storyboard Layer 0 (Background)
//Storyboard Layer 1 (Fail)
//Storyboard Layer 2 (Pass)
//Storyboard Layer 3 (Foreground)
//Storyboard Sound Samples

[TimingPoints]
94,279.06976744186,4,1,1,60,1,0
44745,-100,4,1,1,100,0,1
57024,-100,4,1,1,100,0,0
78233,-100,4,1,1,100,0,1
94977,-100,4,1,1,100,0,0
122884,-100,4,1,1,100,0,1
135163,-100,4,1,1,100,0,0
155117,-100,4,1,1,5,0,0
155256,-100,4,1,1,100,0,0

[HitObjects]
64,292,94,6,0,L|172:268,1,90,4|0,0:0|0:0,0:0:0:0:
220,164,373,1,0,0:0:0:0:
144,216,512,1,0,0:0:0:0:
280,248,652,2,0,L|388:220,1,90,8|0,0:0|0:0,0:0:0:0:
188,112,931,1,0,0:0:0:0:
116,280,1070,6,0,L|312:280,1,180
304,200,1489,1,0,0:0:0:0:
240,112,1628,1,0,0:0:0:0:
344,64,1768,2,0,L|408:136,1,90,8|0,0:0|0:0,0:0:0:0:
416,224,2047,1,0,0:0:0:0:
380,324,2187,1,0,0:0:0:0:
256,336,2326,6,0,L|140:332,1,90,4|0,0:0|0:0,0:0:0:0:
88,304,2605,1,0,0:0:0:0:
48,200,2745,1,0,0:0:0:0:
104,124,2884,2,0,L|204:120,1,90,8|0,0:0|0:0,0:0:0:0:
224,220,3163,1,2,0:0:0:0:
260,256,3233,1,2,0:0:0:0:
280,272,3303,6,0,L|480:220,1,180,2|0,0:0|0:0,0:0:0:0:
464,112,3721,1,2,0:0:0:0:
464,112,3791,1,2,0:0:0:0:
464,112,3861,1,2,0:0:0:0:
464,112,3931,1,2,0:0:0:0:
464,112,4000,2,0,L|420:98,3,45,2|2|2|2,0:0|0:0|0:0|0:0,0:0:0:0:
336,64,4280,2,0,L|292:50,3,45,2|2|2|2,0:0|0:0|0:0|0:0,0:0:0:0:
156,88,4559,6,0,L|240:156,1,90,4|0,0:0|0:0,0:0:0:0:
264,232,4838,1,0,0:0:0:0:
344,132,4977,1,0,0:0:0:0:
472,216,5117,2,0,L|382:227,1,90,8|0,0:0|0:0,0:0:0:0:
364,332,5396,1,0,0:0:0:0:
236,328,5535,6,0,L|56:331,1,180
32,196,5954,1,0,0:0:0:0:
72,112,6093,1,0,0:0:0:0:
208,84,6233,1,10,0:0:0:0:
208,84,6303,1,2,0:0:0:0:
208,84,6373,1,2,0:0:0:0:
208,84,6442,1,2,0:0:0:0:
208,84,6512,2,0,L|252:88,3,45,2|2|2|2,0:0|0:0|0:0|0:0,0:0:0:0:
324,92,6791,6,0,L|296:200,1,90,4|0,0:0|0:0,0:0:0:0:
384,228,7070,1,0,0:0:0:0:
324,320,7210,1,0,0:0:0:0:
200,312,7349,1,8,0:0:0:0:
108,256,7489,1,8,0:0:0:0:
140,168,7628,1,8,0:0:0:0:
258,210,7768,6,0,L|456:224,1,180,4|8,0:0|0:0,0:0:0:0:
444,120,8187,1,8,0:0:0:0:
336,80,8326,1,8,0:0:0:0:
200,64,8466,5,10,0:0:0:0:
200,64,8535,1,2,0:0:0:0:
200,64,8605,1,2,0:0:0:0:
200,64,8675,1,2,0:0:0:0:
200,64,8745,2,0,L|176:116,1,45,10|2,0:0|0:0,0:0:0:0:
64,72,8884,2,0,L|48:120,1,45,2|2,0:0|0:0,0:0:0:0:
76,204,9024,6,0,L|188:252,1,90,4|8,0:0|0:0,0:0:0:0:
248,276,9303,1,0,0:0:0:0:
336,304,9442,1,8,0:0:0:0:
368,216,9582,2,0,L|456:188,1,90,0|8,0:0|0:0,0:0:0:0:
264,136,9861,1,0,0:0:0:0:
224,216,10000,6,0,L|44:216,1,180,8|8,0:0|0:0,0:0:0:0:
44,128,10419,1,0,0:0:0:0:
124,52,10559,1,8,0:0:0:0:
232,32,10698,2,0,L|328:64,1,90,0|8,0:0|0:0,0:0:0:0:
416,120,10977,1,0,0:0:0:0:
448,216,11117,1,8,0:0:0:0:
412,300,11256,6,0,L|304:320,1,90,4|8,0:0|0:0,0:0:0:0:
196,296,11535,1,0,0:0:0:0:
200,216,11675,1,8,0:0:0:0:
208,136,11814,2,0,L|312:136,1,90,0|8,0:0|0:0,0:0:0:0:
336,48,12093,1,0,0:0:0:0:
200,36,12233,6,0,L|25:81,1,180,8|8,0:0|0:0,0:0:0:0:
64,208,12652,1,10,0:0:0:0:
64,208,12721,1,2,0:0:0:0:
64,208,12791,1,2,0:0:0:0:
64,208,12861,1,2,0:0:0:0:
64,208,12931,2,0,L|116:224,3,45,10|2|2|2,0:0|0:0|0:0|0:0,0:0:0:0:
152,304,13210,2,0,L|204:320,3,45,10|2|2|2,0:0|0:0|0:0|0:0,0:0:0:0:
308,320,13489,6,0,L|388:280,1,90,4|8,0:0|0:0,0:0:0:0:
468,224,13768,1,0,0:0:0:0:
444,100,13907,1,8,0:0:0:0:
352,76,14047,2,0,L|262:87,1,90,0|8,0:0|0:0,0:0:0:0:
195,164,14326,1,0,0:0:0:0:
123,264,14466,6,0,L|332:260,1,180,8|8,0:0|0:0,0:0:0:0:
424,224,14884,1,0,0:0:0:0:
440,120,15024,1,8,0:0:0:0:
376,44,15163,2,0,L|272:44,1,90,0|8,0:0|0:0,0:0:0:0:
183,60,15442,1,0,0:0:0:0:
115,120,15582,1,8,0:0:0:0:
52,212,15721,6,0,L|168:228,1,90,0|8,0:0|0:0,0:0:0:0:
232,240,16000,1,0,0:0:0:0:
344,204,16140,1,8,0:0:0:0:
324,120,16280,1,8,0:0:0:0:
208,96,16419,1,8,0:0:0:0:
104,104,16559,1,8,0:0:0:0:
52,232,16698,6,0,L|244:304,1,180,8|8,0:0|0:0,0:0:0:0:
348,328,17117,1,8,0:0:0:0:
456,284,17256,1,8,0:0:0:0:
460,184,17396,1,10,0:0:0:0:
460,184,17466,1,2,0:0:0:0:
460,184,17535,1,10,0:0:0:0:
460,184,17605,1,2,0:0:0:0:
460,184,17675,2,0,L|468:128,1,45,10|2,0:0|0:0,0:0:0:0:
360,132,17814,2,0,L|353:176,1,45,10|2,0:0|0:0,0:0:0:0:
408,48,17954,6,0,L|319:35,1,90,4|8,0:0|0:0,0:0:0:0:
212,68,18233,2,0,L|108:72,1,90,2|8,0:0|0:0,0:0:0:0:
204,172,18512,2,0,L|295:185,1,90,10|0,0:0|0:0,0:0:0:0:
235,264,18791,1,8,0:0:0:0:
151,304,18931,1,8,0:0:0:0:
64,252,19070,5,2,0:0:0:0:
124,144,19349,1,2,0:0:0:0:
276,116,19628,1,2,0:0:0:0:
456,188,19907,2,0,L|364:176,1,90,2|0,0:0|0:0,0:0:0:0:
328,160,20117,1,0,0:0:0:0:
284,172,20187,6,0,L|195:159,1,90,4|8,0:0|0:0,0:0:0:0:
112,88,20466,2,0,L|8:92,1,90,2|8,0:0|0:0,0:0:0:0:
40,192,20745,2,0,L|131:205,1,90,10|0,0:0|0:0,0:0:0:0:
240,296,21024,1,8,0:0:0:0:
320,252,21164,1,8,0:0:0:0:
348,160,21303,5,2,0:0:0:0:
184,96,21582,1,2,0:0:0:0:
56,216,21861,2,0,L|160:320,2,135
408,48,22419,6,0,L|319:35,1,90,4|8,0:0|0:0,0:0:0:0:
212,68,22698,2,0,L|108:72,1,90,2|8,0:0|0:0,0:0:0:0:
204,172,22977,2,0,L|295:185,1,90,10|0,0:0|0:0,0:0:0:0:
235,264,23256,1,8,0:0:0:0:
151,304,23396,1,8,0:0:0:0:
64,252,23535,5,2,0:0:0:0:
124,144,23814,1,2,0:0:0:0:
276,116,24093,1,2,0:0:0:0:
420,208,24373,1,2,0:0:0:0:
456,124,24512,1,2,0:0:0:0:
408,48,24652,6,0,L|319:35,1,90,4|8,0:0|0:0,0:0:0:0:
212,68,24931,2,0,L|108:72,1,90,2|8,0:0|0:0,0:0:0:0:
204,172,25210,2,0,L|295:185,1,90,10|0,0:0|0:0,0:0:0:0:
235,264,25489,1,8,0:0:0:0:
151,304,25629,1,8,0:0:0:0:
64,252,25768,5,2,0:0:0:0:
148,112,26047,1,2,0:0:0:0:
324,84,26326,2,0,L|428:188,2,135
164,144,26884,6,0,L|360:224,1,180
284,300,27303,1,0,0:0:0:0:
416,292,27442,2,0,L|520:260,1,90
512,168,27721,1,0,0:0:0:0:
464,100,27861,1,0,0:0:0:0:
400,40,28000,6,0,L|276:68,1,90
168,44,28280,2,0,L|78:34,1,90
60,128,28559,1,0,0:0:0:0:
80,248,28698,1,0,0:0:0:0:
192,212,28838,1,0,0:0:0:0:
320,216,28977,1,0,0:0:0:0:
374,110,29117,6,0,L|288:84,1,90
184,68,29396,2,0,L|94:71,2,90
160,160,29814,1,0,0:0:0:0:
152,264,29954,1,0,0:0:0:0:
240,292,30093,1,0,0:0:0:0:
344,248,30233,5,0,0:0:0:0:
344,248,30303,1,0,0:0:0:0:
344,248,30373,1,0,0:0:0:0:
344,248,30442,1,0,0:0:0:0:
344,248,30512,2,0,L|412:240,3,45
388,168,30791,2,0,L|433:168,3,45
272,168,31070,2,0,L|227:168,3,45
124,64,31349,6,0,L|336:80,1,180
278,176,31768,2,0,L|100:196,1,180
232,292,32187,2,0,L|320:236,1,90
88,92,32466,6,0,L|284:104,1,180
272,180,32884,1,0,0:0:0:0:
192,216,33024,2,0,L|102:216,1,90
232,300,33303,2,0,L|320:244,1,90
252,124,33582,6,0,P|464:100|420:268,1,450
328,312,34419,2,0,L|216:304,1,90
96,284,34698,6,0,L|104:180,1,90
120,112,34977,1,0,0:0:0:0:
184,56,35117,1,0,0:0:0:0:
276,80,35256,1,0,0:0:0:0:
328,168,35396,1,0,0:0:0:0:
272,236,35535,1,0,0:0:0:0:
168,208,35675,1,0,0:0:0:0:
44,120,35814,6,0,L|136:276,1,180
76,332,36233,1,0,0:0:0:0:
236,340,36373,2,0,L|324:316,1,90
372,260,36652,2,0,L|448:204,1,90
464,56,36931,6,0,L|374:43,1,90
272,52,37210,1,0,0:0:0:0:
168,40,37349,1,0,0:0:0:0:
40,124,37489,2,0,L|130:132,1,90
232,184,37768,1,0,0:0:0:0:
328,248,37907,1,0,0:0:0:0:
440,344,38047,6,0,L|260:340,1,180
32,280,38466,2,0,L|210:254,1,180
200,132,38884,2,0,L|324:128,1,90
388,48,39163,5,0,0:0:0:0:
436,128,39303,1,0,0:0:0:0:
412,216,39442,1,0,0:0:0:0:
340,292,39582,1,0,0:0:0:0:
248,320,39721,1,0,0:0:0:0:
156,280,39861,1,0,0:0:0:0:
96,192,40000,1,0,0:0:0:0:
128,80,40140,1,0,0:0:0:0:
224,48,40280,6,0,L|332:48,1,90
312,164,40559,2,0,L|224:180,1,90
316,288,40838,1,0,0:0:0:0:
420,216,40977,1,0,0:0:0:0:
444,104,41117,1,0,0:0:0:0:
360,44,41256,1,0,0:0:0:0:
224,92,41396,6,0,L|46:62,1,180
36,196,41814,2,0,L|164:184,1,90
176,264,42093,1,0,0:0:0:0:
348,224,42233,2,0,L|258:229,1,90
328,104,42512,2,0,P|382:348|275:334,1,450
285,234,43349,2,0,L|196:244,1,90
96,136,43628,6,0,L|53:150,3,45
192,112,43907,2,0,L|264:88,3,45,0|0|0|0,0:0|0:0|0:0|0:0,0:0:0:0:
72,248,44187,2,0,L|144:224,3,45,0|0|0|0,0:0|0:0|0:0|0:0,0:0:0:0:
232,204,44466,2,0,L|304:180,3,45
100,140,44745,6,0,P|168:320|140:72,1,900
116,196,46419,2,0,L|408:192,1,270
336,0,46977,2,0,P|256:380|176:1,1,1080
188,156,48931,2,0,L|300:148,1,90
332,48,49210,2,0,P|183:345|279:27,1,990
376,176,50884,2,0,L|106:172,1,270
132,76,51442,2,0,P|165:322|320:128,1,630
284,40,52559,6,0,L|372:44,3,45
208,55,52838,2,0,L|156:48,3,45
36,36,53117,2,0,L|80:43,3,45
52,160,53396,2,0,L|7:152,3,45
164,156,53675,6,0,P|232:336|496:144,1,630
412,76,54791,2,0,L|116:56,1,270
60,136,55349,2,0,L|329:154,1,270
436,88,55907,2,0,L|140:68,1,270
112,192,56466,2,0,L|198:166,1,90
320,196,56745,2,0,L|272:272,1,90
148,240,57024,5,0,0:0:0:0:
48,200,57163,1,0,0:0:0:0:
72,92,57303,1,0,0:0:0:0:
184,108,57442,1,0,0:0:0:0:
260,200,57582,2,0,L|171:181,1,90
60,240,57861,1,0,0:0:0:0:
108,320,58000,2,0,L|287:316,1,180
380,264,58419,2,0,L|508:240,1,90
376,156,58698,5,0,0:0:0:0:
308,96,58838,1,0,0:0:0:0:
224,132,58977,1,0,0:0:0:0:
192,216,59117,2,0,L|408:192,1,180
424,168,59535,2,0,L|476:84,1,90
380,48,59814,1,0,0:0:0:0:
280,40,59954,1,0,0:0:0:0:
188,60,60093,2,0,L|100:81,1,90
36,224,60373,6,0,L|148:236,1,90
228,284,60652,1,0,0:0:0:0:
228,292,60791,1,0,0:0:0:0:
340,280,60931,1,0,0:0:0:0:
340,280,61070,1,0,0:0:0:0:
408,200,61210,1,0,0:0:0:0:
408,200,61349,1,0,0:0:0:0:
252,60,61489,5,0,0:0:0:0:
300,200,61628,1,0,0:0:0:0:
164,144,61768,1,0,0:0:0:0:
260,116,61907,1,0,0:0:0:0:
344,160,62047,1,0,0:0:0:0:
300,252,62187,1,0,0:0:0:0:
200,264,62326,1,0,0:0:0:0:
136,176,62466,2,0,L|324:196,1,180
272,104,62884,2,0,L|356:72,1,90
372,268,63163,5,0,0:0:0:0:
276,336,63303,1,0,0:0:0:0:
144,324,63442,1,0,0:0:0:0:
72,220,63582,2,0,L|256:228,1,180
316,152,64000,2,0,L|408:156,1,90
328,48,64280,1,0,0:0:0:0:
192,40,64419,1,0,0:0:0:0:
216,112,64559,2,0,L|308:112,1,90
400,60,64838,6,0,L|488:156,1,90
452,264,65117,1,0,0:0:0:0:
440,272,65256,1,0,0:0:0:0:
324,300,65396,1,0,0:0:0:0:
324,300,65535,1,0,0:0:0:0:
192,288,65675,1,0,0:0:0:0:
192,288,65814,1,0,0:0:0:0:
108,196,65954,5,0,0:0:0:0:
80,96,66093,1,0,0:0:0:0:
164,56,66233,1,0,0:0:0:0:
260,56,66373,1,0,0:0:0:0:
336,96,66512,1,0,0:0:0:0:
368,172,66652,1,0,0:0:0:0:
304,248,66791,1,0,0:0:0:0:
208,228,66931,2,0,L|400:200,1,180
484,104,67349,2,0,L|404:48,1,90
288,72,67628,5,0,0:0:0:0:
172,52,67768,1,0,0:0:0:0:
64,40,67907,1,0,0:0:0:0:
88,136,68047,2,0,L|256:228,1,180
320,304,68466,2,0,L|440:280,1,90
404,180,68745,1,0,0:0:0:0:
288,124,68884,1,0,0:0:0:0:
184,76,69024,2,0,L|76:100,1,90
264,240,69303,6,0,L|352:223,1,90
332,288,69582,1,0,0:0:0:0:
332,288,69721,1,0,0:0:0:0:
244,348,69861,1,0,0:0:0:0:
244,348,70000,1,0,0:0:0:0:
120,320,70140,1,0,0:0:0:0:
120,320,70280,1,0,0:0:0:0:
156,192,70419,5,0,0:0:0:0:
224,148,70559,1,0,0:0:0:0:
300,152,70698,1,0,0:0:0:0:
340,216,70838,1,0,0:0:0:0:
308,296,70977,1,0,0:0:0:0:
220,292,71117,1,0,0:0:0:0:
140,256,71256,1,0,0:0:0:0:
120,164,71396,2,0,L|428:176,1,270
300,256,72093,6,0,L|211:248,2,90
332,136,72512,2,0,L|62:128,1,270
160,212,73210,6,0,L|284:224,2,90
232,132,73628,1,0,0:0:0:0:
116,92,73768,2,0,P|396:100|132:72,1,990
100,216,75442,2,0,L|408:196,1,270
368,300,76000,2,0,P|161:320|99:122,1,450
88,136,76838,2,0,P|160:292|420:228,1,450
143,176,77675,2,0,L|232:192,1,90
354,116,77954,2,0,L|444:124,1,90
148,308,78233,5,0,0:0:0:0:
140,312,78373,1,0,0:0:0:0:
152,320,78512,2,0,L|256:312,1,90
388,240,78791,1,0,0:0:0:0:
388,240,78931,1,0,0:0:0:0:
380,240,79070,2,0,L|288:224,1,90
96,88,79349,6,0,L|180:148,1,90
104,240,79628,2,0,L|212:244,1,90
336,252,79907,1,0,0:0:0:0:
360,176,80047,1,0,0:0:0:0:
280,116,80187,2,0,L|172:124,1,90
193,243,80466,6,0,P|353:339|221:155,1,630
116,132,81582,5,0,0:0:0:0:
116,132,81721,1,0,0:0:0:0:
200,104,81861,1,0,0:0:0:0:
292,108,82000,1,0,0:0:0:0:
160,228,82140,1,0,0:0:0:0:
240,200,82280,1,0,0:0:0:0:
332,184,82419,1,0,0:0:0:0:
400,260,82559,1,0,0:0:0:0:
328,332,82698,6,0,L|208:328,1,90
128,300,82977,1,0,0:0:0:0:
56,216,83117,1,0,0:0:0:0:
120,96,83256,2,0,L|216:88,1,90
288,40,83535,1,0,0:0:0:0:
312,132,83675,2,0,L|496:144,1,180
452,288,84093,2,0,L|362:280,1,90
228,248,84373,2,0,L|308:204,1,90
336,80,84652,2,0,L|236:64,1,90
84,248,86605,6,0,L|148:272,3,45
126,143,86884,2,0,L|84:128,3,45
188,148,87163,5,0,0:0:0:0:
188,148,87303,1,0,0:0:0:0:
188,148,87442,2,0,L|312:164,1,90
440,200,87721,1,0,0:0:0:0:
440,200,87861,1,0,0:0:0:0:
440,200,88000,2,0,L|344:232,1,90
64,260,88280,6,0,L|176:264,1,90
256,288,88559,2,0,L|352:280,1,90
308,188,88838,1,0,0:0:0:0:
236,160,88977,1,0,0:0:0:0:
140,156,89117,2,0,L|40:160,1,90
52,264,89396,2,0,P|200:328|100:64,1,630
100,204,90512,5,0,0:0:0:0:
188,192,90652,1,0,0:0:0:0:
224,184,90791,1,0,0:0:0:0:
248,180,90931,1,0,0:0:0:0:
268,100,91070,2,0,L|224:103,3,45
120,44,91349,2,0,L|164:41,3,45
68,124,91628,6,0,L|188:148,1,90
128,216,91907,1,0,0:0:0:0:
112,328,92047,1,0,0:0:0:0:
236,308,92187,2,0,L|356:284,1,90
332,172,92466,1,0,0:0:0:0:
112,164,92605,6,0,L|320:208,1,180
320,276,93024,2,0,L|412:256,1,90
112,44,103768,6,0,L|260:60,1,135
296,72,104047,2,0,L|356:48,2,45
372,132,104326,1,0,0:0:0:0:
424,216,104466,2,0,L|334:219,1,90
368,304,104745,2,0,L|280:323,1,90
28,272,105024,6,0,L|212:308,1,180
224,216,105442,1,0,0:0:0:0:
296,220,105582,2,0,L|400:188,1,90
280,132,105861,1,0,0:0:0:0:
156,100,106000,1,0,0:0:0:0:
244,64,106140,6,0,L|440:68,1,180
416,164,106559,1,0,0:0:0:0:
326,218,106698,2,0,L|240:244,1,90
152,176,106977,2,0,L|62:176,1,90
108,292,107256,6,0,L|296:312,2,180
168,88,107954,1,0,0:0:0:0:
80,44,108093,1,0,0:0:0:0:
64,128,108233,1,0,0:0:0:0:
72,240,108373,6,0,L|156:248,1,45
164,196,108512,2,0,L|240:196,1,45
224,260,108652,2,0,L|284:256,1,45
336,220,108791,2,0,L|376:176,1,45
308,132,108931,2,0,L|244:128,1,45
188,108,109070,2,0,L|143:99,1,45
176,196,109210,2,0,L|132:185,1,45
64,128,109349,2,0,L|20:133,1,45
72,44,109489,6,0,L|180:44,1,90
256,64,109768,2,0,L|360:60,1,90
228,168,110047,2,0,L|138:168,1,90
320,224,110326,2,0,L|432:216,1,90
320,324,110605,5,0,0:0:0:0:
208,324,110745,1,0,0:0:0:0:
144,228,110884,1,0,0:0:0:0:
56,172,111024,1,0,0:0:0:0:
20,284,111163,2,0,L|124:288,1,90
232,276,111442,2,0,L|324:240,1,90
360,128,111721,6,0,L|456:284,1,180
360,320,112140,2,0,L|180:323,1,180
112,216,112559,2,0,L|228:220,1,90
384,144,112838,5,0,0:0:0:0:
240,104,112977,1,0,0:0:0:0:
320,204,113117,1,0,0:0:0:0:
336,84,113256,1,0,0:0:0:0:
248,184,113396,1,0,0:0:0:0:
388,220,113535,1,0,0:0:0:0:
292,116,113675,1,0,0:0:0:0:
268,272,113814,1,0,0:0:0:0:
376,180,113954,6,0,L|196:164,1,180
108,292,114373,2,0,L|288:284,1,180
344,228,114791,2,0,L|440:196,1,90
408,76,115070,6,0,L|228:76,1,180
80,56,115489,1,0,0:0:0:0:
92,180,115628,2,0,L|196:176,1,90
152,284,115907,2,0,L|260:272,1,90
280,92,116187,6,0,L|472:156,1,180
440,224,116605,2,0,L|260:216,1,180
140,284,117024,2,0,L|252:272,1,90
288,188,117303,5,0,0:0:0:0:
132,132,117442,1,0,0:0:0:0:
232,92,117582,1,0,0:0:0:0:
320,116,117721,1,0,0:0:0:0:
256,200,117861,1,0,0:0:0:0:
152,164,118000,1,0,0:0:0:0:
164,248,118140,1,0,0:0:0:0:
76,264,118280,1,0,0:0:0:0:
96,140,118419,6,0,L|216:128,1,90
232,220,118698,2,0,L|348:196,1,90
332,116,118977,2,0,L|220:96,1,90
136,84,119256,2,0,L|24:96,1,90
144,208,119535,6,0,L|420:192,1,270
420,116,120093,2,0,L|152:82,1,270
104,176,120652,2,0,P|212:308|416:172,1,450
384,68,121489,2,0,L|284:60,1,90
172,28,121768,6,0,L|129:42,3,45
68,128,122047,2,0,L|25:142,3,45
196,140,122326,2,0,L|238:125,3,45
120,240,122605,2,0,L|76:252,3,45
200,296,122884,6,0,P|391:313|156:230,1,900
108,244,124559,2,0,L|400:240,1,270
328,23,125117,2,0,P|248:403|168:24,1,1080
204,172,127070,2,0,L|316:164,1,90
220,30,127349,2,0,P|368:327|172:60,1,990
340,148,129024,2,0,L|70:144,1,270
100,72,129582,2,0,P|116:312|288:124,1,630
208,88,130698,6,0,L|296:92,3,45
240,216,130977,2,0,L|308:228,3,45,0|0|0|0,0:0|0:0|0:0|0:0,0:0:0:0:
88,112,131256,2,0,L|156:124,3,45,0|0|0|0,0:0|0:0|0:0|0:0,0:0:0:0:
84,232,131535,2,0,L|39:224,3,45,0|0|0|0,0:0|0:0|0:0|0:0,0:0:0:0:
100,140,131814,6,0,P|168:320|432:128,1,630,0|0,0:0|0:0,0:0:0:0:
416,60,132931,2,0,L|120:40,1,270
60,104,133489,2,0,L|329:122,1,270
436,100,134047,2,0,L|140:80,1,270
256,280,134605,2,0,L|352:252,1,90
288,120,134884,2,0,L|340:36,1,90
57,68,135163,6,0,L|272:232,1,270
288,148,135721,2,0,L|466:169,1,180
432,304,136140,2,0,L|252:307,1,180
112,300,136559,2,0,L|23:316,1,90
152,184,136838,5,0,0:0:0:0:
224,160,136977,1,0,0:0:0:0:
288,196,137117,1,0,0:0:0:0:
192,292,137256,2,0,L|408:268,1,180
376,168,137675,2,0,L|428:84,1,90
336,56,137954,5,0,0:0:0:0:
208,36,138093,1,0,0:0:0:0:
88,60,138233,1,0,0:0:0:0:
52,156,138373,1,0,0:0:0:0:
32,272,138512,6,0,L|224:296,1,180
264,288,138931,1,0,0:0:0:0:
376,240,139070,1,0,0:0:0:0:
376,240,139210,1,0,0:0:0:0:
416,128,139349,1,0,0:0:0:0:
416,128,139489,1,0,0:0:0:0:
284,40,139628,5,0,0:0:0:0:
256,184,139768,1,0,0:0:0:0:
192,108,139907,1,0,0:0:0:0:
248,96,140047,1,0,0:0:0:0:
344,148,140187,1,0,0:0:0:0:
328,224,140326,1,0,0:0:0:0:
256,264,140466,1,0,0:0:0:0:
124,196,140605,2,0,L|312:216,1,180
332,140,141024,2,0,L|416:108,1,90
440,264,141303,5,0,0:0:0:0:
312,320,141442,1,0,0:0:0:0:
208,288,141582,1,0,0:0:0:0:
128,184,141721,2,0,L|312:192,1,180
380,96,142140,2,0,L|290:92,1,90
84,136,142419,5,0,0:0:0:0:
180,140,142559,1,0,0:0:0:0:
232,48,142698,1,0,0:0:0:0:
344,36,142838,1,0,0:0:0:0:
452,120,142977,6,0,L|304:232,1,180
280,316,143396,1,0,0:0:0:0:
176,320,143535,1,0,0:0:0:0:
176,320,143675,1,0,0:0:0:0:
72,308,143814,1,0,0:0:0:0:
72,308,143954,1,0,0:0:0:0:
80,208,144093,5,0,0:0:0:0:
152,180,144233,1,0,0:0:0:0:
180,84,144373,1,0,0:0:0:0:
280,72,144512,1,0,0:0:0:0:
320,136,144652,1,0,0:0:0:0:
384,196,144791,1,0,0:0:0:0:
324,264,144931,1,0,0:0:0:0:
232,296,145070,2,0,L|53:321,1,180
52,236,145489,2,0,L|84:152,1,90
208,136,145768,5,0,0:0:0:0:
288,136,145907,1,0,0:0:0:0:
312,60,146047,1,0,0:0:0:0:
128,68,146187,2,0,L|296:160,1,180
336,264,146605,2,0,L|424:246,1,90
428,136,146884,5,0,0:0:0:0:
336,104,147024,1,0,0:0:0:0:
224,116,147163,1,0,0:0:0:0:
216,208,147303,1,0,0:0:0:0:
320,216,147442,6,0,L|408:199,1,90
340,324,147721,1,0,0:0:0:0:
340,324,147861,1,0,0:0:0:0:
224,320,148000,1,0,0:0:0:0:
224,320,148140,1,0,0:0:0:0:
116,288,148280,1,0,0:0:0:0:
116,288,148419,1,0,0:0:0:0:
176,188,148559,5,0,0:0:0:0:
224,124,148698,1,0,0:0:0:0:
312,140,148838,1,0,0:0:0:0:
392,180,148977,1,0,0:0:0:0:
344,264,149117,1,0,0:0:0:0:
244,288,149256,1,0,0:0:0:0:
148,248,149396,1,0,0:0:0:0:
140,144,149535,2,0,L|328:152,1,180
416,88,149954,2,0,L|328:68,1,90
160,56,150233,5,0,0:0:0:0:
168,60,150373,1,0,0:0:0:0:
168,60,150512,1,0,0:0:0:0:
48,136,150652,2,0,L|252:168,1,180
312,216,151070,2,0,L|400:168,1,90
476,88,151349,5,0,0:0:0:0:
464,48,151489,1,0,0:0:0:0:
360,40,151628,1,0,0:0:0:0:
284,56,151768,1,0,0:0:0:0:
224,260,151907,5,0,0:0:0:0:
140,272,152047,1,0,0:0:0:0:
56,208,152187,1,0,0:0:0:0:
56,104,152326,1,0,0:0:0:0:
168,72,152466,2,0,L|276:72,1,90
422,136,152745,2,0,L|336:160,1,90
256,212,153024,5,0,0:0:0:0:
160,168,153163,1,0,0:0:0:0:
304,188,153303,1,0,0:0:0:0:
316,124,153442,1,0,0:0:0:0:
120,128,153582,2,0,L|228:128,1,90
272,232,153861,2,0,L|376:204,1,90
256,192,154140,12,0,155117,0:0:0:0:
284,264,155256,6,0,L|404:304,2,90
156,300,155675,1,0,0:0:0:0:
128,152,155814,2,0,L|228:144,1,90
172,284,156093,2,0,L|292:260,1,90
312,220,156373,5,0,0:0:0:0:
340,224,156512,1,0,0:0:0:0:
360,224,156652,2,0,L|456:216,1,90
452,100,156931,1,0,0:0:0:0:
416,80,157070,1,0,0:0:0:0:
368,72,157210,2,0,L|268:72,1,90
108,152,157489,6,0,L|216:152,1,90
180,304,157768,2,0,L|296:304,1,90
372,252,158047,1,0,0:0:0:0:
304,176,158187,1,0,0:0:0:0:
244,48,158326,2,0,L|348:48,1,90
392,84,158605,6,0,P|272:340|128:120,1,630
64,76,159721,5,0,0:0:0:0:
152,44,159861,1,0,0:0:0:0:
244,56,160000,1,0,0:0:0:0:
320,48,160140,1,0,0:0:0:0:
416,60,160280,1,0,0:0:0:0:
468,116,160419,1,0,0:0:0:0:
432,188,160559,1,0,0:0:0:0:
316,216,160698,1,0,0:0:0:0:
284,312,160838,6,0,L|392:276,1,90
364,160,161117,1,0,0:0:0:0:
216,208,161256,1,0,0:0:0:0:
124,120,161396,2,0,L|232:120,1,90
284,88,161675,1,0,0:0:0:0:
312,252,161814,6,0,L|133:275,1,180
56,224,162233,1,0,0:0:0:0:
56,140,162373,1,0,0:0:0:0:
176,188,162512,2,0,L|288:200,1,90
328,256,162791,2,0,L|428:228,1,90
352,112,163070,6,0,L|448:76,2,90
224,192,163489,1,0,0:0:0:0:
356,264,163628,2,0,L|271:295,2,90
440,160,164047,6,0,L|248:88,1,180
228,196,164466,1,0,0:0:0:0:
180,88,164605,1,0,0:0:0:0:
44,224,164745,2,0,L|104:256,3,45
88,160,165024,2,0,L|148:192,3,45
148,308,165303,5,0,0:0:0:0:
140,312,165442,1,0,0:0:0:0:
152,320,165582,2,0,L|256:312,1,90
388,240,165861,1,0,0:0:0:0:
388,240,166000,1,0,0:0:0:0:
380,240,166140,2,0,L|288:224,1,90
96,88,166419,6,0,L|180:148,1,90
104,240,166698,2,0,L|212:244,1,90
336,252,166977,1,0,0:0:0:0:
360,176,167117,1,0,0:0:0:0:
260,148,167256,2,0,L|177:111,1,90
193,243,167535,6,0,P|353:339|221:155,1,630
116,132,168652,5,0,0:0:0:0:
116,132,168791,1,0,0:0:0:0:
200,104,168931,1,0,0:0:0:0:
292,108,169070,1,0,0:0:0:0:
160,228,169210,1,0,0:0:0:0:
244,188,169349,1,0,0:0:0:0:
320,172,169489,1,0,0:0:0:0:
356,216,169628,1,0,0:0:0:0:
224,300,169768,6,0,L|344:320,1,90
372,204,170047,2,0,L|282:209,1,90
304,112,170326,2,0,L|412:96,1,90
448,204,170605,1,0,0:0:0:0:
448,312,170745,1,0,0:0:0:0:
344,332,170884,6,0,L|248:340,1,90
120,248,171163,2,0,L|30:254,1,90
164,180,171442,1,0,0:0:0:0:
264,216,171582,2,0,L|360:192,2,90
100,216,172000,5,0,0:0:0:0:
100,216,172140,1,0,0:0:0:0:
100,216,172280,2,0,L|208:176,1,90
320,260,172559,1,0,0:0:0:0:
320,260,172698,1,0,0:0:0:0:
320,252,172838,2,0,L|432:236,1,90
424,156,173117,5,0,0:0:0:0:
356,80,173256,1,0,0:0:0:0:
220,56,173396,1,0,0:0:0:0:
136,96,173535,1,0,0:0:0:0:
184,208,173675,2,0,L|248:232,3,45
72,188,173954,2,0,L|30:173,3,45
132,316,174233,6,0,L|248:296,1,90
236,208,174512,2,0,L|325:193,1,90
192,88,174791,2,0,L|284:104,2,60
140,128,175070,2,0,L|81:118,2,60
104,180,175349,6,0,L|296:212,1,180
424,148,175768,1,0,0:0:0:0:
424,148,175907,1,0,0:0:0:0:
424,148,176047,1,0,0:0:0:0:
336,100,176187,2,0,L|247:82,1,90
52,208,176466,6,0,L|176:212,1,90
232,260,176745,1,0,0:0:0:0:
328,276,176884,1,0,0:0:0:0:
344,184,177024,1,0,0:0:0:0:
256,160,177163,1,0,0:0:0:0:
144,136,177303,1,0,0:0:0:0:
184,56,177442,1,0,0:0:0:0:
304,88,177582,6,0,L|436:84,1,90
364,220,177861,2,0,L|260:228,1,90
160,240,178140,1,0,0:0:0:0:
160,240,178280,1,0,0:0:0:0:
160,240,178419,1,0,0:0:0:0:
160,240,178559,1,0,0:0:0:0:
76,136,178698,6,0,L|244:140,2,135
112,48,179256,1,0,0:0:0:0:
220,68,179396,1,0,0:0:0:0:
304,104,179535,1,0,0:0:0:0:
226,219,179675,6,0,L|404:192,1,180
124,276,180093,1,0,0:0:0:0:
72,184,180233,1,0,0:0:0:0:
88,88,180373,1,0,0:0:0:0:
160,92,180512,1,0,0:0:0:0:
240,104,180652,1,0,0:0:0:0:
336,132,180791,1,0,0:0:0:0:
296,212,180931,6,0,L|384:296,1,90
480,216,181210,2,0,L|414:153,1,90
392,56,181489,1,0,0:0:0:0:
304,60,181628,1,0,0:0:0:0:
200,112,181768,1,0,0:0:0:0:
216,232,181907,6,0,L|396:252,1,180
405,158,182326,2,0,L|316:156,1,90
176,168,182605,2,0,L|132:160,3,45
184,224,182884,2,0,L|280:224,1,90
276,288,183163,6,0,L|464:292,1,180
464,176,183582,2,0,L|284:172,1,180
196,248,184000,2,0,L|108:226,1,90
112,124,184280,6,0,L|300:96,1,180
220,24,184698,1,0,0:0:0:0:
96,40,184838,1,0,0:0:0:0:
20,96,184977,1,0,0:0:0:0:
56,228,185117,2,0,L|144:208,1,90
264,232,185396,6,0,L|336:148,1,90
404,80,185675,2,0,L|316:60,1,90
136,96,185954,1,0,0:0:0:0:
56,88,186093,1,0,0:0:0:0:
220,140,186233,1,0,0:0:0:0:
232,56,186373,1,0,0:0:0:0:
96,176,186512,6,0,L|220:200,1,90
256,248,186791,1,0,0:0:0:0:
312,192,186931,1,0,0:0:0:0:
332,304,187070,2,0,L|456:280,1,90
436,172,187349,1,0,0:0:0:0:
352,132,187489,1,0,0:0:0:0:
252,52,187628,6,0,L|162:40,2,90
364,116,188047,1,0,0:0:0:0:
332,204,188187,1,0,0:0:0:0:
260,240,188326,1,0,0:0:0:0:
156,220,188466,1,0,0:0:0:0:
64,172,188605,6,0,L|256:120,1,180
340,60,189024,1,0,0:0:0:0:
400,148,189163,1,0,0:0:0:0:
364,248,189303,2,0,L|277:273,1,90
200,184,189582,2,0,L|113:209,1,90
112,328,189861,6,0,L|220:320,1,90
288,296,190140,1,0,0:0:0:0:
264,196,190280,1,0,0:0:0:0:
384,208,190419,2,0,L|444:128,1,90
408,60,190698,1,0,0:0:0:0:
280,40,190838,1,0,0:0:0:0:
136,88,190977,6,0,L|252:120,1,90
344,144,191256,1,0,0:0:0:0:
300,232,191396,1,0,0:0:0:0:
196,236,191535,2,0,L|151:231,3,45
104,304,191814,2,0,L|176:312,3,45
84,180,192093,6,0,L|192:180,1,90
264,148,192373,1,0,0:0:0:0:
352,92,192512,1,0,0:0:0:0:
292,56,192652,2,0,L|202:56,1,90
96,96,192931,1,0,0:0:0:0:
108,200,193070,2,0,L|312:196,1,180
400,196,193489,1,0,0:0:0:0:
400,196,193628,1,0,0:0:0:0:
400,196,193768,1,0,0:0:0:0:
