osu file format v14

[General]
AudioFilename: audio.mp3
AudioLeadIn: 0
PreviewTime: 88210
Countdown: 0
SampleSet: Normal
StackLeniency: 0.4
Mode: 0
LetterboxInBreaks: 0
WidescreenStoryboard: 0

[Editor]
DistanceSpacing: 1
BeatDivisor: 4
GridSize: 4
TimelineZoom: 2.5

[Metadata]
Title:Unrestrained
TitleUnicode:Unrestrained
Artist:Whispered
ArtistUnicode:Whispered
Creator:Maakkeli
Version:Deliverance
Source:
Tags:Shogunate Macabre melodic power death folk oriental metal samuraimetal
BeatmapID:1028455
BeatmapSetID:481938

[Difficulty]
HPDrainRate:6
CircleSize:4.3
OverallDifficulty:9
ApproachRate:9.3
SliderMultiplier:1.8
SliderTickRate:2

[Events]
//Background and Video events
0,0,"unrestrained.png",0,0
//Break Periods
//Storyboard Layer 0 (Background)
//Storyboard Layer 1 (Fail)
//Storyboard Layer 2 (Pass)
//Storyboard Layer 3 (Foreground)
//Storyboard Sound Samples

[TimingPoints]
94,279.06976744186,4,1,1,60,1,0
3303,-125,4,1,1,60,0,0
3721,-100,4,1,1,60,0,0
6512,-100,4,1,2,60,0,0
6652,-100,4,1,1,60,0,0
7349,-100,4,1,2,60,0,0
7489,-100,4,1,1,60,0,0
8745,-100,4,1,2,60,0,0
9024,-86.9565217391304,4,1,1,60,0,0
16280,-86.9565217391304,4,1,2,60,0,0
16559,-86.9565217391304,4,1,1,60,0,0
16698,-86.9565217391304,4,1,2,60,0,0
16977,-86.9565217391304,4,1,1,60,0,0
17117,-86.9565217391304,4,1,2,60,0,0
17396,-86.9565217391304,4,1,1,60,0,0
17466,-86.9565217391304,4,1,2,60,0,0
17814,-86.9565217391304,4,1,1,60,0,0
17954,-117.647058823529,4,1,1,60,0,0
22070,-117.647058823529,4,1,2,60,0,0
22419,-117.647058823529,4,1,1,60,0,0
24512,-117.647058823529,4,1,2,60,0,0
24652,-117.647058823529,4,1,1,60,0,0
26535,-117.647058823529,4,1,2,60,0,0
26745,-117.647058823529,4,1,1,60,0,0
26884,-100,4,1,1,60,0,0
43977,-100,4,1,2,60,0,0
44187,-100,4,1,1,60,0,0
44256,-100,4,1,2,60,0,0
44466,-100,4,1,1,60,0,0
44535,-100,4,1,1,38,0,0
44745,-86.9565217391304,4,1,1,60,0,1
45024,-86.9565217391304,4,1,4,60,0,1
45303,-86.9565217391304,4,1,3,60,0,1
52838,-86.9565217391304,4,1,1,60,0,1
53117,-86.9565217391304,4,1,2,60,0,1
53187,-86.9565217391304,4,1,2,36,0,1
53396,-86.9565217391304,4,1,2,60,0,1
53466,-86.9565217391304,4,1,2,36,0,1
53675,-86.9565217391304,4,1,1,60,0,1
53954,-86.9565217391304,4,1,4,60,0,1
54233,-86.9565217391304,4,1,3,60,0,1
56535,-86.9565217391304,4,1,3,36,0,1
56745,-86.9565217391304,4,1,3,60,0,1
57024,-86.9565217391304,4,1,1,60,0,0
58000,-100,4,1,1,60,0,0
61628,-100,4,1,2,60,0,0
61907,-100,4,1,1,60,0,0
66093,-100,4,1,1,45,0,0
66373,-100,4,1,1,60,0,0
70977,-100,4,1,1,40,0,0
71117,-100,4,1,2,60,0,0
71256,-100,4,1,1,60,0,0
73768,-86.9565217391304,4,1,1,60,0,0
75303,-86.9565217391304,4,1,1,40,0,0
75442,-86.9565217391304,4,1,1,60,0,0
76419,-86.9565217391304,4,1,1,40,0,0
76559,-86.9565217391304,4,1,1,60,0,0
78233,-86.9565217391304,4,1,1,60,0,1
94838,-100,4,1,1,60,0,0
96093,-86.9565217391304,4,1,1,60,0,1
96163,-86.9565217391304,4,1,1,60,0,0
105024,-100,4,1,1,60,0,0
122884,-86.9565217391304,4,1,1,60,0,1
135163,-86.9565217391304,4,1,1,60,0,0
136140,-100,4,1,1,60,0,1
154140,-100,4,1,1,60,0,0
156373,-100,4,1,1,60,0,1
173675,-100,4,1,1,60,0,0
174233,-100,4,1,1,60,0,1
193768,-100,4,1,1,60,0,0

[HitObjects]
83,269,94,5,12,0:0:0:0:
346,149,233,1,12,0:0:0:0:
73,289,2326,5,12,0:0:0:0:
334,171,2465,1,12,0:0:0:0:
116,49,3163,5,2,0:0:0:0:
116,49,3233,1,2,0:0:0:0:
116,49,3303,6,0,B|147:143|147:143|129:208,1,144,12|2,0:0|0:0,0:0:0:0:
270,37,3721,1,10,0:0:0:0:
293,23,3791,1,2,0:0:0:0:
319,20,3861,1,2,0:0:0:0:
345,23,3931,1,2,0:0:0:0:
372,57,4000,5,10,0:0:0:0:
395,70,4070,1,2,0:0:0:0:
421,77,4140,1,2,0:0:0:0:
447,79,4210,1,2,0:0:0:0:
484,53,4280,5,10,0:0:0:0:
473,77,4349,1,2,0:0:0:0:
471,104,4419,1,2,0:0:0:0:
473,130,4489,1,2,0:0:0:0:
486,173,4559,5,12,0:0:0:0:
205,112,4698,1,12,0:0:0:0:
371,305,6512,5,2,0:0:0:0:
373,287,6582,1,2,0:0:0:0:
376,269,6652,1,2,0:0:0:0:
379,251,6721,1,2,0:0:0:0:
382,233,6791,5,12,0:0:0:0:
123,99,6931,1,12,0:0:0:0:
351,14,7349,5,2,0:0:0:0:
183,237,7489,1,8,0:0:0:0:
398,153,7628,1,2,0:0:0:0:
102,90,7768,5,12,0:0:0:0:
274,154,7907,1,2,0:0:0:0:
12,223,8047,1,8,0:0:0:0:
12,223,8187,1,8,0:0:0:0:
295,150,8326,1,2,0:0:0:0:
143,288,8466,5,8,0:0:0:0:
170,258,8535,1,8,0:0:0:0:
175,217,8605,1,8,0:0:0:0:
157,180,8675,1,8,0:0:0:0:
122,158,8745,5,2,0:0:0:0:
134,145,8814,1,2,0:0:0:0:
144,130,8884,1,2,0:0:0:0:
152,114,8954,1,2,0:0:0:0:
162,73,9024,5,4,0:0:0:0:
260,246,9163,2,0,B|310:266|310:266|364:264,1,103.500001974106,8|2,0:0|0:0,0:0:0:0:
416,152,9442,1,8,0:0:0:0:
170,258,9582,5,2,0:0:0:0:
325,360,9721,1,8,0:0:0:0:
330,172,9861,1,2,0:0:0:0:
203,365,10000,6,0,P|151:383|82:383,1,103.500001974106,8|2,0:0|0:0,0:0:0:0:
13,192,10280,1,8,0:0:0:0:
260,246,10419,1,2,0:0:0:0:
63,308,10559,1,8,0:0:0:0:
352,245,10698,5,2,0:0:0:0:
136,148,10838,1,8,0:0:0:0:
376,245,10977,1,2,0:0:0:0:
217,348,11117,1,8,0:0:0:0:
322,91,11256,5,6,0:0:0:0:
414,315,11396,2,0,L|523:325,1,103.500001974106,8|2,0:0|0:0,0:0:0:0:
412,169,11675,1,8,0:0:0:0:
203,365,11814,5,2,0:0:0:0:
276,193,11954,1,8,0:0:0:0:
395,332,12093,1,2,0:0:0:0:
163,254,12233,6,0,P|142:208|138:148,1,103.500001974106,8|2,0:0|0:0,0:0:0:0:
310,107,12512,1,8,0:0:0:0:
185,348,12652,5,10,0:0:0:0:
158,332,12721,1,2,0:0:0:0:
127,326,12791,1,2,0:0:0:0:
96,329,12861,1,2,0:0:0:0:
57,363,12931,5,10,0:0:0:0:
71,335,13000,1,2,0:0:0:0:
79,305,13070,1,2,0:0:0:0:
81,273,13140,1,2,0:0:0:0:
49,231,13210,5,10,0:0:0:0:
30,205,13280,1,2,0:0:0:0:
20,175,13349,1,2,0:0:0:0:
21,143,13419,1,2,0:0:0:0:
58,107,13489,5,4,0:0:0:0:
276,193,13628,2,0,P|334:191|394:165,1,103.500001974106,8|2,0:0|0:0,0:0:0:0:
195,99,13907,1,8,0:0:0:0:
71,335,14047,5,2,0:0:0:0:
180,186,14187,1,8,0:0:0:0:
255,354,14326,1,2,0:0:0:0:
30,205,14466,6,0,B|10:156|10:156|15:96,1,103.500001974106,8|2,0:0|0:0,0:0:0:0:
158,13,14745,1,8,0:0:0:0:
199,202,14884,5,2,0:0:0:0:
221,215,14954,1,0,0:0:0:0:
245,223,15024,1,8,0:0:0:0:
269,228,15093,1,0,0:0:0:0:
302,202,15163,5,2,0:0:0:0:
324,188,15233,1,0,0:0:0:0:
349,182,15303,1,8,0:0:0:0:
374,184,15373,1,0,0:0:0:0:
408,206,15442,5,2,0:0:0:0:
395,183,15512,1,0,0:0:0:0:
389,157,15582,1,8,0:0:0:0:
389,131,15652,1,0,0:0:0:0:
407,94,15721,5,4,0:0:0:0:
330,313,15861,2,0,B|281:333|281:333|208:328,1,103.500001974106,8|2,0:0|0:0,0:0:0:0:
142,202,16140,1,8,0:0:0:0:
422,225,16280,5,2,0:0:0:0:
446,243,16349,1,2,0:0:0:0:
461,269,16419,1,2,0:0:0:0:
466,299,16489,1,2,0:0:0:0:
461,329,16559,2,0,P|432:314|415:293,1,51.7500009870529,2|2,0:0|0:0,0:0:0:0:
389,131,16698,5,2,0:0:0:0:
408,106,16768,1,2,0:0:0:0:
434,90,16838,1,2,0:0:0:0:
464,86,16907,1,2,0:0:0:0:
494,92,16977,2,0,P|481:122|460:144,1,51.7500009870529,2|2,0:0|0:0,0:0:0:0:
301,192,17117,5,2,0:0:0:0:
271,201,17187,1,2,0:0:0:0:
240,200,17256,1,2,0:0:0:0:
212,186,17326,1,2,0:0:0:0:
191,162,17396,5,2,0:0:0:0:
189,182,17466,1,2,0:0:0:0:
187,202,17535,1,2,0:0:0:0:
185,222,17605,1,2,0:0:0:0:
141,250,17675,5,2,0:0:0:0:
143,270,17745,1,2,0:0:0:0:
145,290,17814,1,2,0:0:0:0:
147,310,17884,1,2,0:0:0:0:
178,331,17954,5,12,0:0:0:0:
71,129,18093,1,8,0:0:0:0:
189,344,18373,5,8,0:0:0:0:
71,129,18512,1,8,0:0:0:0:
199,354,18791,5,8,0:0:0:0:
71,129,18931,1,8,0:0:0:0:
265,99,20047,5,2,0:0:0:0:
265,99,20117,1,2,0:0:0:0:
265,99,20187,5,12,0:0:0:0:
127,281,20326,1,8,0:0:0:0:
278,88,20605,5,8,0:0:0:0:
127,281,20745,1,8,0:0:0:0:
289,77,21024,5,8,0:0:0:0:
127,281,21163,1,8,0:0:0:0:
408,157,21861,6,0,B|395:100|395:100|426:34,2,114.750002188683,8|2|2,0:0|0:0|0:0,0:0:0:0:
485,298,22419,5,12,0:0:0:0:
270,213,22559,1,8,0:0:0:0:
497,303,22838,5,8,0:0:0:0:
270,213,22977,1,8,0:0:0:0:
511,309,23256,5,8,0:0:0:0:
270,213,23396,1,8,0:0:0:0:
223,76,24373,5,2,0:0:0:0:
288,231,24512,1,2,0:0:0:0:
111,108,24652,5,12,0:0:0:0:
321,17,24791,1,8,0:0:0:0:
97,116,25070,5,8,0:0:0:0:
321,17,25210,1,8,0:0:0:0:
84,124,25489,5,8,0:0:0:0:
321,17,25628,1,8,0:0:0:0:
289,234,26047,5,2,0:0:0:0:
289,234,26187,1,2,0:0:0:0:
112,354,26326,6,0,P|98:317|100:274,1,76.5000014591217,8|0,0:0|0:0,0:0:0:0:
165,232,26535,2,0,P|177:196|177:152,1,76.5000014591217,2|0,0:0|0:0,0:0:0:0:
109,110,26745,1,2,0:0:0:0:
306,244,26884,5,4,0:0:0:0:
41,173,27024,2,0,P|24:132|25:68,1,90,2|8,0:0|0:0,0:0:0:0:
215,33,27303,1,2,0:0:0:0:
98,280,27442,2,0,L|-3:286,1,90,2|0,0:0|0:0,0:0:0:0:
177,157,27721,1,8,0:0:0:0:
267,370,27861,6,0,B|336:373|336:373|376:348|376:348|463:352,1,180,2|2,0:0|0:0,0:0:0:0:
207,235,28280,2,0,B|184:278|184:278|195:333,1,90,8|2,0:0|0:0,0:0:0:0:
327,218,28559,1,2,0:0:0:0:
327,218,28698,1,2,0:0:0:0:
82,136,28838,2,0,P|63:92|65:35,1,90,8|2,0:0|0:0,0:0:0:0:
225,225,29117,5,2,0:0:0:0:
45,307,29256,1,2,0:0:0:0:
285,355,29396,1,8,0:0:0:0:
22,299,29535,2,0,L|15:195,1,90,2|2,0:0|0:0,0:0:0:0:
173,66,29814,5,2,0:0:0:0:
132,313,29954,1,8,0:0:0:0:
15,209,30093,1,2,0:0:0:0:
252,139,30233,5,2,0:0:0:0:
273,131,30303,1,0,0:0:0:0:
295,130,30373,1,2,0:0:0:0:
316,133,30442,1,0,0:0:0:0:
339,171,30512,5,8,0:0:0:0:
359,180,30582,1,0,0:0:0:0:
381,182,30652,1,2,0:0:0:0:
403,179,30721,1,0,0:0:0:0:
428,141,30791,5,2,0:0:0:0:
419,161,30861,1,0,0:0:0:0:
415,183,30931,1,2,0:0:0:0:
416,205,31000,1,0,0:0:0:0:
456,224,31070,5,8,0:0:0:0:
469,241,31140,1,0,0:0:0:0:
476,262,31210,1,2,0:0:0:0:
478,284,31280,1,0,0:0:0:0:
444,312,31349,5,6,0:0:0:0:
252,139,31489,2,0,P|207:122|137:127,1,90,2|8,0:0|0:0,0:0:0:0:
85,265,31768,1,2,0:0:0:0:
343,155,31907,2,0,L|351:64,1,90,2|0,0:0|0:0,0:0:0:0:
474,7,32187,1,8,0:0:0:0:
336,245,32326,6,0,B|206:214|206:214|148:234,1,180,2|2,0:0|0:0,0:0:0:0:
391,384,32745,2,0,P|410:347|415:297,1,90,8|2,0:0|0:0,0:0:0:0:
299,137,33024,1,2,0:0:0:0:
299,137,33163,1,2,0:0:0:0:
210,364,33303,2,0,L|96:373,1,90,8|2,0:0|0:0,0:0:0:0:
236,190,33582,5,2,0:0:0:0:
300,384,33721,1,2,0:0:0:0:
119,222,33861,2,0,P|120:177|143:118,1,90,8|2,0:0|0:0,0:0:0:0:
285,55,34140,1,2,0:0:0:0:
285,55,34280,1,2,0:0:0:0:
164,300,34419,2,0,L|53:304,1,90,8|2,0:0|0:0,0:0:0:0:
0,384,34698,1,2,0:0:0:0:
216,202,34838,5,2,0:0:0:0:
30,144,34977,2,0,L|24:48,1,90,8|2,0:0|0:0,0:0:0:0:
168,130,35256,1,2,0:0:0:0:
26,254,35396,5,8,0:0:0:0:
284,297,35535,1,8,0:0:0:0:
9,252,35675,1,8,0:0:0:0:
213,375,35814,5,6,0:0:0:0:
329,132,35954,2,0,P|375:120|431:122,1,90,2|8,0:0|0:0,0:0:0:0:
499,227,36233,1,2,0:0:0:0:
246,117,36373,2,0,P|227:75|228:10,1,90,2|0,0:0|0:0,0:0:0:0:
417,119,36652,1,8,0:0:0:0:
207,193,36791,6,0,B|99:216|128:147|-3:190,1,180,2|2,0:0|0:0,0:0:0:0:
288,364,37210,2,0,L|300:259,1,90,8|2,0:0|0:0,0:0:0:0:
419,207,37489,1,2,0:0:0:0:
419,207,37628,1,2,0:0:0:0:
172,284,37768,2,0,P|123:282|72:261,1,90,8|2,0:0|0:0,0:0:0:0:
225,204,38047,5,2,0:0:0:0:
302,374,38187,1,2,0:0:0:0:
361,141,38326,2,0,P|408:126|466:126,1,90,8|2,0:0|0:0,0:0:0:0:
259,301,38605,1,2,0:0:0:0:
259,301,38745,1,2,0:0:0:0:
175,93,38884,2,0,B|131:77|131:77|77:83,1,90,8|2,0:0|0:0,0:0:0:0:
225,204,39163,5,2,0:0:0:0:
245,213,39233,1,0,0:0:0:0:
267,217,39303,1,2,0:0:0:0:
289,217,39373,1,0,0:0:0:0:
316,182,39442,5,8,0:0:0:0:
335,170,39512,1,0,0:0:0:0:
357,166,39582,1,2,0:0:0:0:
379,166,39652,1,0,0:0:0:0:
413,194,39721,5,2,0:0:0:0:
399,175,39791,1,0,0:0:0:0:
393,153,39861,1,2,0:0:0:0:
392,130,39931,1,0,0:0:0:0:
429,105,40000,5,8,0:0:0:0:
441,85,40070,1,0,0:0:0:0:
446,63,40140,1,2,0:0:0:0:
445,40,40210,1,0,0:0:0:0:
409,11,40280,5,6,0:0:0:0:
225,204,40419,2,0,P|181:218|112:218,1,90,2|8,0:0|0:0,0:0:0:0:
32,95,40698,1,2,0:0:0:0:
303,140,40838,2,0,B|326:182|326:182|324:249,1,90,2|2,0:0|0:0,0:0:0:0:
161,308,41117,1,8,0:0:0:0:
256,72,41256,6,0,B|386:45|386:45|446:65,1,180,2|2,0:0|0:0,0:0:0:0:
122,221,41675,2,0,P|103:179|101:131,1,90,8|2,0:0|0:0,0:0:0:0:
324,224,41954,1,2,0:0:0:0:
324,224,42093,1,2,0:0:0:0:
95,360,42233,2,0,P|43:360|-1:345,1,90,8|2,0:0|0:0,0:0:0:0:
205,207,42512,5,2,0:0:0:0:
301,358,42652,1,2,0:0:0:0:
365,128,42791,2,0,P|417:112|468:113,1,90,8|2,0:0|0:0,0:0:0:0:
511,278,43070,1,2,0:0:0:0:
511,278,43210,1,2,0:0:0:0:
277,154,43349,2,0,L|270:46,1,90,8|2,0:0|0:0,0:0:0:0:
356,249,43628,5,6,0:0:0:0:
336,260,43698,1,2,0:0:0:0:
313,264,43768,1,2,0:0:0:0:
290,263,43838,1,2,0:0:0:0:
254,229,43907,5,10,0:0:0:0:
230,215,43977,1,2,0:0:0:0:
203,209,44047,1,2,0:0:0:0:
175,211,44117,1,2,0:0:0:0:
139,251,44187,5,4,0:0:0:0:
156,225,44256,1,2,0:0:0:0:
163,194,44326,1,2,0:0:0:0:
161,162,44396,1,2,0:0:0:0:
109,133,44466,5,8,0:0:0:0:
88,103,44535,1,8,0:0:0:0:
83,67,44605,1,8,0:0:0:0:
94,32,44675,1,8,0:0:0:0:
150,3,44745,5,6,0:0:0:0:
290,263,45024,2,0,L|285:321,3,51.7500009870529,6|8|2|8,0:0|0:0|0:0|0:0,0:0:0:0:
363,205,45303,5,6,0:0:0:0:
372,169,45373,1,8,0:0:0:0:
359,135,45442,1,2,0:0:0:0:
343,102,45512,1,8,0:0:0:0:
347,65,45582,1,6,0:0:0:0:
367,34,45652,1,8,0:0:0:0:
400,20,45721,1,2,0:0:0:0:
436,22,45791,1,8,0:0:0:0:
466,41,45861,5,6,0:0:0:0:
480,74,45931,1,8,0:0:0:0:
478,109,46000,1,2,0:0:0:0:
460,140,46070,1,8,0:0:0:0:
428,157,46140,1,6,0:0:0:0:
391,155,46210,1,8,0:0:0:0:
359,135,46280,1,2,0:0:0:0:
334,109,46349,1,8,0:0:0:0:
302,91,46419,5,6,0:0:0:0:
266,83,46489,1,8,0:0:0:0:
230,89,46559,1,2,0:0:0:0:
198,105,46628,1,8,0:0:0:0:
175,133,46698,1,6,0:0:0:0:
150,159,46768,1,8,0:0:0:0:
115,168,46838,1,2,0:0:0:0:
80,158,46907,1,8,0:0:0:0:
56,130,46977,6,0,L|47:212,3,51.7500009870529,6|8|2|8,0:0|0:0|0:0|0:0,0:0:0:0:
134,255,47256,2,0,L|146:335,3,51.7500009870529,6|8|2|8,0:0|0:0|0:0|0:0,0:0:0:0:
241,359,47535,5,6,0:0:0:0:
271,338,47605,1,8,0:0:0:0:
305,327,47675,1,2,0:0:0:0:
340,333,47745,1,8,0:0:0:0:
371,350,47814,1,6,0:0:0:0:
405,359,47884,1,8,0:0:0:0:
440,353,47954,1,2,0:0:0:0:
470,333,48024,1,8,0:0:0:0:
488,302,48093,5,6,0:0:0:0:
490,265,48163,1,8,0:0:0:0:
477,230,48233,1,2,0:0:0:0:
450,205,48303,1,8,0:0:0:0:
415,194,48373,1,6,0:0:0:0:
379,200,48442,1,8,0:0:0:0:
344,211,48512,1,2,0:0:0:0:
308,203,48582,1,8,0:0:0:0:
279,180,48652,5,6,0:0:0:0:
260,149,48721,1,8,0:0:0:0:
259,112,48791,1,2,0:0:0:0:
275,79,48861,1,8,0:0:0:0:
301,53,48931,1,6,0:0:0:0:
335,45,49000,1,8,0:0:0:0:
371,49,49070,1,2,0:0:0:0:
400,69,49140,1,8,0:0:0:0:
417,100,49210,6,0,L|472:93,3,51.7500009870529,6|8|2|8,0:0|0:0|0:0|0:0,0:0:0:0:
332,190,49489,2,0,L|387:195,3,51.7500009870529,6|8|2|8,0:0|0:0|0:0|0:0,0:0:0:0:
259,112,49768,5,6,0:0:0:0:
226,95,49838,1,8,0:0:0:0:
190,95,49907,1,2,0:0:0:0:
157,111,49977,1,8,0:0:0:0:
135,139,50047,1,6,0:0:0:0:
104,161,50117,1,8,0:0:0:0:
67,162,50187,1,2,0:0:0:0:
35,144,50256,1,8,0:0:0:0:
16,112,50326,5,6,0:0:0:0:
18,75,50396,1,8,0:0:0:0:
37,44,50466,1,2,0:0:0:0:
69,27,50535,1,8,0:0:0:0:
105,29,50605,1,6,0:0:0:0:
135,49,50675,1,8,0:0:0:0:
151,81,50745,1,2,0:0:0:0:
148,116,50814,1,8,0:0:0:0:
130,147,50884,5,6,0:0:0:0:
124,182,50954,1,8,0:0:0:0:
135,216,51024,1,2,0:0:0:0:
159,242,51093,1,8,0:0:0:0:
192,255,51163,1,6,0:0:0:0:
228,254,51233,1,8,0:0:0:0:
260,237,51303,1,2,0:0:0:0:
283,209,51373,1,8,0:0:0:0:
291,174,51442,6,0,L|360:168,3,51.7500009870529,6|8|2|8,0:0|0:0|0:0|0:0,0:0:0:0:
480,267,51721,2,0,L|428:264,3,51.7500009870529,6|8|2|8,0:0|0:0|0:0|0:0,0:0:0:0:
352,350,52000,5,6,0:0:0:0:
326,376,52070,1,8,0:0:0:0:
290,384,52140,1,2,0:0:0:0:
254,375,52210,1,8,0:0:0:0:
227,350,52280,1,6,0:0:0:0:
197,330,52349,1,8,0:0:0:0:
160,325,52419,1,2,0:0:0:0:
125,336,52489,1,8,0:0:0:0:
103,365,52559,5,2,0:0:0:0:
101,339,52628,1,2,0:0:0:0:
99,313,52698,1,2,0:0:0:0:
97,287,52768,1,2,0:0:0:0:
95,261,52838,5,8,0:0:0:0:
132,226,52907,1,8,0:0:0:0:
182,214,52977,1,8,0:0:0:0:
232,224,53047,1,8,0:0:0:0:
276,250,53117,5,2,0:0:0:0:
279,219,53187,1,2,0:0:0:0:
282,188,53256,1,2,0:0:0:0:
286,157,53326,1,2,0:0:0:0:
242,129,53396,5,2,0:0:0:0:
239,98,53466,1,2,0:0:0:0:
236,67,53535,1,2,0:0:0:0:
232,36,53605,1,2,0:0:0:0:
273,5,53675,5,4,0:0:0:0:
95,261,53954,2,0,L|30:264,3,51.7500009870529,6|8|2|8,0:0|0:0|0:0|0:0,0:0:0:0:
167,187,54233,5,6,0:0:0:0:
198,169,54303,1,8,0:0:0:0:
234,166,54373,1,2,0:0:0:0:
267,177,54442,1,8,0:0:0:0:
294,200,54512,1,6,0:0:0:0:
319,225,54582,1,8,0:0:0:0:
354,234,54652,1,2,0:0:0:0:
388,224,54721,1,8,0:0:0:0:
414,198,54791,5,6,0:0:0:0:
422,162,54861,1,8,0:0:0:0:
411,127,54931,1,2,0:0:0:0:
385,102,55000,1,8,0:0:0:0:
349,95,55070,1,6,0:0:0:0:
314,107,55140,1,8,0:0:0:0:
291,135,55210,1,2,0:0:0:0:
285,170,55280,1,8,0:0:0:0:
296,203,55349,5,6,0:0:0:0:
314,234,55419,1,8,0:0:0:0:
318,270,55489,1,2,0:0:0:0:
307,304,55559,1,8,0:0:0:0:
286,333,55628,1,6,0:0:0:0:
254,350,55698,1,8,0:0:0:0:
218,356,55768,1,2,0:0:0:0:
182,347,55838,1,8,0:0:0:0:
153,325,55907,6,0,L|146:382,3,51.7500009870529,6|8|2|8,0:0|0:0|0:0|0:0,0:0:0:0:
53,248,56187,2,0,L|62:303,3,51.7500009870529,6|8|2|8,0:0|0:0|0:0|0:0,0:0:0:0:
173,192,56466,5,6,0:0:0:0:
175,165,56535,1,2,0:0:0:0:
178,139,56605,1,2,0:0:0:0:
181,113,56675,1,2,0:0:0:0:
184,87,56745,1,2,0:0:0:0:
13,220,56884,1,2,0:0:0:0:
29,239,56954,1,2,0:0:0:0:
53,248,57024,5,6,0:0:0:0:
400,157,57582,1,4,0:0:0:0:
63,68,58000,6,0,L|51:279,1,180,6|0,0:0|0:0,0:0:0:0:
273,47,58419,2,0,P|222:25|163:27,1,90,8|0,0:0|0:0,0:0:0:0:
312,220,58698,1,2,0:0:0:0:
416,49,58838,1,2,0:0:0:0:
474,286,58977,1,8,0:0:0:0:
266,151,59117,6,0,B|160:176|199:107|58:149,1,180,2|0,0:0|0:0,0:0:0:0:
337,288,59535,2,0,L|343:185,1,90,8|0,0:0|0:0,0:0:0:0:
188,331,59814,5,2,0:0:0:0:
380,383,59954,1,2,0:0:0:0:
192,226,60093,1,8,0:0:0:0:
49,371,60233,1,2,0:0:0:0:
266,151,60373,6,0,P|281:112|283:45,1,90,6|0,0:0|0:0,0:0:0:0:
65,0,60652,1,8,0:0:0:0:
205,90,60791,1,2,0:0:0:0:
0,189,60931,1,2,0:0:0:0:
0,189,61070,1,2,0:0:0:0:
149,23,61210,2,0,B|195:6|195:6|264:11,1,90,8|2,0:0|0:0,0:0:0:0:
371,190,61489,5,4,0:0:0:0:
184,97,61628,1,2,0:0:0:0:
426,60,61768,1,0,0:0:0:0:
164,102,61907,1,2,0:0:0:0:
347,108,62047,1,0,0:0:0:0:
118,216,62187,1,2,0:0:0:0:
235,8,62326,1,0,0:0:0:0:
321,270,62466,6,0,B|394:274|394:274|432:253|432:253|517:257,1,180,6|0,0:0|0:0,0:0:0:0:
103,234,62884,2,0,P|81:282|78:333,1,90,8|0,0:0|0:0,0:0:0:0:
233,186,63163,1,2,0:0:0:0:
22,131,63303,1,2,0:0:0:0:
170,304,63442,1,8,0:0:0:0:
301,127,63582,6,0,B|407:98|378:157|485:132,1,180,2|0,0:0|0:0,0:0:0:0:
199,94,64000,2,0,B|177:53|177:53|180:2,1,90,8|0,0:0|0:0,0:0:0:0:
351,201,64280,1,2,0:0:0:0:
184,294,64419,1,2,0:0:0:0:
389,127,64559,1,8,0:0:0:0:
486,296,64698,1,2,0:0:0:0:
212,177,64838,6,0,P|164:181|107:203,1,90,6|0,0:0|0:0,0:0:0:0:
296,277,65117,1,8,0:0:0:0:
389,127,65256,1,0,0:0:0:0:
486,296,65396,1,2,0:0:0:0:
486,296,65535,1,2,0:0:0:0:
343,49,65675,2,0,P|298:34|230:34,1,90,8|2,0:0|0:0,0:0:0:0:
156,234,65954,5,8,0:0:0:0:
389,127,66093,1,8,0:0:0:0:
389,127,66163,1,8,0:0:0:0:
389,127,66233,1,8,0:0:0:0:
220,93,66373,1,2,0:0:0:0:
296,277,66512,5,8,0:0:0:0:
343,49,66652,1,8,0:0:0:0:
292,298,66791,1,8,0:0:0:0:
206,75,66931,6,0,B|79:43|79:43|11:69,1,180,6|0,0:0|0:0,0:0:0:0:
402,118,67349,2,0,P|427:78|431:27,1,90,8|0,0:0|0:0,0:0:0:0:
266,192,67628,1,2,0:0:0:0:
448,249,67768,1,2,0:0:0:0:
343,49,67907,1,8,0:0:0:0:
185,267,68047,6,0,B|117:270|117:270|78:250|78:250|-1:255,1,180,2|0,0:0|0:0,0:0:0:0:
282,181,68466,2,0,P|333:185|381:198,1,90,8|0,0:0|0:0,0:0:0:0:
398,351,68745,1,2,0:0:0:0:
201,279,68884,1,2,0:0:0:0:
454,168,69024,1,8,0:0:0:0:
321,271,69163,1,2,0:0:0:0:
213,30,69303,6,0,P|166:16|105:16,1,90,6|0,0:0|0:0,0:0:0:0:
9,224,69582,1,8,0:0:0:0:
151,99,69721,1,2,0:0:0:0:
201,279,69861,1,2,0:0:0:0:
201,279,70000,1,2,0:0:0:0:
33,113,70140,2,0,P|18:76|18:25,1,90,8|2,0:0|0:0,0:0:0:0:
228,152,70419,5,2,0:0:0:0:
31,227,70559,1,2,0:0:0:0:
292,311,70698,1,8,0:0:0:0:
9,224,70838,1,2,0:0:0:0:
279,232,70977,5,8,0:0:0:0:
297,219,71047,1,8,0:0:0:0:
310,200,71117,1,2,0:0:0:0:
320,180,71187,1,2,0:0:0:0:
325,158,71256,1,2,0:0:0:0:
324,135,71326,1,2,0:0:0:0:
311,91,71396,5,6,0:0:0:0:
311,91,72512,5,6,0:0:0:0:
47,327,73210,5,12,0:0:0:0:
157,153,73349,2,0,L|274:142,1,90,8|0,0:0|0:0,0:0:0:0:
36,346,73628,1,12,0:0:0:0:
211,66,73768,5,12,0:0:0:0:
303,307,73907,1,8,0:0:0:0:
113,226,74047,1,2,0:0:0:0:
113,226,74187,1,2,0:0:0:0:
324,138,74326,1,2,0:0:0:0:
174,338,74466,5,8,0:0:0:0:
92,117,74605,1,8,0:0:0:0:
184,358,74745,1,8,0:0:0:0:
319,159,74884,5,8,0:0:0:0:
32,188,75024,2,0,P|6:135|9:64,1,103.500001974106,8|0,0:0|0:0,0:0:0:0:
185,7,75303,1,8,0:0:0:0:
129,211,75442,1,0,0:0:0:0:
361,65,75582,5,8,0:0:0:0:
109,102,75721,1,8,0:0:0:0:
383,61,75861,1,8,0:0:0:0:
165,4,76000,5,8,0:0:0:0:
333,174,76140,2,0,P|353:222|356:276,1,103.500001974106,8|2,0:0|0:0,0:0:0:0:
184,358,76419,1,8,0:0:0:0:
242,147,76559,1,0,0:0:0:0:
431,317,76698,5,8,0:0:0:0:
186,250,76838,1,8,0:0:0:0:
450,323,76977,1,8,0:0:0:0:
333,174,77117,1,8,0:0:0:0:
333,174,77187,1,8,0:0:0:0:
333,174,77256,1,8,0:0:0:0:
333,174,77326,1,8,0:0:0:0:
333,174,77396,1,8,0:0:0:0:
271,357,77535,1,8,0:0:0:0:
212,49,77675,5,6,0:0:0:0:
507,267,77954,1,6,0:0:0:0:
111,195,78233,5,0,0:0:0:0:
222,35,78373,1,0,0:0:0:0:
281,273,78512,2,0,L|389:279,1,103.500001974106
214,145,78791,1,0,0:0:0:0:
131,336,78931,1,0,0:0:0:0:
326,175,79070,2,0,P|323:113|304:66,2,103.500001974106
93,192,79349,5,0,0:0:0:0:
269,287,79489,1,0,0:0:0:0:
24,261,79628,2,0,P|5:220|6:133,1,103.500001974106
148,57,79907,1,0,0:0:0:0:
110,265,80047,1,0,0:0:0:0:
40,17,80187,1,0,0:0:0:0:
309,187,80326,6,0,B|457:154|457:154|532:189,1,207.000003948212
203,351,80745,2,0,B|180:303|180:303|188:239,1,103.500001974106
262,98,81024,1,0,0:0:0:0:
