osu file format v14

[General]
AudioFilename: audio.mp3
AudioLeadIn: 0
PreviewTime: 57093
Countdown: 0
SampleSet: Normal
StackLeniency: 0.3
Mode: 0
LetterboxInBreaks: 0
WidescreenStoryboard: 1

[Editor]
DistanceSpacing: 1.6
BeatDivisor: 4
GridSize: 4
TimelineZoom: 2.899999

[Metadata]
Title:Unrestrained
TitleUnicode:Unrestrained
Artist:Whispered
ArtistUnicode:Whispered
Creator:[ Frost ]
Version:Chained
Source:
Tags:death metal folk samurai
BeatmapID:2235053
BeatmapSetID:907295

[Difficulty]
HPDrainRate:4.6
CircleSize:4
OverallDifficulty:8
ApproachRate:9
SliderMultiplier:1.7
SliderTickRate:1

[Events]
//Background and Video events
0,0,"Lol.jpg",0,0
//Break Periods
//Storyboard Layer 0 (Background)
//Storyboard Layer 1 (Fail)
//Storyboard Layer 2 (Pass)
//Storyboard Layer 3 (Foreground)
//Storyboard Layer 4 (Overlay)
//Storyboard Sound Samples

[TimingPoints]
163,279.06976744186,4,1,1,60,1,0
163,-100,4,1,1,60,0,0
442,-100,4,1,1,40,0,0
2395,-100,4,1,1,60,0,0
2674,-100,4,1,1,40,0,0
3372,-100,4,1,1,65,0,0
4907,-100,4,1,1,50,0,0
6162,-90.9090909090909,4,1,1,50,0,0
7139,-100,4,1,1,40,0,0
9093,-80,4,1,1,70,0,0
12302,-66.6666666666667,4,1,1,70,0,0
12721,-80,4,1,1,70,0,0
18023,-100,4,1,1,65,0,0
19139,-100,4,1,1,40,0,0
20256,-100,4,1,1,60,0,0
21372,-100,4,1,1,40,0,0
22488,-100,4,1,1,60,0,0
23604,-100,4,1,1,40,0,0
24721,-100,4,1,1,60,0,0
25837,-100,4,1,1,40,0,0
26395,-100,4,1,1,70,0,0
26953,-80,4,1,1,70,0,0
35465,-80,4,1,1,80,0,0
35883,-105.263157894737,4,1,1,70,0,0
42581,-100,4,1,1,60,0,0
43697,-125,4,1,1,60,0,0
43976,-111.111111111111,4,1,1,60,0,0
44256,-100,4,1,1,60,0,0
44535,-90.9090909090909,4,1,1,60,0,0
44814,-80,4,1,1,60,0,0
45093,-66.6666666666667,4,1,1,80,0,0
55418,-100,4,1,1,80,0,0
55976,-66.6666666666667,4,1,1,80,0,0
57093,-80,4,1,1,60,0,0
58069,-76.9230769230769,4,1,1,60,0,0
58488,-66.6666666666667,4,1,1,60,0,0
61558,-66.6666666666667,4,1,1,65,0,0
62535,-83.3333333333333,4,1,1,65,0,0
62953,-80,4,1,1,65,0,0
63651,-100,4,1,1,65,0,0
64907,-57.1428571428571,4,1,1,65,0,0
65186,-80,4,1,1,65,0,0
67000,-100,4,1,1,65,0,0
68116,-83.3333333333333,4,1,1,65,0,0
68538,-80,4,1,1,65,0,0
70488,-80,4,1,1,72,0,0
72162,-100,4,1,1,40,0,0
72581,-100,4,1,1,60,0,0
77744,-100,4,1,1,65,0,0
78023,-100,4,1,1,70,0,0
78302,-66.6666666666667,4,1,1,85,0,1
81651,-57.1428571428571,4,1,1,85,0,1
82767,-66.6666666666667,4,1,1,85,0,1
87232,-62.5,4,1,1,85,0,1
90302,-62.5,4,1,1,90,0,1
90581,-54.054054054054,4,1,1,85,0,1
91697,-66.6666666666667,4,1,1,85,0,1
94907,-80,4,1,1,70,0,0
96162,-90.0900900900901,4,1,1,70,0,0
100628,-80,4,1,1,70,0,0
105093,-80,4,1,1,60,0,0
113604,-80,4,1,1,80,0,0
120721,-80,4,1,1,50,0,0
121279,-80,4,1,1,60,0,0
121837,-125,4,1,1,60,0,0
122116,-111.111111111111,4,1,1,60,0,0
122396,-100,4,1,1,60,0,0
122675,-90.9090909090909,4,1,1,60,0,0
122953,-80,4,1,1,60,0,0
123232,-66.6666666666667,4,1,1,80,0,0
133558,-76.9230769230769,4,1,1,80,0,0
134116,-66.6666666666667,4,1,1,80,0,0
135232,-90.9090909090909,4,1,1,70,0,0
136279,-80,4,1,1,60,0,0
138023,-100,4,1,1,60,0,0
138581,-80,4,1,1,60,0,0
139976,-105.263157894737,4,1,1,60,0,0
143325,-86.9565217391306,4,1,1,60,0,0
144721,-80,4,1,1,80,0,0
145139,-86.9565217391304,4,1,1,60,0,0
151976,-71.4285714285714,4,1,1,60,0,0
154209,-83.3333333333333,4,1,1,40,0,0
155883,-66.6666666666667,4,1,1,60,0,0
156162,-57.1428571428571,4,1,1,70,0,0
156442,-58.8235294117647,4,1,1,90,0,1
159790,-51.2820512820513,4,1,1,90,0,1
160907,-58.8235294117647,4,1,1,90,0,1
165372,-55.5555555555556,4,1,1,90,0,1
168721,-48.780487804878,4,1,1,95,0,1
169837,-58.8235294117647,4,1,1,90,0,1
174302,-66.6666666666667,4,1,1,82,0,0
181279,-74.0740740740741,4,1,1,82,0,0
183232,-83.3333333333333,4,1,1,82,0,0
187697,-75.187969924812,4,1,1,60,0,0
189930,-71.4285714285714,4,1,1,60,0,0
192162,-90.9090909090909,4,1,1,60,0,0
193139,-57.1428571428571,4,1,1,60,0,0
193418,-57.1428571428571,4,1,1,80,0,0
193837,-100,4,1,1,55,0,0

[Colours]
Combo1 : 98,54,11
Combo2 : 111,0,0
Combo3 : 192,192,192

[HitObjects]
236,172,163,5,12,0:0:0:0:
448,304,302,1,8,0:0:0:0:
472,211,442,6,0,P|476:169|467:128,1,85
384,39,721,1,0,0:0:0:0:
472,211,860,1,0,0:0:0:0:
508,60,1000,1,0,0:0:0:0:
392,168,1139,5,2,0:0:0:0:
400,12,1418,5,0,0:0:0:0:
316,180,1558,1,0,0:0:0:0:
268,20,1697,1,0,0:0:0:0:
184,188,1837,1,0,0:0:0:0:
348,108,1976,2,0,L|440:100,2,85
236,172,2395,5,12,0:0:0:0:
448,304,2535,1,8,0:0:0:0:
308,280,2674,6,0,P|276:309|236:314,1,85
174,276,2883,1,0,0:0:0:0:
174,276,2953,2,0,P|206:249|248:244,1,85
72,316,3232,2,0,P|77:335|76:357,1,42.5
164,384,3372,6,0,P|152:343|164:296,1,85,4|0,0:0|0:0,0:0:0:0:
260,76,3651,1,0,0:0:0:0:
260,76,3721,1,0,0:0:0:0:
260,76,3790,6,0,L|302:79,2,42.5,8|0|0,0:0|0:0|0:0,0:0:0:0:
151,190,4000,2,0,L|109:187,2,42.5,0|8|0,0:0|0:0|0:0,0:0:0:0:
280,228,4209,2,0,L|321:236,1,42.5
240,148,4349,2,0,L|253:107,1,42.5,8|0,0:0|0:0,0:0:0:0:
336,252,4488,2,0,L|377:260,1,42.5
312,332,4628,5,12,0:0:0:0:
260,76,4767,1,8,0:0:0:0:
172,112,4907,6,0,P|152:149|152:191,1,85
100,304,5186,1,0,0:0:0:0:
236,172,5325,1,0,0:0:0:0:
40,160,5465,1,0,0:0:0:0:
168,272,5604,5,2,0:0:0:0:
96,96,5883,5,0,0:0:0:0:
168,272,6023,1,0,0:0:0:0:
195,160,6162,6,0,P|193:137|184:116,1,46.7500014266968
260,76,6302,2,0,P|257:99|262:121,1,46.7500014266968
300,188,6442,2,0,P|316:205|338:212,1,46.7500014266968
405,278,6581,2,0,L|452:276,2,46.7500014266968,2|0|0,0:0|0:0|0:0,0:0:0:0:
360,308,6790,1,0,0:0:0:0:
312,332,6860,5,12,0:0:0:0:
260,76,7000,1,8,0:0:0:0:
375,114,7139,5,0,0:0:0:0:
375,114,7279,1,0,0:0:0:0:
472,60,7418,1,2,0:0:0:0:
424,208,7558,1,8,0:0:0:0:
340,40,7697,1,2,0:0:0:0:
500,152,7837,5,4,0:0:0:0:
464,272,7976,1,8,0:0:0:0:
324,200,8116,5,8,0:0:0:0:
224,40,8256,1,8,0:0:0:0:
224,40,8395,1,2,0:0:0:0:
92,112,8535,5,8,0:0:0:0:
88,136,8604,1,0,0:0:0:0:
84,160,8674,1,0,0:0:0:0:
80,184,8744,1,0,0:0:0:0:
72,232,8814,1,0,0:0:0:0:
112,216,8883,1,0,0:0:0:0:
156,220,8953,1,0,0:0:0:0:
192,240,9023,1,0,0:0:0:0:
244,312,9093,6,0,L|232:364,2,53.125,0|0|8,0:0|0:0|0:0,0:0:0:0:
312,276,9302,1,0,0:0:0:0:
312,276,9372,2,0,L|336:224,1,53.125
404,204,9511,2,0,L|428:152,1,53.125,8|0,0:0|0:0,0:0:0:0:
376,80,9651,5,2,0:0:0:0:
344,76,9721,1,0,0:0:0:0:
312,72,9790,1,8,0:0:0:0:
280,68,9860,1,0,0:0:0:0:
224,116,9930,6,0,P|198:111|172:112,1,53.125
88,172,10069,1,8,0:0:0:0:
0,72,10209,6,0,P|26:76|52:76,1,53.125
88,172,10349,1,8,0:0:0:0:
108,344,10488,6,0,P|121:321|125:295,1,53.125
88,172,10628,1,8,0:0:0:0:
192,240,10767,1,0,0:0:0:0:
300,303,10907,1,8,0:0:0:0:
300,303,10976,1,0,0:0:0:0:
300,303,11046,6,0,B|328:243|328:243|359:218,1,106.25,0|8,0:0|0:0,0:0:0:0:
224,344,11325,1,0,0:0:0:0:
224,328,11395,1,0,0:0:0:0:
224,312,11465,1,8,0:0:0:0:
162,57,11604,6,0,L|170:110,1,53.125,2|0,0:0|0:0,0:0:0:0:
212,220,11744,1,8,0:0:0:0:
260,108,11883,6,0,L|252:160,1,53.125,2|0,0:0|0:0,0:0:0:0:
216,231,12023,2,0,L|224:284,1,53.125,8|0,0:0|0:0,0:0:0:0:
216,364,12162,1,2,0:0:0:0:
387,292,12302,2,0,P|431:247|424:176,1,127.500004863739,14|2,0:0|0:0,0:0:0:0:
356,360,12581,5,12,0:0:0:0:
359,218,12721,2,0,L|346:166,2,53.125,8|0|0,0:0|0:0|0:0,0:0:0:0:
264,252,12930,2,0,L|251:200,2,53.125,0|8|0,0:0|0:0|0:0,0:0:0:0:
192,348,13139,2,0,L|139:353,1,53.125
96,356,13279,1,8,0:0:0:0:
100,324,13349,1,0,0:0:0:0:
104,292,13418,1,0,0:0:0:0:
108,260,13488,1,0,0:0:0:0:
148,176,13558,5,6,0:0:0:0:
356,360,13697,1,8,0:0:0:0:
280,112,13837,5,2,0:0:0:0:
224,284,13976,1,8,0:0:0:0:
340,68,14116,2,0,P|321:49|296:39,1,53.125,2|0,0:0|0:0,0:0:0:0:
172,56,14256,1,8,0:0:0:0:
384,60,14395,6,0,P|373:35|353:18,1,53.125,2|0,0:0|0:0,0:0:0:0:
172,56,14535,2,2,B|168:84|168:84|163:95|163:95|164:108|164:108|160:120|160:120|160:132|160:132|152:160,1,106.25,8|2,0:0|0:0,0:0:0:0:
228,12,14814,1,8,0:0:0:0:
244,208,14953,1,2,0:0:0:0:
228,12,15093,1,12,0:0:0:0:
244,208,15232,6,0,P|264:191|276:167,1,53.125,2|0,0:0|0:0,0:0:0:0:
312,84,15372,1,8,0:0:0:0:
244,208,15511,1,2,0:0:0:0:
248,236,15581,1,0,0:0:0:0:
244,272,15651,1,8,0:0:0:0:
248,304,15721,1,0,0:0:0:0:
183,339,15790,2,2,L|165:234,1,106.25,2|8,0:0|0:0,0:0:0:0:
60,120,16069,5,2,0:0:0:0:
116,207,16209,2,0,L|124:260,1,53.125,8|0,0:0|0:0,0:0:0:0:
60,120,16349,2,0,L|72:60,1,53.125,2|0,0:0|0:0,0:0:0:0:
116,207,16488,2,0,L|124:260,1,53.125,8|0,0:0|0:0,0:0:0:0:
60,120,16628,2,0,L|72:60,1,53.125,2|0,0:0|0:0,0:0:0:0:
148,28,16767,6,0,L|208:20,1,53.125
248,52,16907,2,0,L|300:44,1,53.125
348,76,17046,2,0,L|400:68,1,53.125
424,140,17186,1,0,0:0:0:0:
429,168,17256,1,0,0:0:0:0:
427,196,17325,1,0,0:0:0:0:
416,223,17395,1,0,0:0:0:0:
346,250,17465,6,0,L|336:308,1,53.125,2|2,0:0|0:0,0:0:0:0:
244,208,17604,2,0,L|234:155,1,53.125,2|2,0:0|0:0,0:0:0:0:
346,250,17744,2,0,L|336:308,1,53.125,2|2,0:0|0:0,0:0:0:0:
244,208,17883,2,0,L|234:155,1,53.125,2|2,0:0|0:0,0:0:0:0:
260,64,18023,5,12,0:0:0:0:
196,304,18162,1,8,0:0:0:0:
248,72,18302,1,2,0:0:0:0:
236,80,18442,5,10,0:0:0:0:
168,320,18581,1,10,0:0:0:0:
144,336,18721,1,0,0:0:0:0:
124,152,18860,5,8,0:0:0:0:
408,184,19000,1,8,0:0:0:0:
484,284,19139,5,0,0:0:0:0:
376,344,19279,1,0,0:0:0:0:
488,276,19418,1,2,0:0:0:0:
344,220,19558,1,0,0:0:0:0:
448,344,19697,1,2,0:0:0:0:
492,188,19837,1,0,0:0:0:0:
324,292,19976,5,2,0:0:0:0:
116,168,20116,1,2,0:0:0:0:
124,152,20186,1,2,0:0:0:0:
132,136,20256,5,12,0:0:0:0:
216,372,20395,1,8,0:0:0:0:
148,124,20535,1,2,0:0:0:0:
164,116,20674,5,8,0:0:0:0:
248,352,20814,1,10,0:0:0:0:
280,332,20953,1,0,0:0:0:0:
316,132,21093,5,8,0:0:0:0:
376,344,21232,1,2,0:0:0:0:
448,204,21372,6,2,L|453:183,14,21.25
428,240,21930,5,0,0:0:0:0:
340,260,22069,1,2,0:0:0:0:
320,264,22139,1,2,0:0:0:0:
300,268,22209,1,2,0:0:0:0:
144,240,22349,1,2,0:0:0:0:
128,248,22488,5,12,0:0:0:0:
408,212,22628,1,8,0:0:0:0:
416,184,22767,1,2,0:0:0:0:
424,156,22907,5,8,0:0:0:0:
176,128,23046,1,10,0:0:0:0:
168,100,23186,1,0,0:0:0:0:
160,72,23325,5,10,0:0:0:0:
352,52,23465,1,8,0:0:0:0:
224,192,23604,5,0,0:0:0:0:
104,172,23744,1,0,0:0:0:0:
248,116,23883,1,2,0:0:0:0:
156,248,24023,1,0,0:0:0:0:
168,100,24162,1,2,0:0:0:0:
232,272,24302,1,0,0:0:0:0:
352,144,24442,5,4,0:0:0:0:
312,296,24581,1,2,0:0:0:0:
308,324,24651,1,2,0:0:0:0:
304,352,24721,5,14,0:0:0:0:
312,108,24860,1,8,0:0:0:0:
304,80,25000,1,2,0:0:0:0:
232,272,25139,5,8,0:0:0:0:
224,28,25279,1,10,0:0:0:0:
216,0,25418,1,0,0:0:0:0:
100,184,25558,5,8,0:0:0:0:
364,96,25697,1,8,0:0:0:0:
392,208,25837,6,0,L|380:308,1,85
456,356,26116,2,0,L|468:256,1,85
484,148,26395,5,10,0:0:0:0:
112,256,26604,5,10,0:0:0:0:
356,16,26814,5,10,0:0:0:0:
296,116,26953,6,0,L|401:127,2,106.25,6|0|8,0:0|0:0|0:0,0:0:0:0:
345,195,27372,2,0,L|240:184,2,106.25,0|2|0,0:0|0:0|0:0,0:0:0:0:
280,104,27790,1,8,0:0:0:0:
96,80,27930,1,2,0:0:0:0:
28,180,28069,1,2,0:0:0:0:
40,200,28209,6,0,L|25:305,2,106.25,0|8|0,0:0|0:0|0:0,0:0:0:0:
112,256,28628,2,0,L|126:150,2,106.25,2|0|8,0:0|0:0|0:0,0:0:0:0:
136,340,29046,1,2,0:0:0:0:
180,352,29186,1,2,0:0:0:0:
224,340,29325,1,2,0:0:0:0:
292,284,29465,1,8,0:0:0:0:
376,372,29604,1,2,0:0:0:0:
380,352,29744,5,2,0:0:0:0:
360,204,29883,1,2,0:0:0:0:
364,160,30023,1,8,0:0:0:0:
356,116,30162,1,2,0:0:0:0:
220,0,30302,5,2,0:0:0:0:
208,16,30372,1,0,0:0:0:0:
200,32,30442,1,0,0:0:0:0:
196,48,30511,1,0,0:0:0:0:
196,64,30581,1,8,0:0:0:0:
200,80,30651,1,0,0:0:0:0:
204,100,30721,1,0,0:0:0:0:
204,120,30790,1,0,0:0:0:0:
252,184,30860,5,2,0:0:0:0:
240,220,30930,1,0,0:0:0:0:
228,256,31000,1,0,0:0:0:0:
216,292,31069,1,0,0:0:0:0:
264,352,31139,5,8,0:0:0:0:
324,344,31209,1,0,0:0:0:0:
384,336,31279,1,0,0:0:0:0:
444,328,31349,1,0,0:0:0:0:
334,262,31418,6,0,L|228:256,1,106.25,6|0,0:0|0:0,0:0:0:0:
72,240,31697,1,8,0:0:0:0:
235,238,31837,1,0,0:0:0:0:
68,204,31976,1,2,0:0:0:0:
240,220,32116,1,0,0:0:0:0:
64,164,32256,5,8,0:0:0:0:
232,84,32395,1,0,0:0:0:0:
344,272,32535,1,2,0:0:0:0:
440,128,32674,1,0,0:0:0:0:
156,148,32814,5,8,0:0:0:0:
440,128,32953,1,0,0:0:0:0:
232,84,33093,1,2,0:0:0:0:
436,236,33232,5,2,0:0:0:0:
344,40,33372,1,8,0:0:0:0:
204,324,33511,1,0,0:0:0:0:
20,24,33651,5,4,0:0:0:0:
36,116,33790,1,0,0:0:0:0:
32,208,33930,1,8,0:0:0:0:
92,0,34069,5,2,0:0:0:0:
104,152,34209,1,2,0:0:0:0:
20,24,34349,1,2,0:0:0:0:
168,80,34488,1,10,0:0:0:0:
316,136,34628,1,0,0:0:0:0:
176,56,34767,1,4,0:0:0:0:
332,12,34907,5,2,0:0:0:0:
368,200,35046,1,10,0:0:0:0:
284,68,35186,1,2,0:0:0:0:
316,256,35325,1,2,0:0:0:0:
432,144,35465,5,10,0:0:0:0:
468,228,35604,5,10,0:0:0:0:
452,352,35744,5,10,0:0:0:0:
436,154,35883,6,0,P|455:189|467:227,1,80.7499978437424,4|0,0:0|0:0,0:0:0:0:
336,151,36162,2,0,P|347:112|367:77,2,80.7499978437424,8|0|2,0:0|0:0|0:0,0:0:0:0:
256,196,36581,1,0,0:0:0:0:
360,268,36721,1,8,0:0:0:0:
364,304,36860,1,2,0:0:0:0:
360,336,37000,1,2,0:0:0:0:
284,380,37139,1,0,0:0:0:0:
136,332,37279,6,0,P|123:294|104:259,2,80.7499978437424,8|0|2,0:0|0:0|0:0,0:0:0:0:
89,237,37697,1,0,0:0:0:0:
251,224,37837,2,0,P|230:258|220:297,2,80.7499978437424,8|0|6,0:0|0:0|0:0,0:0:0:0:
220,320,38256,1,0,0:0:0:0:
164,212,38395,5,8,0:0:0:0:
172,123,38535,1,0,0:0:0:0:
312,64,38674,1,2,0:0:0:0:
303,152,38814,1,0,0:0:0:0:
344,280,38953,1,8,0:0:0:0:
360,236,39093,1,0,0:0:0:0:
376,192,39232,5,2,0:0:0:0:
176,80,39372,1,0,0:0:0:0:
256,284,39511,1,8,0:0:0:0:
312,64,39651,1,0,0:0:0:0:
376,192,39790,5,2,0:0:0:0:
176,80,39930,1,0,0:0:0:0:
256,284,40069,1,8,0:0:0:0:
312,64,40209,1,0,0:0:0:0:
148,340,40349,5,6,0:0:0:0:
148,340,40488,1,0,0:0:0:0:
192,228,40628,1,8,0:0:0:0:
84,68,40767,1,0,0:0:0:0:
144,172,40907,2,0,P|180:156|222:162,1,80.7499978437424,2|0,0:0|0:0,0:0:0:0:
368,212,41186,2,0,P|332:228|289:221,1,80.7499978437424,8|0,0:0|0:0,0:0:0:0:
428,152,41465,5,2,0:0:0:0:
264,12,41604,1,0,0:0:0:0:
320,156,41744,1,8,0:0:0:0:
460,28,41883,1,0,0:0:0:0:
460,28,42023,1,2,0:0:0:0:
480,248,42162,1,0,0:0:0:0:
364,80,42302,1,8,0:0:0:0:
504,156,42442,1,0,0:0:0:0:
236,260,42581,6,0,L|131:267,1,85,2|0,0:0|0:0,0:0:0:0:
368,224,42860,1,8,0:0:0:0:
309,296,43000,1,0,0:0:0:0:
140,156,43139,2,0,L|35:163,1,85,2|0,0:0|0:0,0:0:0:0:
272,120,43418,1,8,0:0:0:0:
213,192,43558,1,0,0:0:0:0:
96,44,43697,6,0,L|136:48,3,34,6|0|0|0,0:0|0:0|0:0|0:0,0:0:0:0:
172,24,43976,2,0,L|216:28,3,38.2499988327027,8|0|0|0,0:0|0:0|0:0|0:0,0:0:0:0:
276,72,44256,2,0,L|324:76,3,42.5,2|0|0|0,0:0|0:0|0:0|0:0,0:0:0:0:
428,128,44535,2,0,L|381:124,3,46.7500014266968,2|0|0|0,0:0|0:0|0:0|0:0,0:0:0:0:
364,196,44814,6,0,P|288:216|213:192,1,159.375,6|0,0:0|0:0,0:0:0:0:
184,252,45093,5,2,0:0:0:0:
188,216,45162,1,0,0:0:0:0:
180,180,45232,1,0,0:0:0:0:
164,148,45302,1,0,0:0:0:0:
152,112,45372,1,2,0:0:0:0:
152,76,45442,1,0,0:0:0:0:
160,40,45511,1,0,0:0:0:0:
188,16,45581,1,0,0:0:0:0:
224,4,45651,1,2,0:0:0:0:
260,16,45721,1,0,0:0:0:0:
284,40,45790,1,0,0:0:0:0:
292,80,45860,1,0,0:0:0:0:
284,112,45930,1,2,0:0:0:0:
284,152,46000,1,0,0:0:0:0:
296,184,46069,1,0,0:0:0:0:
332,204,46139,1,0,0:0:0:0:
368,196,46209,1,2,0:0:0:0:
404,184,46279,1,0,0:0:0:0:
440,196,46349,1,0,0:0:0:0:
464,224,46418,1,0,0:0:0:0:
432,292,46488,5,2,0:0:0:0:
420,300,46558,1,0,0:0:0:0:
408,304,46628,1,0,0:0:0:0:
396,308,46697,1,0,0:0:0:0:
384,308,46767,1,2,0:0:0:0:
372,304,46837,1,0,0:0:0:0:
360,300,46907,1,0,0:0:0:0:
348,296,46976,1,0,0:0:0:0:
268,336,47046,5,2,0:0:0:0:
276,280,47116,1,0,0:0:0:0:
268,224,47186,1,0,0:0:0:0:
224,188,47256,1,0,0:0:0:0:
168,180,47325,1,2,0:0:0:0:
112,188,47395,1,0,0:0:0:0:
80,232,47465,1,0,0:0:0:0:
80,288,47535,1,0,0:0:0:0:
116,328,47604,1,2,0:0:0:0:
160,312,47674,1,0,0:0:0:0:
184,272,47744,1,0,0:0:0:0:
184,228,47814,1,0,0:0:0:0:
168,180,47883,1,2,0:0:0:0:
152,132,47953,1,0,0:0:0:0:
152,80,48023,1,0,0:0:0:0:
180,36,48093,1,0,0:0:0:0:
232,20,48162,1,2,0:0:0:0:
284,24,48232,1,0,0:0:0:0:
316,64,48302,1,0,0:0:0:0:
324,116,48372,1,0,0:0:0:0:
320,168,48442,1,2,0:0:0:0:
332,220,48511,1,0,0:0:0:0:
376,244,48581,1,0,0:0:0:0:
420,220,48651,1,0,0:0:0:0:
472,160,48721,6,0,L|504:96,3,63.7500024318696,2|0|0|0,0:0|0:0|0:0|0:0,0:0:0:0:
432,36,49000,2,0,L|400:92,3,63.7500024318696,2|0|0|0,0:0|0:0|0:0|0:0,0:0:0:0:
324,116,49279,5,2,0:0:0:0:
284,108,49349,1,0,0:0:0:0:
248,104,49418,1,0,0:0:0:0:
212,108,49488,1,0,0:0:0:0:
176,124,49558,1,2,0:0:0:0:
140,140,49628,1,0,0:0:0:0:
100,144,49697,1,0,0:0:0:0:
64,128,49767,1,0,0:0:0:0:
44,92,49837,1,2,0:0:0:0:
48,56,49907,1,0,0:0:0:0:
76,28,49976,1,0,0:0:0:0:
116,28,50046,1,0,0:0:0:0:
148,52,50116,1,2,0:0:0:0:
168,84,50186,1,0,0:0:0:0:
176,124,50256,1,0,0:0:0:0:
168,164,50325,1,0,0:0:0:0:
160,200,50395,1,2,0:0:0:0:
164,240,50465,1,0,0:0:0:0:
180,276,50535,1,0,0:0:0:0:
212,304,50604,1,0,0:0:0:0:
252,300,50674,1,2,0:0:0:0:
268,284,50744,1,0,0:0:0:0:
288,272,50814,1,0,0:0:0:0:
312,268,50883,1,0,0:0:0:0:
336,272,50953,5,2,0:0:0:0:
344,244,51023,1,0,0:0:0:0:
352,216,51093,1,0,0:0:0:0:
360,188,51162,1,0,0:0:0:0:
368,160,51232,1,2,0:0:0:0:
376,132,51302,1,0,0:0:0:0:
384,104,51372,1,0,0:0:0:0:
392,76,51442,1,0,0:0:0:0:
320,24,51511,2,0,L|296:96,1,63.7500024318696,2|0,0:0|0:0,0:0:0:0:
228,32,51651,2,0,L|204:104,1,63.7500024318696,2|0,0:0|0:0,0:0:0:0:
136,40,51790,2,0,L|112:112,1,63.7500024318696,2|0,0:0|0:0,0:0:0:0:
64,216,51930,2,0,L|44:156,1,63.7500024318696,2|0,0:0|0:0,0:0:0:0:
160,228,52069,2,0,L|140:168,1,63.7500024318696,2|0,0:0|0:0,0:0:0:0:
88,284,52209,2,0,L|64:356,1,63.7500024318696,2|0,0:0|0:0,0:0:0:0:
156,340,52349,2,0,L|220:332,1,63.7500024318696,2|0,0:0|0:0,0:0:0:0:
248,248,52488,2,0,L|312:256,1,63.7500024318696,2|0,0:0|0:0,0:0:0:0:
384,316,52628,1,2,0:0:0:0:
428,308,52697,1,2,0:0:0:0:
464,284,52767,1,2,0:0:0:0:
488,244,52837,1,2,0:0:0:0:
500,200,52907,5,10,0:0:0:0:
500,156,52976,1,2,0:0:0:0:
492,108,53046,1,2,0:0:0:0:
472,64,53116,1,2,0:0:0:0:
400,84,53186,2,0,L|380:156,3,63.7500024318696,2|2|2|2,0:0|0:0|0:0|0:0,0:0:0:0:
324,64,53465,2,0,L|306:125,3,63.7500024318696,2|2|2|2,0:0|0:0|0:0|0:0,0:0:0:0:
232,176,53744,5,6,0:0:0:0:
208,184,53814,1,0,0:0:0:0:
184,176,53883,1,0,0:0:0:0:
168,160,53953,1,0,0:0:0:0:
160,140,54023,1,2,0:0:0:0:
160,120,54093,1,0,0:0:0:0:
156,100,54162,1,0,0:0:0:0:
148,80,54232,1,0,0:0:0:0:
136,60,54302,1,2,0:0:0:0:
116,48,54372,1,0,0:0:0:0:
92,40,54442,1,0,0:0:0:0:
68,40,54511,1,0,0:0:0:0:
44,48,54581,1,2,0:0:0:0:
24,64,54651,1,0,0:0:0:0:
12,84,54721,1,0,0:0:0:0:
8,108,54790,1,0,0:0:0:0:
80,112,54860,5,2,0:0:0:0:
81,124,54930,1,0,0:0:0:0:
82,136,55000,1,0,0:0:0:0:
83,148,55069,1,0,0:0:0:0:
84,160,55139,1,2,0:0:0:0:
85,172,55209,1,0,0:0:0:0:
86,184,55279,1,0,0:0:0:0:
87,196,55349,1,0,0:0:0:0:
64,276,55418,2,0,L|52:316,1,42.5,2|0,0:0|0:0,0:0:0:0:
128,240,55558,2,0,L|120:180,1,42.5,2|0,0:0|0:0,0:0:0:0:
64,276,55697,2,0,L|52:316,1,42.5,2|0,0:0|0:0,0:0:0:0:
128,240,55837,2,0,L|120:180,1,42.5,2|0,0:0|0:0,0:0:0:0:
140,320,55976,5,6,0:0:0:0:
192,308,56046,1,0,0:0:0:0:
244,316,56116,1,0,0:0:0:0:
288,344,56186,1,0,0:0:0:0:
328,372,56256,1,2,0:0:0:0:
378,370,56325,1,0,0:0:0:0:
428,364,56395,1,0,0:0:0:0:
408,320,56465,1,0,0:0:0:0:
392,272,56535,1,2,0:0:0:0:
392,220,56604,1,0,0:0:0:0:
412,176,56674,1,0,0:0:0:0:
440,136,56744,1,0,0:0:0:0:
468,96,56814,1,2,0:0:0:0:
476,76,56883,1,2,0:0:0:0:
476,52,56953,1,2,0:0:0:0:
472,36,57023,1,2,0:0:0:0:
464,24,57093,5,6,0:0:0:0:
244,316,57651,5,4,0:0:0:0:
79,112,58069,6,0,P|202:67|292:168,1,276.249987354279,6|0,0:0|0:0,0:0:0:0:
392,220,58488,2,0,P|275:257|182:179,1,255.000009727478,10|2,0:0|0:0,0:0:0:0:
216,72,58907,1,2,0:0:0:0:
364,20,59046,1,10,0:0:0:0:
328,100,59186,1,2,0:0:0:0:
328,100,59604,1,8,0:0:0:0:
328,100,59883,5,2,0:0:0:0:
396,284,60023,1,2,0:0:0:0:
292,256,60162,1,10,0:0:0:0:
192,228,60302,1,2,0:0:0:0:
440,164,60442,1,4,0:0:0:0:
440,164,60581,1,0,0:0:0:0:
292,256,60721,5,8,0:0:0:0:
252,136,60860,1,0,0:0:0:0:
192,228,61000,1,0,0:0:0:0:
340,176,61139,1,0,0:0:0:0:
292,256,61279,1,8,0:0:0:0:
248,340,61418,1,0,0:0:0:0:
152,132,61558,5,2,0:0:0:0:
292,256,61697,1,2,0:0:0:0:
400,84,61837,1,2,0:0:0:0:
256,152,61976,1,2,0:0:0:0:
256,152,62116,5,2,0:0:0:0:
168,356,62256,1,2,0:0:0:0:
37,272,62395,1,6,0:0:0:0:
48,280,62535,2,0,B|118:327|218:215|292:256,1,254.999992218018,2|0,0:0|0:0,0:0:0:0:
305,264,62953,1,8,0:0:0:0:
448,336,63232,5,2,0:0:0:0:
304,264,63372,1,2,0:0:0:0:
512,200,63511,1,10,0:0:0:0:
380,292,63651,2,0,B|392:236|392:236|388:224|388:224|400:176|400:176|396:164|396:164|412:104|412:104|408:92|408:92|412:68,1,212.5,2|0,0:0|0:0,0:0:0:0:
412,72,64069,1,8,0:0:0:0:
305,264,64209,5,2,0:0:0:0:
412,72,64349,1,2,0:0:0:0:
420,224,64488,1,0,0:0:0:0:
292,72,64628,2,0,B|164:61,1,127.5,8|0,0:0|0:0,0:0:0:0:
32,120,64907,6,0,L|328:146,1,297.500002837181,4|8,0:0|0:0,0:0:0:0:
424,156,65325,1,0,0:0:0:0:
336,236,65465,1,0,0:0:0:0:
328,146,65604,1,0,0:0:0:0:
224,260,65744,1,0,0:0:0:0:
216,136,65883,1,0,0:0:0:0:
84,280,66023,5,6,0:0:0:0:
76,124,66162,1,2,0:0:0:0:
164,324,66302,1,2,0:0:0:0:
276,96,66442,1,2,0:0:0:0:
324,308,66581,5,8,0:0:0:0:
148,116,66721,1,8,0:0:0:0:
508,220,66860,1,8,0:0:0:0:
216,136,67000,2,0,B|229:180|229:180|213:196|213:196|253:252|178:303|203:330,1,212.5,4|0,0:0|0:0,0:0:0:0:
210,343,67418,1,8,0:0:0:0:
372,308,67697,5,2,0:0:0:0:
360,184,67837,1,2,0:0:0:0:
348,60,67976,1,8,0:0:0:0:
340,68,68116,2,0,B|266:109|166:-3|96:44,1,254.999992218018,2|0,0:0|0:0,0:0:0:0:
84,52,68535,1,8,0:0:0:0:
120,212,68814,6,0,P|138:162|138:109,1,106.25,2|2,0:0|0:0,0:0:0:0:
64,284,69093,1,8,0:0:0:0:
224,260,69232,1,0,0:0:0:0:
448,336,69372,1,4,0:0:0:0:
360,256,69511,1,2,0:0:0:0:
433,205,69651,2,0,L|420:100,1,106.25,8|2,0:0|0:0,0:0:0:0:
360,256,69930,2,0,L|373:361,2,106.25,2|2|8,0:0|0:0|0:0,0:0:0:0:
433,205,70349,1,2,0:0:0:0:
284,356,70488,5,0,0:0:0:0:
244,140,70628,1,0,0:0:0:0:
244,140,70767,1,8,0:0:0:0:
212,260,70907,1,0,0:0:0:0:
433,205,71046,1,8,0:0:0:0:
421,169,71116,1,8,0:0:0:0:
409,133,71186,2,0,L|425:73,2,53.125,8|8|8,0:0|0:0|0:0,0:0:0:0:
300,72,71395,2,0,L|316:132,2,53.125,8|8|8,0:0|0:0|0:0,0:0:0:0:
188,16,71604,5,4,0:0:0:0:
24,284,72162,2,0,P|20:326|24:368,2,85
140,172,72581,2,0,P|144:129|140:87,3,85,4|0|0|0,0:0|0:0|0:0|0:0,0:0:0:0:
132,40,73279,5,8,0:0:0:0:
364,288,73418,1,8,0:0:0:0:
280,36,73697,5,10,0:0:0:0:
212,260,73837,1,8,0:0:0:0:
416,60,73976,2,0,P|424:104|417:144,1,85,8|0,0:0|0:0,0:0:0:0:
364,288,74256,1,2,0:0:0:0:
308,104,74395,1,4,0:0:0:0:
56,328,74535,5,8,0:0:0:0:
292,220,74674,1,0,0:0:0:0:
144,156,74814,5,0,0:0:0:0:
180,340,74953,1,8,0:0:0:0:
216,108,75093,2,0,P|183:81|142:71,1,85,8|0,0:0|0:0,0:0:0:0:
16,160,75372,1,2,0:0:0:0:
292,220,75511,1,4,0:0:0:0:
412,40,75651,5,8,0:0:0:0:
192,84,75790,1,8,0:0:0:0:
488,164,75930,5,8,0:0:0:0:
408,368,76069,1,10,0:0:0:0:
308,104,76209,2,0,L|316:16,1,85,8|0,0:0|0:0,0:0:0:0:
248,192,76488,2,0,L|256:280,2,85,2|4|8,0:0|0:0|0:0,0:0:0:0:
192,84,76907,1,8,0:0:0:0:
96,53,77046,1,8,0:0:0:0:
0,24,77186,1,10,0:0:0:0:
4,48,77256,1,0,0:0:0:0:
8,72,77325,1,8,0:0:0:0:
12,96,77395,1,0,0:0:0:0:
16,120,77465,1,8,0:0:0:0:
72,220,77604,1,0,0:0:0:0:
160,20,77744,5,4,0:0:0:0:
272,0,78023,5,4,0:0:0:0:
391,43,78302,5,6,0:0:0:0:
440,324,78442,1,2,0:0:0:0:
220,140,78581,1,10,0:0:0:0:
272,0,78721,5,2,0:0:0:0:
245,301,78860,1,2,0:0:0:0:
96,53,79000,1,2,0:0:0:0:
391,43,79139,5,10,0:0:0:0:
72,220,79279,1,0,0:0:0:0:
343,176,79418,6,0,B|340:136|340:136|323:92|323:92|320:52,1,127.500004863739,2|2,0:0|0:0,0:0:0:0:
245,301,79697,2,0,B|242:261|242:261|225:217|225:217|222:177,1,127.500004863739,10|2,0:0|0:0,0:0:0:0:
368,340,79976,2,0,L|296:344,1,63.7500024318696,2|0,0:0|0:0,0:0:0:0:
128,372,80116,1,0,0:0:0:0:
128,372,80186,1,0,0:0:0:0:
128,372,80256,2,0,P|184:394|229:354,1,127.500004863739,8|0,0:0|0:0,0:0:0:0:
391,43,80535,5,2,0:0:0:0:
228,228,80674,1,2,0:0:0:0:
485,164,80814,1,10,0:0:0:0:
485,164,80953,5,2,0:0:0:0:
184,96,81093,1,2,0:0:0:0:
304,343,81232,1,2,0:0:0:0:
304,343,81372,5,10,0:0:0:0:
352,100,81511,1,0,0:0:0:0:
92,340,81651,6,0,B|104:284|104:284|107:300,1,74.3750007092953,2|0,0:0|0:0,0:0:0:0:
240,172,81790,2,0,B|228:228|228:228|224:211,1,74.3750007092953,2|0,0:0|0:0,0:0:0:0:
108,316,81930,2,0,B|120:260|120:260|123:276,1,74.3750007092953,10|0,0:0|0:0,0:0:0:0:
228,196,82069,2,0,B|216:252|216:252|212:235,1,74.3750007092953,2|0,0:0|0:0,0:0:0:0:
264,358,82209,2,0,B|247:354|247:354|303:342,1,74.3750007092953,2|0,0:0|0:0,0:0:0:0:
404,312,82349,2,0,B|420:308|420:308|364:296,1,74.3750007092953,2|0,0:0|0:0,0:0:0:0:
320,212,82488,2,0,B|303:215|303:215|359:227,1,74.3750007092953,6|0,0:0|0:0,0:0:0:0:
469,168,82628,2,0,B|485:164|485:164|429:152,1,74.3750007092953,2|0,0:0|0:0,0:0:0:0:
260,100,82767,5,4,0:0:0:0:
118,188,82907,2,0,L|108:316,1,127.500004863739,2|8,0:0|0:0,0:0:0:0:
64,40,83186,1,2,0:0:0:0:
230,176,83325,1,2,0:0:0:0:
230,176,83465,2,0,P|177:207|118:188,1,127.500004863739,2|2,0:0|0:0,0:0:0:0:
352,100,83744,1,4,0:0:0:0:
176,0,83883,2,0,L|168:127,1,127.500004863739,2|2,0:0|0:0,0:0:0:0:
260,108,84162,5,8,0:0:0:0:
372,260,84302,1,8,0:0:0:0:
192,216,84442,1,4,0:0:0:0:
341,171,84581,2,0,L|468:164,2,127.500004863739,2|10|0,0:0|0:0|0:0,0:0:0:0:
80,112,85000,5,6,0:0:0:0:
140,348,85139,1,2,0:0:0:0:
204,64,85279,1,10,0:0:0:0:
76,248,85418,5,2,0:0:0:0:
264,208,85558,1,2,0:0:0:0:
144,156,85697,1,0,0:0:0:0:
264,208,85837,1,8,0:0:0:0:
384,260,85976,2,0,P|466:170|431:54,1,255.000009727478,4|0,0:0|0:0,0:0:0:0:
268,145,86395,6,0,P|261:176|264:208,1,63.7500024318696,8|0,0:0|0:0,0:0:0:0:
348,184,86535,2,0,P|355:153|352:121,1,63.7500024318696
340,40,86674,1,8,0:0:0:0:
272,16,86744,1,8,0:0:0:0:
200,8,86814,1,8,0:0:0:0:
128,16,86883,1,8,0:0:0:0:
60,44,86953,2,0,B|32:76|24:116|28:156|44:180|44:180|64:160|69:141,1,191.250007295609,8|0,0:0|0:0,0:0:0:0:
172,76,87232,5,6,0:0:0:0:
132,356,87372,1,2,0:0:0:0:
268,145,87511,1,10,0:0:0:0:
76,248,87651,5,2,0:0:0:0:
388,284,87790,1,2,0:0:0:0:
244,76,87930,1,2,0:0:0:0:
304,340,88069,5,10,0:0:0:0:
430,53,88209,1,0,0:0:0:0:
268,145,88349,6,0,B|228:151|228:151|176:175|176:175|138:181,1,136,2|0,0:0|0:0,0:0:0:0:
68,320,88628,2,0,B|106:314|106:314|158:290|158:290|197:283,1,136,10|2,0:0|0:0,0:0:0:0:
384,140,88907,2,0,P|379:173|387:206,1,68,2|0,0:0|0:0,0:0:0:0:
292,360,89046,1,0,0:0:0:0:
292,360,89116,1,0,0:0:0:0:
292,358,89186,2,0,P|316:295|304:224,1,136,8|0,0:0|0:0,0:0:0:0:
172,16,89465,5,2,0:0:0:0:
306,229,89604,1,2,0:0:0:0:
68,138,89744,1,10,0:0:0:0:
68,138,89883,5,2,0:0:0:0:
372,76,90023,1,2,0:0:0:0:
172,288,90162,1,2,0:0:0:0:
172,288,90302,5,10,0:0:0:0:
288,24,90442,1,0,0:0:0:0:
408,244,90581,6,0,B|420:272|420:272|416:324,1,78.6249997000694,2|0,0:0|0:0,0:0:0:0:
328,368,90721,2,0,B|316:340|316:340|320:288,1,78.6249997000694,2|0,0:0|0:0,0:0:0:0:
428,228,90860,2,0,B|440:256|440:256|436:308,1,78.6249997000694,10|0,0:0|0:0,0:0:0:0:
312,384,91000,2,0,B|300:356|300:356|304:304,1,78.6249997000694,2|0,0:0|0:0,0:0:0:0:
156,216,91139,2,0,L|244:208,1,78.6249997000694,2|0,0:0|0:0,0:0:0:0:
96,280,91279,2,0,L|8:272,1,78.6249997000694,2|0,0:0|0:0,0:0:0:0:
168,200,91418,2,0,L|256:192,1,78.6249997000694,6|0,0:0|0:0,0:0:0:0:
84,292,91558,2,0,L|-4:284,1,78.6249997000694,2|0,0:0|0:0,0:0:0:0:
156,124,91697,5,2,0:0:0:0:
230,115,91767,1,0,0:0:0:0:
304,104,91837,2,0,P|276:55|200:47,1,127.500004863739,2|8,0:0|0:0,0:0:0:0:
124,244,92116,1,2,0:0:0:0:
124,244,92256,1,4,0:0:0:0:
303,103,92395,2,0,P|364:112|412:163,1,127.500004863739,2|2,0:0|0:0,0:0:0:0:
408,8,92674,1,8,0:0:0:0:
324,192,92814,2,0,P|317:254|351:307,1,127.500004863739,2|2,0:0|0:0,0:0:0:0:
409,156,93093,5,8,0:0:0:0:
230,115,93232,1,8,0:0:0:0:
51,72,93372,1,8,0:0:0:0:
124,244,93511,2,0,L|104:376,2,127.500004863739,2|10|2,0:0|0:0|0:0,0:0:0:0:
156,128,93930,5,2,0:0:0:0:
28,216,94069,1,2,0:0:0:0:
260,268,94209,1,10,0:0:0:0:
72,140,94349,5,2,0:0:0:0:
312,72,94488,1,2,0:0:0:0:
188,308,94628,1,2,0:0:0:0:
136,24,94767,1,2,0:0:0:0:
340,288,94907,5,4,0:0:0:0:
344,212,95186,1,2,0:0:0:0:
348,196,95325,1,2,0:0:0:0:
424,332,95465,1,2,0:0:0:0:
248,268,95604,1,2,0:0:0:0:
456,100,95744,5,12,0:0:0:0:
352,360,95883,1,8,0:0:0:0:
284,152,96023,1,12,0:0:0:0:
200,265,96162,6,0,L|247:267,2,47.1750011517334,2|0|8,0:0|0:0|0:0,0:0:0:0:
64,340,96442,1,2,0:0:0:0:
104,213,96581,1,8,0:0:0:0:
237,345,96721,2,2,P|204:312|200:265,1,94.3500023034669,2|8,0:0|0:0,0:0:0:0:
296,140,97000,1,2,0:0:0:0:
296,140,97139,2,0,L|404:136,1,94.3500023034669,8|2,0:0|0:0,0:0:0:0:
240,88,97418,5,8,0:0:0:0:
104,213,97558,1,2,0:0:0:0:
308,70,97697,1,8,0:0:0:0:
172,195,97837,1,2,0:0:0:0:
80,68,97976,1,8,0:0:0:0:
24,280,98116,1,2,0:0:0:0:
156,128,98256,1,8,0:0:0:0:
11,195,98395,2,2,L|104:213,1,94.3500023034669,2|8,0:0|0:0,0:0:0:0:
201,265,98674,5,2,0:0:0:0:
388,300,98814,1,8,0:0:0:0:
312,244,98953,2,0,P|297:288|303:334,1,94.3500023034669,2|8,0:0|0:0,0:0:0:0:
300,148,99232,1,0,0:0:0:0:
376,204,99372,2,0,P|390:159|384:113,1,94.3500023034669,6|8,0:0|0:0,0:0:0:0:
300,148,99651,6,0,P|278:106|241:77,1,94.3500023034669,2|6,3:0|3:0,3:0:0:0:
204,72,99860,1,0,0:0:0:0:
152,84,99930,1,2,0:0:0:0:
104,104,100000,1,0,0:0:0:0:
56,100,100069,1,8,0:0:0:0:
36,64,100139,1,0,0:0:0:0:
48,32,100209,1,2,0:0:0:0:
76,24,100279,1,0,0:0:0:0:
96,36,100349,1,8,0:0:0:0:
108,55,100418,1,0,0:0:0:0:
110,79,100488,1,2,0:0:0:0:
104,104,100558,1,0,0:0:0:0:
104,213,100628,6,0,L|92:269,2,53.125,2|0|8,0:0|0:0|0:0,0:0:0:0:
164,104,100907,1,2,0:0:0:0:
16,160,101046,1,8,0:0:0:0:
92,264,101186,2,2,P|143:268|188:240,1,106.25,2|8,0:0|0:0,0:0:0:0:
332,316,101465,1,2,0:0:0:0:
332,316,101604,2,0,L|320:184,1,106.25,8|2,0:0|0:0,0:0:0:0:
368,59,101883,5,8,0:0:0:0:
176,28,102023,1,2,0:0:0:0:
304,112,102162,1,8,0:0:0:0:
76,72,102302,2,0,L|128:63,1,53.125,2|0,0:0|0:0,0:0:0:0:
280,40,102442,2,0,L|228:108,1,53.125,8|0,0:0|0:0,0:0:0:0:
124,192,102581,1,2,0:0:0:0:
196,24,102721,1,8,0:0:0:0:
300,184,102860,6,0,L|280:296,1,106.25,2|10,0:0|0:0,0:0:0:0:
196,184,103139,1,8,0:0:0:0:
384,220,103279,1,2,0:0:0:0:
120,244,103418,2,2,P|104:193|113:141,1,106.25,2|8,0:0|0:0,0:0:0:0:
152,92,103628,1,2,0:0:0:0:
212,76,103697,1,2,0:0:0:0:
272,92,103767,1,2,0:0:0:0:
300,184,103837,5,12,0:0:0:0:
352,100,104116,2,0,L|344:152,2,53.125,0|0|8,0:0|0:0|0:0,0:0:0:0:
376,248,104395,1,0,0:0:0:0:
460,152,104535,2,0,L|476:40,2,106.25,12|2|2,0:0|0:0|0:0,0:0:0:0:
376,248,104953,1,0,0:0:0:0:
196,184,105093,6,0,P|128:176|84:192,2,106.25,4|0|8,0:0|0:0|0:0,0:0:0:0:
44,264,105511,2,0,P|112:272|156:256,2,106.25,0|2|0,0:0|0:0|0:0,0:0:0:0:
0,184,105930,1,8,0:0:0:0:
96,64,106069,1,0,0:0:0:0:
316,48,106209,1,2,0:0:0:0:
384,112,106349,6,0,L|368:240,1,106.25,0|8,0:0|0:0,0:0:0:0:
416,300,106628,1,0,0:0:0:0:
468,84,106767,2,0,L|452:212,1,106.25,2|0,0:0|0:0,0:0:0:0:
500,272,107046,1,10,0:0:0:0:
384,208,107186,1,2,0:0:0:0:
332,192,107325,1,2,0:0:0:0:
280,208,107465,1,2,0:0:0:0:
136,272,107604,1,8,0:0:0:0:
224,348,107744,1,2,0:0:0:0:
236,316,107883,5,2,0:0:0:0:
176,204,108023,1,2,0:0:0:0:
164,148,108162,1,8,0:0:0:0:
176,92,108302,1,2,0:0:0:0:
292,0,108442,5,2,0:0:0:0:
304,16,108511,1,0,0:0:0:0:
312,32,108581,1,0,0:0:0:0:
316,48,108651,1,0,0:0:0:0:
316,64,108721,1,8,0:0:0:0:
312,80,108790,1,0,0:0:0:0:
308,100,108860,1,0,0:0:0:0:
308,120,108930,1,0,0:0:0:0:
260,184,109000,5,2,0:0:0:0:
272,220,109069,1,0,0:0:0:0:
284,256,109139,1,0,0:0:0:0:
296,292,109209,1,0,0:0:0:0:
248,352,109279,5,8,0:0:0:0:
188,344,109349,1,0,0:0:0:0:
128,336,109418,1,0,0:0:0:0:
68,328,109488,1,0,0:0:0:0:
28,244,109558,6,0,L|17:138,1,106.25,6|0,0:0|0:0,0:0:0:0:
88,36,109837,2,0,L|99:141,2,106.25,8|0|2,0:0|0:0|0:0,0:0:0:0:
168,204,110256,1,0,0:0:0:0:
32,117,110395,2,0,P|75:88|127:85,1,106.25,8|2,0:0|0:0,0:0:0:0:
308,128,110674,5,2,0:0:0:0:
224,256,110814,1,2,0:0:0:0:
204,36,110953,1,8,0:0:0:0:
104,164,111093,1,2,0:0:0:0:
320,116,111232,5,2,0:0:0:0:
220,268,111372,1,2,0:0:0:0:
208,24,111511,1,8,0:0:0:0:
92,176,111651,1,2,0:0:0:0:
128,336,111790,6,0,L|233:350,1,106.25,4|0,0:0|0:0,0:0:0:0:
80,272,112069,1,8,0:0:0:0:
320,348,112209,2,0,P|392:275|377:174,1,212.5,2|0,0:0|0:0,0:0:0:0:
276,60,112628,1,8,0:0:0:0:
276,60,112767,5,2,0:0:0:0:
284,240,112907,1,2,0:0:0:0:
368,84,113046,1,2,0:0:0:0:
156,220,113186,1,8,0:0:0:0:
377,174,113325,1,2,0:0:0:0:
192,132,113465,1,2,0:0:0:0:
416,356,113604,5,8,0:0:0:0:
474,244,113744,5,8,0:0:0:0:
468,84,113883,5,8,0:0:0:0:
356,192,114023,6,0,P|340:245|352:297,1,106.25,4|0,0:0|0:0,0:0:0:0:
271,163,114302,1,8,0:0:0:0:
271,163,114442,2,0,P|288:112|275:58,1,106.25,2|0,0:0|0:0,0:0:0:0:
164,16,114721,1,2,0:0:0:0:
164,16,114860,1,8,0:0:0:0:
52,64,115000,1,2,0:0:0:0:
204,108,115139,1,2,0:0:0:0:
92,0,115279,1,2,0:0:0:0:
4,188,115418,5,8,0:0:0:0:
4,188,115558,1,2,0:0:0:0:
204,108,115697,1,2,0:0:0:0:
52,64,115837,1,2,0:0:0:0:
215,255,115976,2,0,P|255:291|305:307,1,106.25,8|0,0:0|0:0,0:0:0:0:
452,192,116256,6,0,P|412:227|362:243,2,106.25,6|2|8,0:0|0:0|0:0,0:0:0:0:
500,80,116674,1,0,0:0:0:0:
352,120,116814,1,0,0:0:0:0:
452,192,116953,1,0,0:0:0:0:
356,32,117093,2,0,B|320:20|320:20|312:28|312:28|288:20|288:20|280:28|280:28|248:20|248:20|240:28|240:28|211:20,1,159.375,8|0,0:0|0:0,0:0:0:0:
92,0,117372,5,2,0:0:0:0:
144,188,117511,1,2,0:0:0:0:
184,68,117651,1,8,0:0:0:0:
240,256,117790,1,2,0:0:0:0:
52,64,117930,5,2,0:0:0:0:
100,252,118069,1,2,0:0:0:0:
148,140,118209,1,8,0:0:0:0:
240,256,118349,1,2,0:0:0:0:
420,320,118488,6,0,P|434:268|437:215,1,106.25,2|0,0:0|0:0,0:0:0:0:
432,176,118697,1,0,0:0:0:0:
392,96,118767,2,0,P|394:148|388:201,1,106.25,8|0,0:0|0:0,0:0:0:0:
368,232,118976,1,0,0:0:0:0:
288,280,119046,2,0,L|181:272,1,106.25,2|0,0:0|0:0,0:0:0:0:
144,268,119256,1,0,0:0:0:0:
88,340,119325,2,0,L|194:347,1,106.25,8|2,0:0|0:0,0:0:0:0:
232,352,119535,1,0,0:0:0:0:
364,384,119604,6,0,B|376:348|376:348|368:340|368:340|376:316|376:316|368:308|368:308|372:288,1,106.25,4|0,0:0|0:0,0:0:0:0:
388,200,119883,1,8,0:0:0:0:
408,80,120023,1,0,0:0:0:0:
388,200,120162,2,0,L|496:192,2,106.25,2|2|8,0:0|0:0|0:0,0:0:0:0:
240,256,120581,1,0,0:0:0:0:
160,268,120721,5,0,0:0:0:0:
156,292,120790,1,0,0:0:0:0:
140,312,120860,1,0,0:0:0:0:
136,336,120930,1,0,0:0:0:0:
60,344,121000,2,0,P|33:340|12:325,3,53.125
64,268,121279,5,0,0:0:0:0:
72,244,121349,1,0,0:0:0:0:
76,220,121418,1,0,0:0:0:0:
72,196,121488,1,0,0:0:0:0:
68,156,121558,1,2,0:0:0:0:
76,124,121628,1,0,0:0:0:0:
84,92,121697,1,0,0:0:0:0:
92,60,121767,1,0,0:0:0:0:
96,44,121837,6,0,L|136:48,3,34,6|0|0|0,0:0|0:0|0:0|0:0,0:0:0:0:
172,24,122116,2,0,L|216:28,3,38.2499988327027,8|0|0|0,0:0|0:0|0:0|0:0,0:0:0:0:
276,72,122395,2,0,L|324:76,3,42.5,2|0|0|0,0:0|0:0|0:0|0:0,0:0:0:0:
428,128,122674,2,0,L|381:124,3,46.7500014266968,2|0|0|0,0:0|0:0|0:0|0:0,0:0:0:0:
312,156,122953,6,0,P|332:232|296:308,1,159.375,6|0,0:0|0:0,0:0:0:0:
352,352,123232,5,2,0:0:0:0:
312,340,123302,1,0,0:0:0:0:
272,348,123372,1,0,0:0:0:0:
232,360,123442,1,0,0:0:0:0:
192,352,123511,1,2,0:0:0:0:
152,336,123581,1,0,0:0:0:0:
112,320,123651,1,0,0:0:0:0:
72,308,123721,1,0,0:0:0:0:
32,312,123790,1,2,0:0:0:0:
8,340,123860,1,0,0:0:0:0:
16,372,123930,1,0,0:0:0:0:
48,380,124000,1,0,0:0:0:0:
80,376,124069,1,2,0:0:0:0:
100,352,124139,1,0,0:0:0:0:
112,320,124209,1,0,0:0:0:0:
112,284,124279,1,0,0:0:0:0:
100,248,124349,1,2,0:0:0:0:
96,212,124418,1,0,0:0:0:0:
100,176,124488,1,0,0:0:0:0:
112,140,124558,1,0,0:0:0:0:
172,80,124628,5,2,0:0:0:0:
188,92,124697,1,0,0:0:0:0:
204,100,124767,1,0,0:0:0:0:
224,104,124837,1,0,0:0:0:0:
244,104,124907,1,2,0:0:0:0:
260,100,124976,1,0,0:0:0:0:
272,92,125046,1,0,0:0:0:0:
284,80,125116,1,0,0:0:0:0:
348,40,125186,5,2,0:0:0:0:
300,8,125256,1,0,0:0:0:0:
244,16,125325,1,0,0:0:0:0:
196,36,125395,1,0,0:0:0:0:
172,80,125465,1,2,0:0:0:0:
140,36,125535,1,0,0:0:0:0:
92,20,125604,1,0,0:0:0:0:
44,36,125674,1,0,0:0:0:0:
20,80,125744,1,2,0:0:0:0:
32,132,125814,1,0,0:0:0:0:
60,176,125883,1,0,0:0:0:0:
96,212,125953,1,0,0:0:0:0:
136,244,126023,1,2,0:0:0:0:
164,288,126093,1,0,0:0:0:0:
156,340,126162,1,0,0:0:0:0:
112,368,126232,1,0,0:0:0:0:
60,368,126302,1,2,0:0:0:0:
24,332,126372,1,0,0:0:0:0:
24,280,126442,1,0,0:0:0:0:
48,232,126511,1,0,0:0:0:0:
96,212,126581,1,2,0:0:0:0:
148,228,126651,1,0,0:0:0:0:
196,248,126721,1,0,0:0:0:0:
244,228,126790,1,0,0:0:0:0:
308,180,126860,6,0,L|320:112,3,63.7500024318696,2|0|0|0,0:0|0:0|0:0|0:0,0:0:0:0:
392,56,127139,2,0,L|403:118,3,63.7500024318696,2|0|0|0,0:0|0:0|0:0|0:0,0:0:0:0:
464,192,127418,5,2,0:0:0:0:
456,236,127488,1,0,0:0:0:0:
460,280,127558,1,0,0:0:0:0:
444,320,127628,1,0,0:0:0:0:
404,336,127697,1,2,0:0:0:0:
360,328,127767,1,0,0:0:0:0:
320,344,127837,1,0,0:0:0:0:
288,324,127907,1,0,0:0:0:0:
248,348,127976,1,2,0:0:0:0:
216,324,128046,1,0,0:0:0:0:
176,344,128116,1,0,0:0:0:0:
144,320,128186,1,0,0:0:0:0:
108,308,128256,1,2,0:0:0:0:
72,320,128325,1,0,0:0:0:0:
40,304,128395,1,0,0:0:0:0:
8,288,128465,1,0,0:0:0:0:
40,276,128535,1,2,0:0:0:0:
76,264,128604,1,0,0:0:0:0:
108,252,128674,1,0,0:0:0:0:
84,240,128744,1,0,0:0:0:0:
48,224,128814,1,2,0:0:0:0:
20,204,128883,1,0,0:0:0:0:
0,172,128953,1,0,0:0:0:0:
0,136,129023,1,0,0:0:0:0:
78,146,129093,5,2,0:0:0:0:
80,134,129162,1,0,0:0:0:0:
83,123,129232,1,0,0:0:0:0:
87,112,129302,1,0,0:0:0:0:
92,101,129372,1,2,0:0:0:0:
98,90,129442,1,0,0:0:0:0:
106,80,129511,1,0,0:0:0:0:
115,71,129581,1,0,0:0:0:0:
192,24,129651,2,0,P|208:52|216:96,1,63.7500024318696,2|0,0:0|0:0,0:0:0:0:
184,200,129790,2,0,P|168:172|160:128,1,63.7500024318696,2|0,0:0|0:0,0:0:0:0:
272,172,129930,2,0,P|277:203|269:247,1,63.7500024318696,2|0,0:0|0:0,0:0:0:0:
332,128,130069,2,0,P|326:96|334:52,1,63.7500024318696,2|0,0:0|0:0,0:0:0:0:
388,176,130209,2,0,P|384:207|390:238,1,63.7500024318696,2|0,0:0|0:0,0:0:0:0:
448,352,130349,2,0,P|453:320|450:289,1,63.7500024318696,2|0,0:0|0:0,0:0:0:0:
360,312,130488,1,2,0:0:0:0:
354,321,130558,1,0,0:0:0:0:
347,331,130628,1,2,0:0:0:0:
341,341,130697,1,0,0:0:0:0:
304,372,130767,1,2,0:0:0:0:
256,376,130837,1,2,0:0:0:0:
208,368,130907,1,2,0:0:0:0:
168,340,130976,1,2,0:0:0:0:
140,300,131046,5,10,0:0:0:0:
124,256,131116,1,2,0:0:0:0:
124,208,131186,1,2,0:0:0:0:
132,160,131256,1,2,0:0:0:0:
176,88,131325,2,0,L|244:84,3,63.7500024318696,2|2|2|2,0:0|0:0|0:0|0:0,0:0:0:0:
332,128,131604,2,0,L|395:124,3,63.7500024318696,2|2|2|2,0:0|0:0|0:0|0:0,0:0:0:0:
416,200,131883,5,6,0:0:0:0:
412,224,131953,1,0,0:0:0:0:
400,244,132023,1,0,0:0:0:0:
380,260,132093,1,0,0:0:0:0:
356,268,132162,1,2,0:0:0:0:
332,268,132232,1,0,0:0:0:0:
308,260,132302,1,0,0:0:0:0:
288,248,132372,1,0,0:0:0:0:
276,228,132442,1,2,0:0:0:0:
268,208,132511,1,0,0:0:0:0:
264,188,132581,1,0,0:0:0:0:
264,168,132651,1,0,0:0:0:0:
256,148,132721,1,2,0:0:0:0:
240,132,132790,1,0,0:0:0:0:
216,124,132860,1,0,0:0:0:0:
192,132,132930,1,0,0:0:0:0:
120,176,133000,5,2,0:0:0:0:
119,188,133069,1,0,0:0:0:0:
118,200,133139,1,0,0:0:0:0:
117,212,133209,1,0,0:0:0:0:
116,224,133279,1,2,0:0:0:0:
115,236,133349,1,0,0:0:0:0:
114,248,133418,1,0,0:0:0:0:
113,260,133488,1,0,0:0:0:0:
168,336,133558,2,0,L|216:364,1,55.2499974708558,2|0,0:0|0:0,0:0:0:0:
64,316,133697,2,0,L|12:296,1,55.2499974708558,2|0,0:0|0:0,0:0:0:0:
168,336,133837,2,0,L|216:364,1,55.2499974708558,2|0,0:0|0:0,0:0:0:0:
64,316,133976,2,0,L|12:296,1,55.2499974708558,2|0,0:0|0:0,0:0:0:0:
168,336,134116,5,6,0:0:0:0:
216,364,134186,1,0,0:0:0:0:
272,372,134256,1,0,0:0:0:0:
328,364,134325,1,0,0:0:0:0:
343,332,134395,1,2,0:0:0:0:
355,300,134465,1,0,0:0:0:0:
344,248,134535,1,0,0:0:0:0:
352,192,134604,1,0,0:0:0:0:
376,140,134674,1,2,0:0:0:0:
416,100,134744,1,0,0:0:0:0:
412,44,134814,1,0,0:0:0:0:
388,16,134883,1,0,0:0:0:0:
352,8,134953,1,2,0:0:0:0:
324,20,135023,1,0,0:0:0:0:
316,36,135093,1,0,0:0:0:0:
312,48,135162,1,0,0:0:0:0:
224,16,135232,6,0,P|203:7|179:4,4,46.7500014266968,4|0|0|0|0,0:0|0:0|0:0|0:0|0:0,0:0:0:0:
216,88,135581,2,0,P|237:97|261:100,2,46.7500014266968
128,104,135790,2,0,P|136:152|160:196,1,93.5000028533936,6|0,0:0|0:0,0:0:0:0:
208,248,136000,2,0,P|200:296|176:340,1,93.5000028533936,2|0,0:0|0:0,0:0:0:0:
148,352,136209,1,2,0:0:0:0:
72,364,136279,2,2,B|68:340|68:340|76:348|76:348|76:336|76:336|72:320|72:320|80:328|80:328|80:316|80:316|76:300|76:300|84:308|84:308|84:296|84:296|80:280|80:280|88:288|88:288|88:276|88:276|84:260|84:260|92:268|92:268|92:256|92:256|90:250,1,212.5,0|0,0:0|0:0,0:0:0:0:
156,191,136628,5,10,0:0:0:0:
160,172,136697,1,0,0:0:0:0:
164,152,136767,1,0,0:0:0:0:
168,132,136837,1,0,0:0:0:0:
232,84,136907,1,2,0:0:0:0:
236,104,136976,1,0,0:0:0:0:
240,124,137046,1,0,0:0:0:0:
244,144,137116,1,0,0:0:0:0:
324,112,137186,1,10,0:0:0:0:
372,104,137256,1,0,0:0:0:0:
416,116,137325,1,0,0:0:0:0:
448,140,137395,1,0,0:0:0:0:
492,204,137465,1,10,0:0:0:0:
496,240,137535,1,0,0:0:0:0:
484,276,137604,1,0,0:0:0:0:
460,300,137674,1,0,0:0:0:0:
416,224,137744,2,0,P|393:210|375:190,3,53.125,10|0|0|0,0:0|0:0|0:0|0:0,0:0:0:0:
324,256,138023,6,0,P|332:275|336:296,2,42.5,2|0|0,0:0|0:0|0:0,0:0:0:0:
243,155,138302,1,8,0:0:0:0:
116,244,138442,1,0,0:0:0:0:
116,244,138581,2,2,B|114:238|114:238|114:226|114:226|122:234|122:234|118:218|118:218|118:206|118:206|126:214|126:214|122:198|122:198|122:186|122:186|130:194|130:194|126:178|126:178|126:166|126:166|134:174|134:174|130:158,1,159.375,6|0,0:0|0:0,0:0:0:0:
72,100,138860,6,0,P|46:91|20:94,2,53.125,8|0|2,0:0|0:0|0:0,0:0:0:0:
243,155,139139,1,0,0:0:0:0:
116,244,139279,1,2,0:0:0:0:
200,44,139418,1,8,0:0:0:0:
243,155,139558,1,2,0:0:0:0:
376,60,139697,2,0,L|364:112,1,53.125,2|0,0:0|0:0,0:0:0:0:
404,192,139837,1,0,0:0:0:0:
404,192,139907,1,0,0:0:0:0:
404,192,139976,2,0,B|420:244|420:244|416:276,1,80.7499978437424,0|8,0:0|0:0,0:0:0:0:
232,234,140256,2,0,B|228:207|228:207|244:155,1,80.7499978437424,0|6,0:0|0:0,0:0:0:0:
252,168,140465,1,0,0:0:0:0:
260,180,140535,5,4,0:0:0:0:
260,80,140674,1,2,0:0:0:0:
160,260,140953,1,0,0:0:0:0:
244,156,141093,1,8,0:0:0:0:
348,184,141197,2,0,L|388:186,1,40.3749989218712
332,112,141372,1,2,0:0:0:0:
300,236,141511,1,2,0:0:0:0:
244,156,141651,1,8,0:0:0:0:
380,56,141790,1,0,0:0:0:0:
380,56,141930,1,2,0:0:0:0:
328,128,142035,2,0,L|320:168,1,40.3749989218712
360,228,142209,1,8,0:0:0:0:
407,324,142314,2,0,L|404:284,1,40.3749989218712
360,228,142488,5,6,0:0:0:0:
220,160,142628,1,0,0:0:0:0:
80,228,142767,1,8,0:0:0:0:
48,348,142907,5,0,0:0:0:0:
220,160,143046,1,4,0:0:0:0:
184,352,143186,2,0,L|180:311,1,40.3749989218712
200,236,143325,5,8,0:0:0:0:
248,256,143395,1,0,0:0:0:0:
280,296,143465,1,0,0:0:0:0:
292,344,143535,1,0,0:0:0:0:
360,288,143604,1,2,0:0:0:0:
344,240,143674,1,0,0:0:0:0:
348,188,143744,1,2,0:0:0:0:
376,144,143814,1,0,0:0:0:0:
432,76,143883,1,8,0:0:0:0:
388,44,143953,1,0,0:0:0:0:
336,32,144023,1,2,0:0:0:0:
284,44,144093,1,0,0:0:0:0:
204,88,144162,6,0,L|208:160,3,48.8750009322167,10|2|2|2,0:0|0:0|0:0|0:0,0:0:0:0:
127,55,144442,2,0,L|120:104,3,48.8750009322167,6|2|2|0,0:0|0:0|0:0|0:0,0:0:0:0:
104,144,144721,5,8,0:0:0:0:
32,280,144860,5,8,0:0:0:0:
152,240,145000,5,8,0:0:0:0:
248,256,145139,2,0,B|290:231|290:231|322:239|322:239|396:208|396:208|428:216|428:216|469:189,1,244.375004661083,4|0,0:0|0:0,0:0:0:0:
496,172,145558,6,0,L|484:276,1,97.7500018644333,10|2,0:0|0:0,0:0:0:0:
444,356,145837,1,2,0:0:0:0:
444,356,145976,1,2,0:0:0:0:
420,128,146116,2,0,L|408:225,1,97.7500018644333,10|2,0:0|0:0,0:0:0:0:
344,336,146395,1,2,0:0:0:0:
344,336,146535,1,2,0:0:0:0:
492,216,146674,1,10,0:0:0:0:
280,296,146814,1,2,0:0:0:0:
164,72,146953,6,0,P|187:65|211:65,3,48.8750009322167,2|0|0|0,0:0|0:0|0:0|0:0,0:0:0:0:
327,119,147232,2,0,P|304:112|280:112,3,48.8750009322167,10|0|0|0,0:0|0:0|0:0|0:0,0:0:0:0:
176,148,147511,5,6,0:0:0:0:
144,188,147581,1,0,0:0:0:0:
152,240,147651,1,0,0:0:0:0:
192,272,147721,1,0,0:0:0:0:
280,296,147790,1,8,0:0:0:0:
332,292,147860,1,0,0:0:0:0:
376,236,147930,1,0,0:0:0:0:
428,232,148000,1,0,0:0:0:0:
468,152,148069,2,0,L|476:104,1,48.8750009322167,2|0,0:0|0:0,0:0:0:0:
392,16,148209,2,0,L|400:64,1,48.8750009322167,2|0,0:0|0:0,0:0:0:0:
468,152,148349,2,0,L|476:104,1,48.8750009322167,8|0,0:0|0:0,0:0:0:0:
392,16,148488,6,0,L|400:64,1,48.8750009322167,2|0,0:0|0:0,0:0:0:0:
327,119,148628,2,0,L|319:167,1,48.8750009322167,2|0,0:0|0:0,0:0:0:0:
271,247,148767,2,0,L|279:295,1,48.8750009322167,2|0,0:0|0:0,0:0:0:0:
208,356,148907,2,0,L|136:344,2,48.8750009322167,8|0|2,0:0|0:0|0:0,0:0:0:0:
44,376,149186,5,0,0:0:0:0:
84,316,149256,1,0,0:0:0:0:
88,244,149325,1,0,0:0:0:0:
48,184,149395,5,0,0:0:0:0:
68,112,149465,1,0,0:0:0:0:
136,80,149535,1,0,0:0:0:0:
256,116,149604,6,0,L|208:104,2,48.8750009322167,4|0|2,0:0|0:0|0:0,0:0:0:0:
168,208,149883,1,2,0:0:0:0:
136,80,150023,1,10,0:0:0:0:
236,240,150162,1,2,0:0:0:0:
108,152,150302,1,2,0:0:0:0:
308,224,150442,1,2,0:0:0:0:
496,92,150581,5,10,0:0:0:0:
376,104,150721,1,2,0:0:0:0:
256,116,150860,1,2,0:0:0:0:
200,48,151000,5,2,0:0:0:0:
324,188,151139,1,10,0:0:0:0:
416,40,151279,1,2,0:0:0:0:
447,168,151418,2,0,L|438:119,1,48.8750009322167,2|0,0:0|0:0,0:0:0:0:
316,16,151558,1,12,0:0:0:0:
316,16,151697,2,0,L|308:88,1,48.8750009322167,2|0,0:0|0:0,0:0:0:0:
236,240,151837,1,10,0:0:0:0:
108,152,151976,5,8,0:0:0:0:
224,120,152116,1,8,0:0:0:0:
96,156,152256,1,2,0:0:0:0:
364,244,152395,1,8,0:0:0:0:
172,284,152535,1,2,0:0:0:0:
380,220,152674,5,10,0:0:0:0:
260,40,152814,5,10,0:0:0:0:
196,184,152953,5,8,0:0:0:0:
216,344,153093,5,10,0:0:0:0:
420,368,153232,1,2,0:0:0:0:
196,352,153372,1,10,0:0:0:0:
332,280,153511,1,2,0:0:0:0:
344,368,153651,1,12,0:0:0:0:
380,220,153790,1,2,0:0:0:0:
332,40,153930,1,6,0:0:0:0:
332,60,154069,1,8,0:0:0:0:
332,76,154209,6,0,L|324:128,3,50.9999984436036,4|0|0|0,0:0|0:0|0:0|0:0,0:0:0:0:
220,176,154488,2,0,L|228:124,3,50.9999984436036
164,56,154767,2,0,P|141:74|124:100,1,50.9999984436036
75,158,154907,2,0,P|68:182|64:208,1,50.9999984436036
32,288,155046,1,0,0:0:0:0:
128,360,155133,2,0,P|166:359|202:347,1,76.4999976654053
284,304,155325,6,0,L|269:255,1,50.9999984436036,2|0,0:0|0:0,0:0:0:0:
232,144,155465,2,0,L|203:186,1,50.9999984436036,8|0,0:0|0:0,0:0:0:0:
122,289,155604,2,0,L|184:276,1,50.9999984436036
256,240,155744,2,0,L|318:227,1,50.9999984436036
432,272,155883,5,4,0:0:0:0:
480,160,156162,5,4,0:0:0:0:
436,12,156442,5,6,0:0:0:0:
124,60,156581,1,2,0:0:0:0:
384,168,156721,1,10,0:0:0:0:
122,289,156860,5,2,0:0:0:0:
200,24,157000,1,2,0:0:0:0:
308,316,157139,1,2,0:0:0:0:
59,212,157279,5,10,0:0:0:0:
384,168,157418,1,0,0:0:0:0:
140,196,157558,6,0,B|132:156|148:132|148:132|120:108|124:60,1,144.500002756119,2|2,0:0|0:0,0:0:0:0:
220,184,157837,2,0,B|228:224|212:248|212:248|240:272|236:320,1,144.500002756119,10|2,0:0|0:0,0:0:0:0:
280,104,158116,2,0,P|316:104|351:96,1,72.2500013780594,2|0,0:0|0:0,0:0:0:0:
512,88,158256,1,0,0:0:0:0:
512,88,158325,1,0,0:0:0:0:
511,87,158395,2,0,P|441:79|392:132,1,144.500002756119,10|0,0:0|0:0,0:0:0:0:
352,348,158674,5,6,0:0:0:0:
472,160,158814,1,2,0:0:0:0:
148,308,158953,1,8,0:0:0:0:
148,308,159093,5,2,0:0:0:0:
436,272,159232,1,2,0:0:0:0:
200,72,159372,1,2,0:0:0:0:
200,72,159511,5,8,0:0:0:0:
256,276,159651,1,0,0:0:0:0:
412,152,159790,6,0,B|404:91|404:91|396:111,1,82.875000316143,2|0,0:0|0:0,0:0:0:0:
256,0,159930,2,0,B|263:60|263:60|271:40,1,82.875000316143,2|0,0:0|0:0,0:0:0:0:
392,128,160069,2,0,B|385:68|385:68|377:88,1,82.875000316143,10|0,0:0|0:0,0:0:0:0:
272,23,160209,2,0,B|280:84|280:84|288:64,1,82.875000316143,2|0,0:0|0:0,0:0:0:0:
136,44,160349,2,0,B|108:44|84:60|84:60|55:60,1,82.875000316143,6|0,0:0|0:0,0:0:0:0:
132,116,160488,2,0,B|161:116|185:100|213:100,1,82.875000316143,2|0,0:0|0:0,0:0:0:0:
108,184,160628,2,0,B|80:184|56:167|56:168|27:167,1,82.875000316143,2|0,0:0|0:0,0:0:0:0:
168,232,160767,2,0,B|196:231|196:232|220:215|248:215,1,82.875000316143,2|0,0:0|0:0,0:0:0:0:
436,272,160907,5,4,0:0:0:0:
248,215,161046,2,0,P|302:173|367:199,1,144.500002756119,0|8,0:0|0:0,0:0:0:0:
212,100,161325,1,2,0:0:0:0:
308,368,161465,1,2,0:0:0:0:
315,383,161604,2,0,B|335:343|335:343|311:235,1,144.500002756119,2|2,0:0|0:0,0:0:0:0:
408,376,161883,1,4,0:0:0:0:
324,164,162023,2,0,B|304:204|304:204|328:312,1,144.500002756119,2|2,0:0|0:0,0:0:0:0:
408,376,162302,5,8,0:0:0:0:
456,180,162442,1,8,0:0:0:0:
232,300,162581,1,4,0:0:0:0:
114,194,162721,2,0,L|8:96,2,144.500002756119,2|10|0,0:0|0:0|0:0,0:0:0:0:
444,96,163139,5,6,0:0:0:0:
364,342,163279,1,2,0:0:0:0:
308,64,163418,1,10,0:0:0:0:
436,248,163558,5,2,0:0:0:0:
248,208,163697,1,2,0:0:0:0:
392,148,163837,1,0,0:0:0:0:
248,208,163976,1,8,0:0:0:0:
104,268,164116,2,0,P|22:178|100:48,1,289.000005512238,4|0,0:0|0:0,0:0:0:0:
243,136,164535,6,0,P|249:171|247:207,1,72.2500013780594,8|0,0:0|0:0,0:0:0:0:
160,192,164674,2,0,P|153:156|156:120,1,72.2500013780594
172,40,164814,1,8,0:0:0:0:
240,4,164883,1,8,0:0:0:0:
316,0,164953,1,8,0:0:0:0:
392,16,165023,1,8,0:0:0:0:
460,56,165093,2,0,B|496:84|504:128|496:168|480:196|480:196|448:188|436:154,1,216.750004134178,8|0,0:0|0:0,0:0:0:0:
316,244,165372,5,6,0:0:0:0:
8,96,165511,1,2,0:0:0:0:
322,133,165651,1,10,0:0:0:0:
140,332,165790,5,2,0:0:0:0:
240,4,165930,1,2,0:0:0:0:
344,368,166069,1,2,0:0:0:0:
60,192,166209,5,10,0:0:0:0:
436,154,166349,1,0,0:0:0:0:
244,268,166488,6,0,B|200:276|168:240|168:240|135:263|103:252,1,152.999995330811,2|2,0:0|0:0,0:0:0:0:
236,188,166767,2,0,B|280:180|312:216|312:216|344:192|378:203,1,152.999995330811,10|2,0:0|0:0,0:0:0:0:
416,352,167046,2,0,P|385:329|366:296,1,76.4999976654053,2|0,0:0|0:0,0:0:0:0:
328,108,167186,1,0,0:0:0:0:
328,108,167256,1,0,0:0:0:0:
328,108,167325,2,0,B|340:68|380:56|380:56|420:68|430:108,1,152.999995330811,8|2,0:0|0:0,0:0:0:0:
292,320,167604,5,2,0:0:0:0:
96,40,167744,1,2,0:0:0:0:
480,196,167883,1,10,0:0:0:0:
120,176,168023,5,2,0:0:0:0:
392,16,168162,1,2,0:0:0:0:
140,332,168302,1,2,0:0:0:0:
8,96,168442,5,10,0:0:0:0:
400,220,168581,1,0,0:0:0:0:
104,140,168721,6,0,B|92:112|92:112|96:56,1,87.125001329422,2|0,0:0|0:0,0:0:0:0:
80,208,168860,2,0,B|92:236|92:236|88:292,1,87.125001329422,2|0,0:0|0:0,0:0:0:0:
180,128,169000,2,0,B|168:100|168:100|172:44,1,87.125001329422,10|0,0:0|0:0,0:0:0:0:
156,196,169139,2,0,B|168:224|168:224|164:280,1,87.125001329422,2|0,0:0|0:0,0:0:0:0:
261,175,169279,2,0,L|348:168,1,87.125001329422,2|0,0:0|0:0,0:0:0:0:
500,125,169418,2,0,L|413:117,1,87.125001329422,2|0,0:0|0:0,0:0:0:0:
252,192,169558,2,0,L|338:184,1,87.125001329422,6|0,0:0|0:0,0:0:0:0:
512,113,169697,2,0,L|425:105,1,87.125001329422,2|0,0:0|0:0,0:0:0:0:
308,276,169837,5,2,0:0:0:0:
234,285,169907,1,0,0:0:0:0:
160,296,169976,2,0,P|188:345|277:348,1,144.500002756119,2|8,0:0|0:0,0:0:0:0:
488,292,170256,1,2,0:0:0:0:
488,292,170395,1,4,0:0:0:0:
348,168,170535,2,0,P|320:96|332:32,1,144.500002756119,2|2,0:0|0:0,0:0:0:0:
244,208,170814,1,8,0:0:0:0:
476,44,170953,2,0,L|332:31,1,144.500002756119,2|0,0:0|0:0,0:0:0:0:
216,32,171232,5,8,0:0:0:0:
244,208,171372,1,8,0:0:0:0:
276,384,171511,1,8,0:0:0:0:
162,279,171651,2,0,P|101:244|33:260,2,144.500002756119,2|10|2,0:0|0:0|0:0,0:0:0:0:
276,384,172069,5,6,0:0:0:0:
169,88,172209,1,2,0:0:0:0:
88,336,172349,1,10,0:0:0:0:
368,188,172488,5,2,0:0:0:0:
8,96,172628,1,10,0:0:0:0:
308,276,172767,1,2,0:0:0:0:
116,36,172907,5,10,0:0:0:0:
164,280,173046,1,4,0:0:0:0:
196,188,173325,5,0,0:0:0:0:
204,172,173465,1,8,0:0:0:0:
275,73,173604,1,0,0:0:0:0:
287,89,173744,2,0,L|295:165,3,72.2500013780594,2|0|0|0,0:0|0:0|0:0|0:0,0:0:0:0:
360,256,174023,2,0,L|367:184,3,72.2500013780594,2|0|0|0,0:0|0:0|0:0|0:0,0:0:0:0:
384,148,174302,5,2,0:0:0:0:
404,108,174372,1,0,0:0:0:0:
424,72,174442,1,0,0:0:0:0:
444,36,174511,1,0,0:0:0:0:
484,116,174581,1,2,0:0:0:0:
476,140,174651,1,0,0:0:0:0:
472,168,174721,1,0,0:0:0:0:
476,196,174790,1,0,0:0:0:0:
484,224,174860,1,2,0:0:0:0:
492,248,174930,1,0,0:0:0:0:
496,276,175000,1,0,0:0:0:0:
492,300,175069,1,0,0:0:0:0:
432,352,175139,1,10,0:0:0:0:
388,356,175209,1,0,0:0:0:0:
344,360,175279,1,0,0:0:0:0:
296,364,175349,1,0,0:0:0:0:
252,368,175418,6,0,P|191:350|148:300,1,127.500004863739,2|0,0:0|0:0,0:0:0:0:
43,372,175628,1,0,0:0:0:0:
43,372,175697,2,0,P|74:317|69:254,1,127.500004863739,10|0,0:0|0:0,0:0:0:0:
36,92,175907,1,0,0:0:0:0:
36,92,175976,2,0,P|5:146|10:209,1,127.500004863739,2|0,0:0|0:0,0:0:0:0:
136,304,176186,1,0,0:0:0:0:
136,304,176256,1,10,0:0:0:0:
288,332,176395,1,0,0:0:0:0:
308,244,176535,5,2,0:0:0:0:
288,236,176604,1,0,0:0:0:0:
272,228,176674,1,0,0:0:0:0:
252,236,176744,1,0,0:0:0:0:
232,236,176814,1,10,0:0:0:0:
212,232,176883,1,0,0:0:0:0:
196,224,176953,1,0,0:0:0:0:
184,212,177023,1,0,0:0:0:0:
240,164,177093,5,2,0:0:0:0:
244,148,177162,1,0,0:0:0:0:
244,132,177232,1,0,0:0:0:0:
240,116,177302,1,0,0:0:0:0:
316,64,177372,1,10,0:0:0:0:
312,80,177442,1,0,0:0:0:0:
312,96,177511,1,0,0:0:0:0:
316,112,177581,1,0,0:0:0:0:
332,140,177651,5,2,0:0:0:0:
376,144,177721,1,0,0:0:0:0:
420,148,177790,1,0,0:0:0:0:
464,152,177860,1,0,0:0:0:0:
432,224,177930,1,10,0:0:0:0:
384,228,178000,1,0,0:0:0:0:
336,232,178069,1,0,0:0:0:0:
288,236,178139,1,0,0:0:0:0:
240,164,178209,5,4,0:0:0:0:
146,44,178349,1,0,0:0:0:0:
88,184,178488,1,0,0:0:0:0:
240,164,178628,1,0,0:0:0:0:
424,136,178767,5,0,0:0:0:0:
384,284,178907,1,0,0:0:0:0:
296,52,179046,1,8,0:0:0:0:
348,188,179186,1,8,0:0:0:0:
146,44,179325,1,2,0:0:0:0:
146,44,179465,1,0,0:0:0:0:
146,44,179604,2,0,L|164:172,1,127.500004863739,2|12,0:0|0:0,0:0:0:0:
163,170,179883,1,0,0:0:0:0:
116,333,180023,5,0,0:0:0:0:
369,292,180162,1,8,0:0:0:0:
116,333,180302,1,8,0:0:0:0:
244,312,180442,1,2,0:0:0:0:
369,292,180581,1,0,0:0:0:0:
432,224,180721,2,0,L|450:97,1,127.500004863739,8|2,0:0|0:0,0:0:0:0:
295,51,181000,6,0,P|277:112|240:163,1,127.500004863739,4|0,0:0|0:0,0:0:0:0:
72,248,181279,2,0,L|200:240,2,114.750000437737,8|2|2,0:0|0:0|0:0,0:0:0:0:
197,328,181697,2,0,L|312:336,2,114.750000437737,8|2|6,0:0|0:0|0:0,0:0:0:0:
423,349,182256,6,0,P|367:353|312:335,1,114.750000437737,0|8,0:0|0:0,0:0:0:0:
186,240,182535,1,0,0:0:0:0:
400,172,182674,2,0,L|393:244,1,57.3750002188683,8|0,0:0|0:0,0:0:0:0:
332,120,182814,2,0,L|325:192,1,57.3750002188683,8|0,0:0|0:0,0:0:0:0:
304,264,182953,2,0,P|219:261|160:196,1,172.125000656605,2|0,0:0|0:0,0:0:0:0:
176,183,183232,6,0,P|250:199|306:249,1,152.999995330811,6|0,0:0|0:0,0:0:0:0:
360,320,183511,1,8,0:0:0:0:
440,188,183651,2,0,L|447:137,1,50.9999984436036
484,56,183790,1,2,0:0:0:0:
364,24,183930,1,0,0:0:0:0:
436,124,184069,1,8,0:0:0:0:
280,92,184209,1,0,0:0:0:0:
280,92,184349,6,0,B|244:88|244:88|216:76|216:76|172:72,1,101.999996887207
68,20,184628,1,8,0:0:0:0:
124,132,184767,1,0,0:0:0:0:
280,92,184907,5,0,0:0:0:0:
240,220,185046,1,0,0:0:0:0:
240,220,185186,2,0,P|237:270|251:319,1,101.999996887207,8|0,0:0|0:0,0:0:0:0:
320,380,185465,5,4,0:0:0:0:
160,276,185604,1,0,0:0:0:0:
268,124,185744,1,8,0:0:0:0:
345,256,185883,5,0,0:0:0:0:
196,152,186022,1,0,0:0:0:0:
296,0,186162,1,0,0:0:0:0:
248,248,186302,5,8,0:0:0:0:
164,84,186442,1,0,0:0:0:0:
336,148,186581,2,0,L|234:151,1,101.999996887207
112,176,186860,1,2,0:0:0:0:
248,248,187000,1,2,0:0:0:0:
164,84,187139,1,6,0:0:0:0:
164,84,187279,1,0,0:0:0:0:
112,176,187418,5,2,0:0:0:0:
336,148,187558,1,0,0:0:0:0:
475,324,187697,6,0,P|436:362|381:363,2,113.049995342484,2|2|12,0:0|0:0|0:0,0:0:0:0:
304,300,188116,2,0,P|343:261|398:260,2,113.049995342484,10|2|0,0:0|0:0|0:0,0:0:0:0:
180,263,188535,2,0,P|157:212|113:179,1,113.049995342484,2|14,0:0|0:0,0:0:0:0:
16,149,188814,2,0,P|27:123|47:104,3,56.5249976712419,2|2|2|2,0:0|0:0|0:0|0:0,0:0:0:0:
104,32,189093,2,0,P|124:51|135:77,3,56.5249976712419,10|2|10|2,0:0|0:0|0:0|0:0,0:0:0:0:
204,136,189372,2,0,P|214:110|235:90,3,56.5249976712419,2|2|2|2,0:0|0:0|0:0|0:0,0:0:0:0:
328,92,189651,2,0,P|348:111|359:137,3,56.5249976712419,10|2|2|2,0:0|0:0|0:0|0:0,0:0:0:0:
336,252,189930,5,6,0:0:0:0:
308,256,190000,1,2,0:0:0:0:
280,260,190069,1,2,0:0:0:0:
252,264,190139,1,2,0:0:0:0:
160,324,190209,2,0,L|240:336,3,59.4999981842042,10|0|2|0,0:0|0:0|0:0|0:0,0:0:0:0:
344,244,190488,5,6,0:0:0:0:
316,248,190558,1,2,0:0:0:0:
288,252,190627,1,2,0:0:0:0:
260,256,190697,1,2,0:0:0:0:
148,332,190767,2,0,L|228:344,3,59.4999981842042,8|0|2|0,0:0|0:0|0:0|0:0,0:0:0:0:
352,236,191046,5,6,0:0:0:0:
324,240,191116,1,2,0:0:0:0:
296,244,191185,1,2,0:0:0:0:
268,248,191255,1,2,0:0:0:0:
140,340,191325,2,0,L|220:352,3,59.4999981842042,10|0|2|0,0:0|0:0|0:0|0:0,0:0:0:0:
360,228,191604,5,6,0:0:0:0:
332,232,191674,1,2,0:0:0:0:
304,236,191743,1,2,0:0:0:0:
276,240,191813,1,2,0:0:0:0:
132,348,191883,2,0,L|212:360,3,59.4999981842042,10|0|2|0,0:0|0:0|0:0|0:0,0:0:0:0:
80,280,192162,5,8,0:0:0:0:
144,136,192302,1,8,0:0:0:0:
236,296,192442,1,8,0:0:0:0:
36,204,192581,5,0,0:0:0:0:
244,168,192721,1,2,0:0:0:0:
452,132,192860,1,0,0:0:0:0:
244,168,193000,5,0,0:0:0:0:
292,372,193139,2,0,P|182:391|73:372,1,223.125002127886
0,332,193418,5,8,0:0:0:0:
268,24,193558,1,8,0:0:0:0:
436,264,193697,1,8,0:0:0:0:
146,210,193837,6,0,L|356:248,1,212.5,8|0,0:0|0:0,0:0:0:0:
364,260,194256,1,0,0:0:0:0:
