osu file format v14

[General]
AudioFilename: audio.mp3
AudioLeadIn: 0
PreviewTime: 70020
Countdown: 0
SampleSet: Normal
StackLeniency: 0.7
Mode: 1
LetterboxInBreaks: 0
EpilepsyWarning: 1
WidescreenStoryboard: 1

[Editor]
Bookmarks: 85706,89134,92563,114848,128562,131989,137991,138848,159417,179991,188562,203991,241705,258848,270848,289705,318848,344562,346276,359991,380562,390848,418276
DistanceSpacing: 1.9
BeatDivisor: 6
GridSize: 4
TimelineZoom: 2.7

[Metadata]
Title:Tsukiakari
TitleUnicode:Tsukiakari
Artist:Whispered
ArtistUnicode:Whispered
Creator:MrKOSIEJ
Version:Raiden's Hell Oni
Source:
Tags:kosiej mrk Raiden hard rock metal death melodic eastern folk metsutan songs of the void 月明
BeatmapID:1064337
BeatmapSetID:462888

[Difficulty]
HPDrainRate:4
CircleSize:2
OverallDifficulty:6.5
ApproachRate:9.8
SliderMultiplier:1.4
SliderTickRate:1

[Events]
//Background and Video events
0,0,"samurai-artwork-1.jpg",0,0
//Break Periods
//Storyboard Layer 0 (Background)
//Storyboard Layer 1 (Fail)
//Storyboard Layer 2 (Pass)
//Storyboard Layer 3 (Foreground)
//Storyboard Sound Samples

[TimingPoints]
4020,500,4,1,0,30,1,0
70020,500,4,1,0,80,1,0
70394,-90.9090909090909,4,1,0,80,0,0
70644,-83.3333333333333,4,1,0,80,0,0
70894,-76.9230769230769,4,1,0,80,0,0
71144,-71.4285714285714,4,1,0,80,0,0
71394,-66.6666666666667,4,1,0,80,0,0
71644,-62.5,4,1,0,80,0,0
72019,285.714285714286,6,1,0,80,1,0
101161,285.714285714286,6,1,0,80,1,0
128518,-100,4,1,0,30,0,0
131375,-100,4,1,0,70,0,0
173161,-100,4,1,0,80,0,1
186875,-100,4,1,0,80,0,0
190303,-100,4,1,0,80,0,1
217732,-100,4,1,0,80,0,0
246803,-133.333333333333,4,1,0,30,0,0
258803,-111.111111111111,4,1,0,60,0,0
269375,-109.89010989011,4,1,0,62,0,0
269518,-108.695652173913,4,1,0,64,0,0
269661,-107.52688172043,4,1,0,66,0,0
269803,-106.382978723404,4,1,0,68,0,0
269946,-105.263157894737,4,1,0,70,0,0
270089,-104.166666666667,4,1,0,72,0,0
270232,-103.092783505155,4,1,0,74,0,0
270375,-102.040816326531,4,1,0,76,0,0
270518,-101.010101010101,4,1,0,78,0,0
270661,-100,4,1,0,80,0,0
270803,-100,4,1,0,80,0,0
289661,-100,4,1,0,10,0,0
305089,-133.333333333333,4,1,0,50,0,0
317946,-114.942528735632,4,1,0,65,0,0
318232,-107.52688172043,4,1,0,65,0,0
318803,-100,4,1,0,80,0,0
373732,-100,4,1,0,80,0,1
387446,-100,4,1,0,80,0,0
390875,-100,4,1,0,80,0,1
445732,-100,4,1,0,80,0,0

[Colours]
Combo1 : 143,143,143
Combo2 : 185,0,4
Combo3 : 217,217,0

[HitObjects]
360,264,70020,5,12,0:0:0:0:
160,128,70270,1,0,0:0:0:0:
160,128,70520,1,0,0:0:0:0:
160,128,70770,1,0,0:0:0:0:
160,128,71020,1,0,0:0:0:0:
432,320,71270,1,8,0:0:0:0:
160,112,71520,1,0,0:0:0:0:
448,296,71770,1,8,0:0:0:0:
136,268,72019,1,4,0:0:0:0:
416,320,72304,1,8,0:0:0:0:
180,140,72447,1,0,0:0:0:0:
180,140,72733,1,0,0:0:0:0:
380,296,72876,1,8,0:0:0:0:
152,92,73161,1,0,0:0:0:0:
344,272,73304,1,8,0:0:0:0:
140,116,73447,1,0,0:0:0:0:
392,292,73733,1,8,0:0:0:0:
392,292,73804,1,8,0:0:0:0:
120,125,73876,1,0,0:0:0:0:
140,116,74019,1,0,0:0:0:0:
140,116,74161,1,0,0:0:0:0:
388,286,74304,1,8,0:0:0:0:
140,116,74447,1,0,0:0:0:0:
396,276,74590,1,8,0:0:0:0:
108,104,74733,1,0,0:0:0:0:
165,108,74804,1,0,0:0:0:0:
148,93,74876,1,0,0:0:0:0:
365,265,75019,1,8,0:0:0:0:
128,67,75161,1,0,0:0:0:0:
365,264,75304,1,8,0:0:0:0:
104,290,75447,1,4,0:0:0:0:
113,94,75733,1,0,0:0:0:0:
117,97,75804,1,0,0:0:0:0:
405,310,75876,1,8,0:0:0:0:
111,89,76019,1,0,0:0:0:0:
111,89,76161,1,0,0:0:0:0:
385,294,76304,1,8,0:0:0:0:
81,117,76590,1,0,0:0:0:0:
412,325,76733,1,8,0:0:0:0:
160,167,76876,1,0,0:0:0:0:
395,288,77161,1,8,0:0:0:0:
410,291,77233,1,8,0:0:0:0:
160,167,77304,1,0,0:0:0:0:
159,133,77447,1,0,0:0:0:0:
406,298,77590,1,8,0:0:0:0:
144,141,77733,1,0,0:0:0:0:
131,144,77876,1,0,0:0:0:0:
375,304,78019,1,8,0:0:0:0:
130,133,78161,1,0,0:0:0:0:
351,297,78304,1,8,0:0:0:0:
370,310,78376,1,8,0:0:0:0:
351,297,78447,1,8,0:0:0:0:
351,297,78590,1,8,0:0:0:0:
351,297,78733,1,8,0:0:0:0:
304,281,78876,1,4,0:0:0:0:
140,128,79161,1,0,0:0:0:0:
344,289,79304,1,8,0:0:0:0:
182,136,79447,1,0,0:0:0:0:
182,136,79590,1,0,0:0:0:0:
335,281,79733,1,8,0:0:0:0:
113,96,80019,1,0,0:0:0:0:
359,286,80161,1,8,0:0:0:0:
139,105,80304,1,0,0:0:0:0:
130,96,80447,1,0,0:0:0:0:
454,333,80590,1,8,0:0:0:0:
421,308,80661,1,8,0:0:0:0:
86,46,80733,1,0,0:0:0:0:
392,284,80876,1,8,0:0:0:0:
155,101,81019,1,0,0:0:0:0:
155,97,81161,1,0,0:0:0:0:
437,268,81304,1,8,0:0:0:0:
373,265,81376,1,8,0:0:0:0:
398,236,81447,1,8,0:0:0:0:
190,136,81590,1,0,0:0:0:0:
182,134,81733,1,0,0:0:0:0:
429,247,81876,1,8,0:0:0:0:
426,267,82019,1,8,0:0:0:0:
426,267,82161,1,8,0:0:0:0:
158,91,82304,1,0,0:0:0:0:
164,103,82590,1,0,0:0:0:0:
436,263,82733,1,8,0:0:0:0:
436,263,82876,1,8,0:0:0:0:
187,83,83019,1,0,0:0:0:0:
447,304,83161,1,8,0:0:0:0:
114,97,83447,1,0,0:0:0:0:
397,274,83590,1,8,0:0:0:0:
105,105,83733,1,0,0:0:0:0:
105,105,83876,1,0,0:0:0:0:
413,283,84019,1,8,0:0:0:0:
413,283,84090,1,8,0:0:0:0:
413,283,84161,1,8,0:0:0:0:
413,283,84304,1,8,0:0:0:0:
433,294,84447,1,8,0:0:0:0:
82,110,84590,1,0,0:0:0:0:
433,294,84733,1,8,0:0:0:0:
154,134,84876,1,0,0:0:0:0:
154,134,84947,1,0,0:0:0:0:
128,117,85019,1,0,0:0:0:0:
154,134,85161,1,0,0:0:0:0:
140,120,85304,1,0,0:0:0:0:
140,120,85447,1,0,0:0:0:0:
389,326,85590,1,8,0:0:0:0:
136,268,85733,5,4,0:0:0:0:
144,120,85876,1,0,0:0:0:0:
180,140,86019,1,0,0:0:0:0:
416,320,86161,1,8,0:0:0:0:
336,264,86233,1,8,0:0:0:0:
140,120,86304,1,0,0:0:0:0:
180,140,86447,1,0,0:0:0:0:
380,296,86590,1,8,0:0:0:0:
144,120,86733,1,0,0:0:0:0:
132,104,86804,1,0,0:0:0:0:
152,92,86876,1,0,0:0:0:0:
344,272,87019,1,8,0:0:0:0:
140,116,87161,1,0,0:0:0:0:
140,120,87304,1,0,0:0:0:0:
392,292,87447,1,8,0:0:0:0:
392,292,87519,1,8,0:0:0:0:
120,125,87590,1,0,0:0:0:0:
140,116,87733,1,0,0:0:0:0:
140,116,87876,1,0,0:0:0:0:
388,286,88019,1,8,0:0:0:0:
140,116,88161,1,0,0:0:0:0:
396,276,88304,1,8,0:0:0:0:
108,104,88447,1,0,0:0:0:0:
165,108,88519,1,0,0:0:0:0:
148,93,88590,1,0,0:0:0:0:
365,265,88733,1,8,0:0:0:0:
128,67,88876,1,0,0:0:0:0:
365,264,89019,1,8,0:0:0:0:
104,290,89161,1,4,0:0:0:0:
144,84,89304,1,0,0:0:0:0:
113,94,89447,1,0,0:0:0:0:
117,97,89519,1,0,0:0:0:0:
405,310,89590,1,8,0:0:0:0:
111,89,89733,1,0,0:0:0:0:
111,89,89876,1,0,0:0:0:0:
385,294,90019,1,8,0:0:0:0:
152,80,90161,1,0,0:0:0:0:
81,117,90304,1,0,0:0:0:0:
412,325,90447,1,8,0:0:0:0:
364,232,90519,1,8,0:0:0:0:
160,167,90590,1,0,0:0:0:0:
160,92,90733,1,0,0:0:0:0:
395,288,90876,1,8,0:0:0:0:
410,291,90947,1,8,0:0:0:0:
160,167,91019,1,0,0:0:0:0:
159,133,91161,1,0,0:0:0:0:
406,298,91304,1,8,0:0:0:0:
144,141,91447,1,0,0:0:0:0:
131,144,91590,1,0,0:0:0:0:
160,92,91661,1,0,0:0:0:0:
375,304,91733,1,8,0:0:0:0:
368,276,91804,1,8,0:0:0:0:
130,133,91876,1,0,0:0:0:0:
351,297,92019,1,8,0:0:0:0:
370,310,92090,1,8,0:0:0:0:
351,297,92161,1,8,0:0:0:0:
351,297,92304,1,8,0:0:0:0:
351,297,92447,1,8,0:0:0:0:
304,281,92590,5,4,0:0:0:0:
96,96,92733,1,0,0:0:0:0:
152,136,92804,1,0,0:0:0:0:
140,128,92876,1,0,0:0:0:0:
152,136,92947,1,0,0:0:0:0:
344,289,93019,1,8,0:0:0:0:
182,136,93161,1,0,0:0:0:0:
182,136,93304,1,0,0:0:0:0:
335,281,93447,1,8,0:0:0:0:
384,284,93590,1,8,0:0:0:0:
113,96,93733,1,0,0:0:0:0:
184,120,93804,1,0,0:0:0:0:
359,286,93876,1,8,0:0:0:0:
352,288,93947,1,8,0:0:0:0:
139,105,94019,1,0,0:0:0:0:
130,96,94161,1,0,0:0:0:0:
454,333,94304,1,8,0:0:0:0:
421,308,94376,1,8,0:0:0:0:
86,46,94447,1,0,0:0:0:0:
172,96,94519,1,0,0:0:0:0:
392,284,94590,1,8,0:0:0:0:
155,101,94733,1,0,0:0:0:0:
155,97,94876,1,0,0:0:0:0:
437,268,95019,1,8,0:0:0:0:
398,236,95161,1,8,0:0:0:0:
404,264,95233,1,8,0:0:0:0:
190,136,95304,1,0,0:0:0:0:
182,134,95447,1,0,0:0:0:0:
429,247,95590,1,8,0:0:0:0:
426,267,95733,1,8,0:0:0:0:
152,104,95804,1,0,0:0:0:0:
426,267,95876,1,8,0:0:0:0:
423,73,96019,1,12,0:0:0:0:
164,103,96304,1,0,0:0:0:0:
436,263,96447,1,8,0:0:0:0:
436,263,96590,1,8,0:0:0:0:
187,83,96733,1,0,0:0:0:0:
447,304,96876,1,8,0:0:0:0:
114,97,97161,1,0,0:0:0:0:
397,274,97304,1,8,0:0:0:0:
105,105,97447,1,0,0:0:0:0:
105,105,97590,1,0,0:0:0:0:
413,283,97733,1,8,0:0:0:0:
413,283,97804,1,8,0:0:0:0:
168,140,97876,1,0,0:0:0:0:
97,131,98019,1,0,0:0:0:0:
433,294,98161,1,8,0:0:0:0:
82,110,98304,1,0,0:0:0:0:
154,134,98447,1,0,0:0:0:0:
145,129,98519,1,0,0:0:0:0:
433,294,98590,1,8,0:0:0:0:
128,117,98733,1,0,0:0:0:0:
440,302,98876,1,8,0:0:0:0:
431,309,99019,1,8,0:0:0:0:
481,321,99090,1,8,0:0:0:0:
407,267,99161,1,8,0:0:0:0:
389,326,99304,1,8,0:0:0:0:
110,262,99447,1,4,0:0:0:0:
402,281,99733,1,8,0:0:0:0:
402,281,99876,1,8,0:0:0:0:
146,105,100019,1,0,0:0:0:0:
146,105,100161,1,0,0:0:0:0:
146,105,100304,1,0,0:0:0:0:
146,105,100376,1,0,0:0:0:0:
313,210,100447,1,8,0:0:0:0:
387,283,100519,1,8,0:0:0:0:
109,87,100590,1,0,0:0:0:0:
130,107,100733,1,0,0:0:0:0:
156,112,100876,1,0,0:0:0:0:
146,105,101019,1,0,0:0:0:0:
382,269,101161,5,12,0:0:0:0:
142,107,101446,1,0,0:0:0:0:
439,291,101589,1,8,0:0:0:0:
130,121,101732,1,0,0:0:0:0:
130,121,101875,1,0,0:0:0:0:
447,292,102018,1,8,0:0:0:0:
167,131,102161,1,0,0:0:0:0:
116,104,102232,1,0,0:0:0:0:
167,131,102303,1,0,0:0:0:0:
167,131,102446,1,0,0:0:0:0:
422,287,102589,1,8,0:0:0:0:
158,119,102732,1,0,0:0:0:0:
158,119,102875,1,0,0:0:0:0:
158,117,103018,1,0,0:0:0:0:
375,219,103161,1,8,0:0:0:0:
174,147,103303,1,0,0:0:0:0:
103,95,103375,1,0,0:0:0:0:
408,292,103446,1,8,0:0:0:0:
196,107,103589,1,0,0:0:0:0:
411,274,103732,1,8,0:0:0:0:
118,79,103875,1,0,0:0:0:0:
118,79,104018,1,0,0:0:0:0:
150,114,104089,1,0,0:0:0:0:
444,252,104161,1,8,0:0:0:0:
118,79,104303,1,0,0:0:0:0:
118,79,104446,1,0,0:0:0:0:
397,90,104589,1,12,0:0:0:0:
147,103,104875,1,0,0:0:0:0:
147,103,105018,1,0,0:0:0:0:
389,251,105161,1,8,0:0:0:0:
160,91,105303,1,0,0:0:0:0:
427,274,105446,1,8,0:0:0:0:
159,105,105589,1,0,0:0:0:0:
159,105,105661,1,0,0:0:0:0:
159,105,105732,1,0,0:0:0:0:
159,105,105875,1,0,0:0:0:0:
393,263,106018,1,8,0:0:0:0:
393,263,106161,1,8,0:0:0:0:
190,80,106303,1,0,0:0:0:0:
170,152,106446,1,0,0:0:0:0:
388,271,106589,1,8,0:0:0:0:
393,263,106732,1,8,0:0:0:0:
462,315,106803,1,8,0:0:0:0:
180,105,106875,1,0,0:0:0:0:
180,105,107018,1,0,0:0:0:0:
427,274,107161,1,8,0:0:0:0:
146,92,107303,1,0,0:0:0:0:
146,92,107375,1,0,0:0:0:0:
146,92,107446,1,0,0:0:0:0:
406,262,107589,1,8,0:0:0:0:
402,260,107732,1,8,0:0:0:0:
402,260,107803,1,8,0:0:0:0:
110,78,107875,1,0,0:0:0:0:
399,81,108018,1,12,0:0:0:0:
397,295,108303,1,8,0:0:0:0:
127,96,108446,1,0,0:0:0:0:
444,294,108589,1,8,0:0:0:0:
136,110,108732,1,0,0:0:0:0:
460,332,108875,1,8,0:0:0:0:
122,113,109018,1,0,0:0:0:0:
121,112,109089,1,0,0:0:0:0:
121,112,109161,1,0,0:0:0:0:
121,112,109303,1,0,0:0:0:0:
398,322,109446,1,8,0:0:0:0:
398,322,109589,1,8,0:0:0:0:
131,101,109732,1,0,0:0:0:0:
186,148,109875,1,0,0:0:0:0:
114,76,109946,1,0,0:0:0:0:
382,247,110018,1,8,0:0:0:0:
382,247,110161,1,8,0:0:0:0:
353,261,110303,1,8,0:0:0:0:
92,107,110446,1,0,0:0:0:0:
382,247,110589,1,8,0:0:0:0:
97,55,110732,1,0,0:0:0:0:
97,55,110803,1,0,0:0:0:0:
361,252,110875,1,8,0:0:0:0:
404,310,110946,1,8,0:0:0:0:
164,136,111018,1,0,0:0:0:0:
424,300,111161,1,8,0:0:0:0:
395,273,111303,1,8,0:0:0:0:
86,99,111446,1,0,0:0:0:0:
129,88,111589,1,0,0:0:0:0:
129,88,111732,1,0,0:0:0:0:
387,272,111875,1,8,0:0:0:0:
371,265,112018,1,8,0:0:0:0:
107,81,112161,1,0,0:0:0:0:
387,272,112303,1,8,0:0:0:0:
107,81,112446,1,0,0:0:0:0:
107,81,112518,1,0,0:0:0:0:
107,81,112589,1,0,0:0:0:0:
387,272,112732,1,8,0:0:0:0:
387,272,112875,1,8,0:0:0:0:
147,103,113018,1,0,0:0:0:0:
387,272,113161,1,8,0:0:0:0:
156,96,113232,1,0,0:0:0:0:
347,240,113303,1,8,0:0:0:0:
347,240,113375,1,8,0:0:0:0:
163,105,113446,1,0,0:0:0:0:
378,276,113589,1,8,0:0:0:0:
113,102,113732,1,0,0:0:0:0:
113,102,113875,1,0,0:0:0:0:
406,320,114018,1,8,0:0:0:0:
145,128,114161,1,0,0:0:0:0:
145,128,114232,1,0,0:0:0:0:
145,128,114303,1,0,0:0:0:0:
334,283,114446,1,8,0:0:0:0:
158,112,114589,1,0,0:0:0:0:
158,112,114732,1,0,0:0:0:0:
382,269,114875,5,12,0:0:0:0:
142,107,115161,1,0,0:0:0:0:
439,291,115303,1,8,0:0:0:0:
130,121,115446,1,0,0:0:0:0:
130,121,115589,1,0,0:0:0:0:
447,292,115732,1,8,0:0:0:0:
167,131,115875,1,0,0:0:0:0:
116,104,115946,1,0,0:0:0:0:
167,131,116018,1,0,0:0:0:0:
167,131,116161,1,0,0:0:0:0:
422,287,116303,1,8,0:0:0:0:
158,119,116446,1,0,0:0:0:0:
158,119,116589,1,0,0:0:0:0:
158,117,116732,1,0,0:0:0:0:
375,219,116875,1,8,0:0:0:0:
174,147,117018,1,0,0:0:0:0:
103,95,117089,1,0,0:0:0:0:
408,292,117161,1,8,0:0:0:0:
196,107,117303,1,0,0:0:0:0:
411,274,117446,1,8,0:0:0:0:
118,79,117589,1,0,0:0:0:0:
118,79,117732,1,0,0:0:0:0:
150,114,117803,1,0,0:0:0:0:
444,252,117875,1,8,0:0:0:0:
118,79,118018,1,0,0:0:0:0:
118,79,118161,1,0,0:0:0:0:
397,90,118303,1,12,0:0:0:0:
147,103,118589,1,0,0:0:0:0:
147,103,118732,1,0,0:0:0:0:
389,251,118875,1,8,0:0:0:0:
160,91,119018,1,0,0:0:0:0:
427,274,119161,1,8,0:0:0:0:
159,105,119303,1,0,0:0:0:0:
159,105,119375,1,0,0:0:0:0:
159,105,119446,1,0,0:0:0:0:
159,105,119589,1,0,0:0:0:0:
393,263,119732,1,8,0:0:0:0:
393,263,119875,1,8,0:0:0:0:
190,80,120018,1,0,0:0:0:0:
170,152,120161,1,0,0:0:0:0:
388,271,120303,1,8,0:0:0:0:
393,263,120446,1,8,0:0:0:0:
462,315,120518,1,8,0:0:0:0:
180,105,120589,1,0,0:0:0:0:
180,105,120732,1,0,0:0:0:0:
427,274,120875,1,8,0:0:0:0:
146,92,121018,1,0,0:0:0:0:
146,92,121089,1,0,0:0:0:0:
146,92,121161,1,0,0:0:0:0:
406,262,121303,1,8,0:0:0:0:
402,260,121446,1,8,0:0:0:0:
402,260,121518,1,8,0:0:0:0:
110,78,121589,1,0,0:0:0:0:
399,81,121732,1,12,0:0:0:0:
397,295,122018,1,8,0:0:0:0:
127,96,122161,1,0,0:0:0:0:
444,294,122303,1,8,0:0:0:0:
136,110,122446,1,0,0:0:0:0:
460,332,122589,1,8,0:0:0:0:
122,113,122732,1,0,0:0:0:0:
121,112,122803,1,0,0:0:0:0:
121,112,122875,1,0,0:0:0:0:
121,112,123018,1,0,0:0:0:0:
398,322,123161,1,8,0:0:0:0:
398,322,123303,1,8,0:0:0:0:
131,101,123446,1,0,0:0:0:0:
186,148,123589,1,0,0:0:0:0:
114,76,123661,1,0,0:0:0:0:
382,247,123732,1,8,0:0:0:0:
382,247,123875,1,8,0:0:0:0:
353,261,124018,1,8,0:0:0:0:
92,107,124161,1,0,0:0:0:0:
382,247,124303,1,8,0:0:0:0:
97,55,124446,1,0,0:0:0:0:
97,55,124518,1,0,0:0:0:0:
361,252,124589,1,8,0:0:0:0:
404,310,124661,1,8,0:0:0:0:
164,136,124732,1,0,0:0:0:0:
424,300,124875,1,8,0:0:0:0:
395,273,125018,1,8,0:0:0:0:
86,99,125161,1,0,0:0:0:0:
129,88,125303,1,0,0:0:0:0:
129,88,125446,1,0,0:0:0:0:
387,272,125589,1,8,0:0:0:0:
371,265,125732,1,8,0:0:0:0:
107,81,125875,1,0,0:0:0:0:
387,272,126018,1,8,0:0:0:0:
107,81,126161,1,0,0:0:0:0:
107,81,126232,1,0,0:0:0:0:
107,81,126303,1,0,0:0:0:0:
387,272,126446,1,8,0:0:0:0:
387,272,126589,1,8,0:0:0:0:
147,103,126732,1,0,0:0:0:0:
387,272,126875,1,8,0:0:0:0:
156,96,126946,1,0,0:0:0:0:
347,240,127018,1,8,0:0:0:0:
347,240,127089,1,8,0:0:0:0:
163,105,127161,1,0,0:0:0:0:
378,276,127303,1,8,0:0:0:0:
113,102,127446,1,0,0:0:0:0:
113,102,127589,1,0,0:0:0:0:
406,320,127732,1,8,0:0:0:0:
145,128,127875,1,0,0:0:0:0:
145,128,127946,1,0,0:0:0:0:
145,128,128018,1,0,0:0:0:0:
334,283,128161,1,8,0:0:0:0:
158,112,128303,1,0,0:0:0:0:
158,112,128446,1,0,0:0:0:0:
256,192,128589,12,0,131303,0:0:0:0:
364,294,131446,5,8,0:0:0:0:
320,28,131732,1,0,0:0:0:0:
114,268,132018,5,4,1:0:0:0:
96,108,132303,1,0,0:0:0:0:
340,304,132446,1,8,0:0:0:0:
96,108,132589,1,0,0:0:0:0:
96,108,132732,1,0,0:0:0:0:
408,248,132875,1,8,0:0:0:0:
408,248,133018,1,8,0:0:0:0:
88,76,133161,1,0,0:0:0:0:
88,76,133303,1,0,0:0:0:0:
88,76,133446,1,0,0:0:0:0:
380,264,133589,1,8,0:0:0:0:
88,76,133732,1,0,0:0:0:0:
88,76,133803,1,0,0:0:0:0:
80,72,133875,1,0,0:0:0:0:
88,76,133946,1,0,0:0:0:0:
368,280,134018,1,8,0:0:0:0:
368,280,134089,1,8,0:0:0:0:
372,264,134161,1,8,0:0:0:0:
372,264,134232,1,8,0:0:0:0:
8,0,134303,1,0,0:0:0:0:
8,0,134375,1,0,0:0:0:0:
80,72,134446,1,0,0:0:0:0:
80,72,134518,1,0,0:0:0:0:
404,260,134589,1,8,0:0:0:0:
404,288,134661,1,8,0:0:0:0:
420,260,134732,1,8,0:0:0:0:
464,284,134803,1,8,0:0:0:0:
80,68,134875,1,0,0:0:0:0:
80,68,134946,1,0,0:0:0:0:
148,96,135018,1,0,0:0:0:0:
148,96,135089,1,0,0:0:0:0:
420,260,135161,1,8,0:0:0:0:
420,260,135232,1,8,0:0:0:0:
416,260,135303,1,8,0:0:0:0:
416,260,135375,1,8,0:0:0:0:
168,84,135446,1,0,0:0:0:0:
148,64,135732,1,0,0:0:0:0:
148,64,136018,1,0,0:0:0:0:
152,64,136161,1,0,0:0:0:0:
440,288,136303,1,8,0:0:0:0:
44,48,136446,1,0,0:0:0:0:
408,280,136589,1,8,0:0:0:0:
392,300,136732,1,8,0:0:0:0:
144,120,136875,1,0,0:0:0:0:
456,316,137018,1,8,0:0:0:0:
144,120,137161,1,0,0:0:0:0:
144,120,137232,1,0,0:0:0:0:
144,120,137303,1,0,0:0:0:0:
388,264,137446,1,8,0:0:0:0:
172,140,137589,1,0,0:0:0:0:
208,96,137661,1,0,0:0:0:0:
452,284,137732,1,8,0:0:0:0:
212,136,137875,1,0,0:0:0:0:
408,248,138018,1,8,0:0:0:0:
160,112,138089,1,0,0:0:0:0:
412,280,138161,1,8,0:0:0:0:
416,276,138232,1,8,0:0:0:0:
120,68,138303,1,0,0:0:0:0:
120,68,138375,1,0,0:0:0:0:
376,244,138446,1,8,0:0:0:0:
152,112,138518,1,0,0:0:0:0:
412,276,138589,1,8,0:0:0:0:
412,276,138661,1,8,0:0:0:0:
52,108,138732,1,0,0:0:0:0:
416,312,138803,1,8,0:0:0:0:
114,268,138875,5,0,1:0:0:0:
128,128,139161,1,0,0:0:0:0:
340,304,139303,1,8,0:0:0:0:
96,108,139446,1,0,0:0:0:0:
96,108,139589,1,0,0:0:0:0:
408,248,139732,1,8,0:0:0:0:
408,248,139875,1,8,0:0:0:0:
88,76,140018,1,0,0:0:0:0:
88,76,140161,1,0,0:0:0:0:
88,76,140303,1,0,0:0:0:0:
380,264,140446,1,8,0:0:0:0:
88,76,140589,1,0,0:0:0:0:
88,76,140661,1,0,0:0:0:0:
80,72,140732,1,0,0:0:0:0:
88,76,140803,1,0,0:0:0:0:
368,280,140875,1,8,0:0:0:0:
368,280,140946,1,8,0:0:0:0:
372,264,141018,1,8,0:0:0:0:
372,264,141089,1,8,0:0:0:0:
8,0,141161,1,0,0:0:0:0:
8,0,141232,1,0,0:0:0:0:
80,72,141303,1,0,0:0:0:0:
80,72,141375,1,0,0:0:0:0:
404,260,141446,1,8,0:0:0:0:
404,288,141518,1,8,0:0:0:0:
420,260,141589,1,8,0:0:0:0:
464,284,141661,1,8,0:0:0:0:
80,68,141732,1,0,0:0:0:0:
80,68,141803,1,0,0:0:0:0:
148,96,141875,1,0,0:0:0:0:
148,96,141946,1,0,0:0:0:0:
420,260,142018,1,8,0:0:0:0:
420,260,142089,1,8,0:0:0:0:
416,260,142161,1,8,0:0:0:0:
416,260,142232,1,8,0:0:0:0:
168,84,142303,5,0,0:0:0:0:
148,64,142589,1,0,0:0:0:0:
148,64,142875,1,0,0:0:0:0:
152,64,143018,1,0,0:0:0:0:
440,288,143161,1,8,0:0:0:0:
408,296,143303,1,8,0:0:0:0:
408,280,143446,1,8,0:0:0:0:
392,300,143589,1,8,0:0:0:0:
144,120,143732,1,0,0:0:0:0:
456,316,143875,1,8,0:0:0:0:
144,120,144018,1,0,0:0:0:0:
144,120,144089,1,0,0:0:0:0:
144,120,144161,1,0,0:0:0:0:
388,264,144303,1,8,0:0:0:0:
172,140,144446,1,0,0:0:0:0:
208,96,144518,1,0,0:0:0:0:
452,284,144589,1,8,0:0:0:0:
212,136,144732,1,0,0:0:0:0:
408,248,144875,1,8,0:0:0:0:
160,112,144946,1,0,0:0:0:0:
412,280,145018,1,8,0:0:0:0:
416,276,145089,1,8,0:0:0:0:
120,68,145161,1,0,0:0:0:0:
120,68,145232,1,0,0:0:0:0:
376,244,145303,1,8,0:0:0:0:
152,112,145375,1,0,0:0:0:0:
412,276,145446,1,8,0:0:0:0:
412,276,145518,1,8,0:0:0:0:
392,280,145589,1,8,0:0:0:0:
160,88,145661,1,0,0:0:0:0:
412,304,145732,1,8,0:0:0:0:
128,128,146018,1,0,0:0:0:0:
340,304,146161,1,8,0:0:0:0:
96,108,146303,1,0,0:0:0:0:
96,108,146446,1,0,0:0:0:0:
408,248,146589,1,8,0:0:0:0:
408,248,146732,1,8,0:0:0:0:
88,76,146875,1,0,0:0:0:0:
88,76,147018,1,0,0:0:0:0:
88,76,147161,1,0,0:0:0:0:
380,264,147303,1,8,0:0:0:0:
88,76,147446,1,0,0:0:0:0:
88,76,147518,1,0,0:0:0:0:
80,72,147589,1,0,0:0:0:0:
88,76,147661,1,0,0:0:0:0:
368,280,147732,1,8,0:0:0:0:
368,280,147803,1,8,0:0:0:0:
372,264,147875,1,8,0:0:0:0:
372,264,147946,1,8,0:0:0:0:
8,0,148018,1,0,0:0:0:0:
8,0,148089,1,0,0:0:0:0:
80,72,148161,1,0,0:0:0:0:
80,72,148232,1,0,0:0:0:0:
404,260,148303,1,8,0:0:0:0:
404,288,148375,1,8,0:0:0:0:
420,260,148446,1,8,0:0:0:0:
464,284,148518,1,8,0:0:0:0:
80,68,148589,1,0,0:0:0:0:
80,68,148661,1,0,0:0:0:0:
148,96,148732,1,0,0:0:0:0:
148,96,148803,1,0,0:0:0:0:
420,260,148875,1,8,0:0:0:0:
420,260,148946,1,8,0:0:0:0:
416,260,149018,1,8,0:0:0:0:
416,260,149089,1,8,0:0:0:0:
168,84,149161,5,0,0:0:0:0:
148,64,149446,1,0,0:0:0:0:
148,64,149732,1,0,0:0:0:0:
152,64,149875,1,0,0:0:0:0:
440,288,150018,1,8,0:0:0:0:
408,296,150161,1,8,0:0:0:0:
96,64,150303,1,0,0:0:0:0:
392,300,150446,1,8,0:0:0:0:
144,120,150589,1,0,0:0:0:0:
456,316,150732,1,8,0:0:0:0:
144,120,150875,1,0,0:0:0:0:
144,120,150946,1,0,0:0:0:0:
144,120,151018,1,0,0:0:0:0:
388,264,151161,1,8,0:0:0:0:
444,356,151303,1,8,0:0:0:0:
160,96,151375,1,0,0:0:0:0:
452,284,151446,1,8,0:0:0:0:
212,136,151589,1,0,0:0:0:0:
408,248,151732,1,8,0:0:0:0:
160,112,151803,1,0,0:0:0:0:
412,280,151875,1,8,0:0:0:0:
416,276,151946,1,8,0:0:0:0:
120,68,152018,1,0,0:0:0:0:
384,252,152089,1,8,0:0:0:0:
152,112,152161,1,0,0:0:0:0:
104,168,152232,1,0,0:0:0:0:
412,276,152303,1,8,0:0:0:0:
412,276,152375,1,8,0:0:0:0:
392,280,152446,1,8,0:0:0:0:
160,88,152518,1,0,0:0:0:0:
412,304,152589,1,8,0:0:0:0:
128,128,152875,1,0,0:0:0:0:
340,304,153018,1,8,0:0:0:0:
96,108,153161,1,0,0:0:0:0:
96,108,153303,1,0,0:0:0:0:
408,248,153446,1,8,0:0:0:0:
408,248,153589,1,8,0:0:0:0:
88,76,153732,1,0,0:0:0:0:
88,76,153875,1,0,0:0:0:0:
88,76,154018,1,0,0:0:0:0:
380,264,154161,1,8,0:0:0:0:
88,76,154303,1,0,0:0:0:0:
88,76,154375,1,0,0:0:0:0:
80,72,154446,1,0,0:0:0:0:
88,76,154518,1,0,0:0:0:0:
368,280,154589,1,8,0:0:0:0:
368,280,154661,1,8,0:0:0:0:
372,264,154732,1,8,0:0:0:0:
372,264,154803,1,8,0:0:0:0:
8,0,154875,1,0,0:0:0:0:
8,0,154946,1,0,0:0:0:0:
80,72,155018,1,0,0:0:0:0:
80,72,155089,1,0,0:0:0:0:
404,260,155161,1,8,0:0:0:0:
404,288,155232,1,8,0:0:0:0:
420,260,155303,1,8,0:0:0:0:
464,284,155375,1,8,0:0:0:0:
80,68,155446,1,0,0:0:0:0:
80,68,155518,1,0,0:0:0:0:
148,96,155589,1,0,0:0:0:0:
148,96,155661,1,0,0:0:0:0:
420,260,155732,1,8,0:0:0:0:
420,260,155803,1,8,0:0:0:0:
416,260,155875,1,8,0:0:0:0:
416,260,155946,1,8,0:0:0:0:
168,84,156018,5,0,0:0:0:0:
136,92,156303,1,0,0:0:0:0:
136,92,156446,1,0,0:0:0:0:
400,292,156589,1,8,0:0:0:0:
80,72,156732,1,0,0:0:0:0:
368,252,156875,1,8,0:0:0:0:
376,256,157018,1,8,0:0:0:0:
400,292,157161,1,8,0:0:0:0:
440,324,157303,1,8,0:0:0:0:
160,100,157446,1,0,0:0:0:0:
376,296,157589,1,8,0:0:0:0:
376,296,157661,1,8,0:0:0:0:
120,32,157732,1,0,0:0:0:0:
400,292,157875,1,8,0:0:0:0:
424,304,157922,1,8,0:0:0:0:
436,284,157970,1,8,0:0:0:0:
144,80,158018,1,0,0:0:0:0:
144,80,158089,1,0,0:0:0:0:
412,296,158161,1,8,0:0:0:0:
148,116,158303,1,0,0:0:0:0:
168,156,158446,1,0,0:0:0:0:
168,156,158518,1,0,0:0:0:0:
408,316,158589,1,8,0:0:0:0:
144,96,158661,1,0,0:0:0:0:
360,252,158732,1,8,0:0:0:0:
440,328,158803,1,8,0:0:0:0:
144,88,158875,1,0,0:0:0:0:
128,64,159018,5,0,0:0:0:0:
508,344,159161,1,8,0:0:0:0:
456,284,159303,1,8,0:0:0:0:
132,248,159446,5,4,0:0:0:0:
136,112,159732,1,0,0:0:0:0:
308,240,159875,1,8,0:0:0:0:
96,80,160018,1,0,0:0:0:0:
104,88,160161,1,0,0:0:0:0:
400,316,160303,1,8,0:0:0:0:
380,304,160589,1,8,0:0:0:0:
100,88,160661,1,0,0:0:0:0:
340,304,160732,1,8,0:0:0:0:
340,304,160803,1,8,0:0:0:0:
104,120,160875,1,0,0:0:0:0:
124,280,161161,1,4,0:0:0:0:
128,116,161446,1,0,0:0:0:0:
128,116,161589,1,0,0:0:0:0:
152,108,161875,1,0,0:0:0:0:
356,256,162018,1,8,0:0:0:0:
148,144,162303,1,0,0:0:0:0:
148,144,162446,1,0,0:0:0:0:
408,376,162589,1,8,0:0:0:0:
400,320,162732,1,8,0:0:0:0:
128,124,162875,1,0,0:0:0:0:
96,124,163161,1,0,0:0:0:0:
352,280,163303,1,8,0:0:0:0:
108,136,163589,1,0,0:0:0:0:
108,136,163732,1,0,0:0:0:0:
100,100,164018,1,0,0:0:0:0:
152,144,164089,1,0,0:0:0:0:
364,276,164161,1,8,0:0:0:0:
364,276,164232,1,8,0:0:0:0:
108,108,164303,1,0,0:0:0:0:
376,124,164589,1,12,0:0:0:0:
152,124,164875,1,0,0:0:0:0:
152,124,165018,1,0,0:0:0:0:
152,124,165303,1,0,0:0:0:0:
112,60,165446,1,0,0:0:0:0:
384,312,165589,1,8,0:0:0:0:
144,124,165732,1,4,0:0:0:0:
148,128,166018,1,0,0:0:0:0:
332,296,166161,1,8,0:0:0:0:
348,80,166303,1,12,0:0:0:0:
132,112,166589,1,0,0:0:0:0:
400,252,166732,1,8,0:0:0:0:
128,120,166875,1,0,0:0:0:0:
128,120,167018,1,0,0:0:0:0:
420,280,167161,1,8,0:0:0:0:
388,264,167446,1,8,0:0:0:0:
96,80,167732,1,0,0:0:0:0:
448,116,168018,1,4,0:0:0:0:
164,112,168303,1,0,0:0:0:0:
164,112,168446,1,0,0:0:0:0:
164,112,168732,1,0,0:0:0:0:
408,264,168875,1,8,0:0:0:0:
136,124,169161,1,0,0:0:0:0:
136,124,169303,1,0,0:0:0:0:
384,264,169446,1,8,0:0:0:0:
384,260,169589,1,8,0:0:0:0:
424,116,169732,1,4,0:0:0:0:
128,104,170018,1,0,0:0:0:0:
456,304,170161,1,8,0:0:0:0:
148,120,170446,1,0,0:0:0:0:
164,124,170589,1,0,0:0:0:0:
420,292,170875,1,8,0:0:0:0:
420,292,170946,1,8,0:0:0:0:
420,292,171018,1,8,0:0:0:0:
420,292,171089,1,8,0:0:0:0:
112,92,171161,1,0,0:0:0:0:
388,128,171446,1,4,0:0:0:0:
388,128,171732,1,0,0:0:0:0:
416,144,171875,1,8,0:0:0:0:
168,116,172018,1,0,0:0:0:0:
168,116,172161,1,0,0:0:0:0:
448,192,172303,1,8,0:0:0:0:
395,270,172589,5,8,0:0:0:0:
395,270,172661,1,8,0:0:0:0:
142,96,172732,1,0,0:0:0:0:
142,96,172803,1,0,0:0:0:0:
422,298,172875,1,8,0:0:0:0:
86,73,172946,1,0,0:0:0:0:
86,73,173018,1,0,0:0:0:0:
86,73,173089,1,0,0:0:0:0:
404,268,173161,1,8,0:0:0:0:
151,125,173232,1,0,0:0:0:0:
151,125,173303,1,0,0:0:0:0:
151,125,173375,1,0,0:0:0:0:
384,286,173446,1,8,0:0:0:0:
384,286,173518,1,8,0:0:0:0:
151,125,173589,1,0,0:0:0:0:
151,125,173661,1,0,0:0:0:0:
384,286,173732,1,8,0:0:0:0:
151,125,173803,1,0,0:0:0:0:
151,125,173875,1,0,0:0:0:0:
151,125,173946,1,0,0:0:0:0:
387,247,174018,1,8,0:0:0:0:
151,125,174089,1,0,0:0:0:0:
212,120,174161,1,0,0:0:0:0:
212,120,174232,1,0,0:0:0:0:
372,272,174303,1,8,0:0:0:0:
372,272,174375,1,8,0:0:0:0:
151,125,174446,1,0,0:0:0:0:
151,125,174518,1,0,0:0:0:0:
474,290,174589,1,8,0:0:0:0:
151,125,174661,1,0,0:0:0:0:
151,125,174732,1,0,0:0:0:0:
151,125,174803,1,0,0:0:0:0:
444,308,174875,1,8,0:0:0:0:
464,345,174946,1,8,0:0:0:0:
151,125,175018,1,0,0:0:0:0:
151,125,175089,1,0,0:0:0:0:
224,156,175161,1,0,0:0:0:0:
151,125,175232,1,0,0:0:0:0:
151,125,175303,1,0,0:0:0:0:
151,125,175375,1,0,0:0:0:0:
439,309,175446,1,8,0:0:0:0:
439,309,175518,1,8,0:0:0:0:
151,125,175589,1,0,0:0:0:0:
151,125,175661,1,0,0:0:0:0:
387,247,175732,1,8,0:0:0:0:
151,125,175803,1,0,0:0:0:0:
160,144,175875,1,0,0:0:0:0:
160,144,175946,1,0,0:0:0:0:
97,120,176018,1,0,0:0:0:0:
151,125,176089,1,0,0:0:0:0:
151,125,176161,1,0,0:0:0:0:
151,125,176232,1,0,0:0:0:0:
409,273,176303,1,8,0:0:0:0:
164,130,176375,1,0,0:0:0:0:
151,125,176446,1,0,0:0:0:0:
151,125,176518,1,0,0:0:0:0:
469,312,176589,1,8,0:0:0:0:
469,312,176661,1,8,0:0:0:0:
151,125,176732,1,0,0:0:0:0:
151,125,176803,1,0,0:0:0:0:
498,311,176875,1,8,0:0:0:0:
151,125,176946,1,0,0:0:0:0:
151,125,177018,1,0,0:0:0:0:
151,125,177089,1,0,0:0:0:0:
420,284,177161,1,8,0:0:0:0:
420,284,177232,1,8,0:0:0:0:
151,125,177303,1,0,0:0:0:0:
151,125,177375,1,0,0:0:0:0:
387,247,177446,1,8,0:0:0:0:
151,125,177518,1,0,0:0:0:0:
151,125,177589,1,0,0:0:0:0:
442,311,177661,1,8,0:0:0:0:
442,311,177732,1,8,0:0:0:0:
407,257,177803,1,8,0:0:0:0:
151,125,177875,1,0,0:0:0:0:
151,125,177946,1,0,0:0:0:0:
390,309,178018,1,8,0:0:0:0:
151,125,178089,1,0,0:0:0:0:
151,125,178161,1,0,0:0:0:0:
151,125,178232,1,0,0:0:0:0:
409,286,178303,1,8,0:0:0:0:
151,125,178375,1,0,0:0:0:0:
144,104,178446,1,0,0:0:0:0:
144,104,178518,1,0,0:0:0:0:
151,125,178589,1,0,0:0:0:0:
168,144,178661,1,0,0:0:0:0:
151,125,178732,1,0,0:0:0:0:
82,118,178803,1,0,0:0:0:0:
335,296,178875,1,8,0:0:0:0:
151,125,178946,1,0,0:0:0:0:
151,125,179018,1,0,0:0:0:0:
151,125,179089,1,0,0:0:0:0:
387,247,179161,1,8,0:0:0:0:
394,253,179232,1,8,0:0:0:0:
394,253,179303,1,8,0:0:0:0:
394,253,179375,1,8,0:0:0:0:
162,102,179446,1,0,0:0:0:0:
162,102,179518,1,0,0:0:0:0:
162,102,179589,1,0,0:0:0:0:
136,83,179661,1,0,0:0:0:0:
393,263,179732,1,8,0:0:0:0:
363,211,179803,1,8,0:0:0:0:
393,263,179875,1,8,0:0:0:0:
387,247,179946,1,8,0:0:0:0:
96,81,180018,1,0,0:0:0:0:
96,81,180089,1,0,0:0:0:0:
96,81,180161,1,0,0:0:0:0:
96,81,180232,1,0,0:0:0:0:
96,81,180303,1,0,0:0:0:0:
96,81,180375,1,0,0:0:0:0:
96,81,180446,1,0,0:0:0:0:
96,81,180518,1,0,0:0:0:0:
416,248,180589,1,8,0:0:0:0:
424,281,180661,1,8,0:0:0:0:
56,65,180732,1,0,0:0:0:0:
56,65,180803,1,0,0:0:0:0:
369,241,180875,1,8,0:0:0:0:
56,65,180946,1,0,0:0:0:0:
56,65,181018,1,0,0:0:0:0:
56,65,181089,1,0,0:0:0:0:
56,65,181161,1,0,0:0:0:0:
56,65,181232,1,0,0:0:0:0:
56,65,181303,1,0,0:0:0:0:
56,65,181375,1,0,0:0:0:0:
366,252,181446,1,8,0:0:0:0:
56,65,181518,1,0,0:0:0:0:
56,65,181589,1,0,0:0:0:0:
80,87,181661,1,0,0:0:0:0:
366,252,181732,1,8,0:0:0:0:
396,307,181803,1,8,0:0:0:0:
56,65,181875,1,0,0:0:0:0:
56,65,181946,1,0,0:0:0:0:
56,65,182018,1,0,0:0:0:0:
56,65,182089,1,0,0:0:0:0:
56,65,182161,1,0,0:0:0:0:
56,65,182232,1,0,0:0:0:0:
378,281,182303,1,8,0:0:0:0:
56,65,182375,1,0,0:0:0:0:
56,65,182446,1,0,0:0:0:0:
58,90,182518,1,0,0:0:0:0:
403,278,182589,1,8,0:0:0:0:
359,286,182661,1,8,0:0:0:0:
56,65,182732,1,0,0:0:0:0:
56,65,182803,1,0,0:0:0:0:
56,65,182875,1,0,0:0:0:0:
56,65,182946,1,0,0:0:0:0:
56,65,183018,1,0,0:0:0:0:
56,65,183089,1,0,0:0:0:0:
391,241,183161,1,8,0:0:0:0:
56,65,183232,1,0,0:0:0:0:
56,65,183303,1,0,0:0:0:0:
56,65,183375,1,0,0:0:0:0:
366,272,183446,1,8,0:0:0:0:
429,353,183518,1,8,0:0:0:0:
56,65,183589,1,0,0:0:0:0:
56,65,183661,1,0,0:0:0:0:
56,65,183732,1,0,0:0:0:0:
56,65,183803,1,0,0:0:0:0:
56,65,183875,1,0,0:0:0:0:
56,65,183946,1,0,0:0:0:0:
396,289,184018,1,8,0:0:0:0:
56,65,184089,1,0,0:0:0:0:
56,65,184161,1,0,0:0:0:0:
58,90,184232,1,0,0:0:0:0:
399,236,184303,1,8,0:0:0:0:
429,353,184375,1,8,0:0:0:0:
56,65,184446,1,0,0:0:0:0:
56,65,184518,1,0,0:0:0:0:
412,300,184589,1,8,0:0:0:0:
412,300,184661,1,8,0:0:0:0:
412,300,184732,1,8,0:0:0:0:
56,65,184803,1,0,0:0:0:0:
395,307,184875,1,8,0:0:0:0:
56,65,184946,1,0,0:0:0:0:
56,65,185018,1,0,0:0:0:0:
56,65,185089,1,0,0:0:0:0:
360,343,185161,1,8,0:0:0:0:
378,348,185232,1,8,0:0:0:0:
56,65,185303,1,0,0:0:0:0:
56,65,185375,1,0,0:0:0:0:
56,65,185446,1,0,0:0:0:0:
56,65,185518,1,0,0:0:0:0:
56,65,185589,1,0,0:0:0:0:
56,65,185661,1,0,0:0:0:0:
56,65,185732,1,0,0:0:0:0:
56,65,185803,1,0,0:0:0:0:
56,65,185875,1,0,0:0:0:0:
58,90,185946,1,0,0:0:0:0:
383,236,186018,1,8,0:0:0:0:
113,83,186303,1,4,0:0:0:0:
363,254,186589,1,12,0:0:0:0:
256,192,186875,12,0,188446,0:0:0:0:
96,272,188589,5,4,0:0:0:0:
96,272,188875,1,4,0:0:0:0:
96,272,189161,1,4,0:0:0:0:
440,260,189446,1,8,0:0:0:0:
432,264,189518,1,8,0:0:0:0:
432,264,189589,1,8,0:0:0:0:
432,264,189732,1,8,0:0:0:0:
432,264,189875,1,8,0:0:0:0:
140,84,190018,1,0,0:0:0:0:
140,84,190161,1,0,0:0:0:0:
382,269,190303,5,12,0:0:0:0:
152,104,190446,1,0,0:0:0:0:
152,104,190518,1,0,0:0:0:0:
142,107,190589,1,0,0:0:0:0:
439,291,190732,1,8,0:0:0:0:
130,121,190875,1,0,0:0:0:0:
130,121,191018,1,0,0:0:0:0:
447,292,191161,1,8,0:0:0:0:
167,131,191303,1,0,0:0:0:0:
116,104,191375,1,0,0:0:0:0:
167,131,191446,1,0,0:0:0:0:
116,100,191518,1,0,0:0:0:0:
167,131,191589,1,0,0:0:0:0:
422,287,191732,1,8,0:0:0:0:
158,119,191875,1,0,0:0:0:0:
158,119,192018,1,0,0:0:0:0:
158,117,192161,1,0,0:0:0:0:
375,219,192303,1,8,0:0:0:0:
174,147,192446,1,0,0:0:0:0:
103,95,192518,1,0,0:0:0:0:
408,292,192589,1,8,0:0:0:0:
108,124,192661,1,0,0:0:0:0:
196,107,192732,1,0,0:0:0:0:
411,274,192875,1,8,0:0:0:0:
118,79,193018,1,0,0:0:0:0:
118,79,193161,1,0,0:0:0:0:
150,114,193232,1,0,0:0:0:0:
444,252,193303,1,8,0:0:0:0:
118,79,193446,1,0,0:0:0:0:
118,79,193589,1,0,0:0:0:0:
397,90,193732,1,12,0:0:0:0:
152,104,193875,1,0,0:0:0:0:
152,104,193946,1,0,0:0:0:0:
147,103,194018,1,0,0:0:0:0:
108,124,194089,1,0,0:0:0:0:
147,103,194161,1,0,0:0:0:0:
389,251,194303,1,8,0:0:0:0:
160,91,194446,1,0,0:0:0:0:
427,274,194589,1,8,0:0:0:0:
159,105,194732,1,0,0:0:0:0:
159,105,194803,1,0,0:0:0:0:
159,105,194875,1,0,0:0:0:0:
159,105,195018,1,0,0:0:0:0:
393,263,195161,1,8,0:0:0:0:
393,263,195303,1,8,0:0:0:0:
432,320,195375,1,8,0:0:0:0:
190,80,195446,1,0,0:0:0:0:
170,152,195589,1,0,0:0:0:0:
388,271,195732,1,8,0:0:0:0:
393,263,195875,1,8,0:0:0:0:
462,315,195946,1,8,0:0:0:0:
180,105,196018,1,0,0:0:0:0:
180,105,196161,1,0,0:0:0:0:
427,274,196303,1,8,0:0:0:0:
146,92,196446,1,0,0:0:0:0:
146,92,196518,1,0,0:0:0:0:
146,92,196589,1,0,0:0:0:0:
406,262,196732,1,8,0:0:0:0:
152,104,196803,1,0,0:0:0:0:
402,260,196875,1,8,0:0:0:0:
402,260,196946,1,8,0:0:0:0:
110,78,197018,1,0,0:0:0:0:
399,81,197161,1,12,0:0:0:0:
152,104,197303,1,0,0:0:0:0:
397,295,197446,1,8,0:0:0:0:
392,288,197518,1,8,0:0:0:0:
127,96,197589,1,0,0:0:0:0:
444,294,197732,1,8,0:0:0:0:
136,110,197875,1,0,0:0:0:0:
460,332,198018,1,8,0:0:0:0:
122,113,198161,1,0,0:0:0:0:
121,112,198232,1,0,0:0:0:0:
121,112,198303,1,0,0:0:0:0:
127,96,198375,1,0,0:0:0:0:
121,112,198446,1,0,0:0:0:0:
398,322,198589,1,8,0:0:0:0:
398,322,198732,1,8,0:0:0:0:
131,101,198875,1,0,0:0:0:0:
186,148,199018,1,0,0:0:0:0:
114,76,199089,1,0,0:0:0:0:
382,247,199161,1,8,0:0:0:0:
382,247,199303,1,8,0:0:0:0:
353,261,199446,1,8,0:0:0:0:
92,107,199589,1,0,0:0:0:0:
382,247,199732,1,8,0:0:0:0:
97,55,199875,1,0,0:0:0:0:
97,55,199946,1,0,0:0:0:0:
164,136,200018,1,0,0:0:0:0:
120,96,200089,1,0,0:0:0:0:
404,310,200161,1,8,0:0:0:0:
424,300,200303,1,8,0:0:0:0:
395,273,200446,1,8,0:0:0:0:
86,99,200589,1,0,0:0:0:0:
129,88,200732,1,0,0:0:0:0:
129,88,200875,1,0,0:0:0:0:
120,96,200946,1,0,0:0:0:0:
387,272,201018,1,8,0:0:0:0:
371,265,201161,1,8,0:0:0:0:
107,81,201303,1,0,0:0:0:0:
387,272,201446,1,8,0:0:0:0:
107,81,201589,1,0,0:0:0:0:
107,81,201661,1,0,0:0:0:0:
107,81,201732,1,0,0:0:0:0:
387,272,201875,1,8,0:0:0:0:
387,272,202018,1,8,0:0:0:0:
147,103,202161,1,0,0:0:0:0:
387,272,202303,1,8,0:0:0:0:
352,272,202375,1,8,0:0:0:0:
347,240,202446,1,8,0:0:0:0:
347,240,202518,1,8,0:0:0:0:
163,105,202589,1,0,0:0:0:0:
378,276,202732,1,8,0:0:0:0:
113,102,202875,1,0,0:0:0:0:
113,102,203018,1,0,0:0:0:0:
406,320,203161,1,8,0:0:0:0:
376,280,203232,1,8,0:0:0:0:
145,128,203303,1,0,0:0:0:0:
145,128,203375,1,0,0:0:0:0:
145,128,203446,1,0,0:0:0:0:
334,283,203589,1,8,0:0:0:0:
158,112,203732,1,0,0:0:0:0:
158,112,203875,1,0,0:0:0:0:
382,269,204018,5,12,0:0:0:0:
136,56,204161,1,0,0:0:0:0:
136,56,204232,1,0,0:0:0:0:
142,107,204303,1,0,0:0:0:0:
439,291,204446,1,8,0:0:0:0:
130,121,204589,1,0,0:0:0:0:
120,96,204661,1,0,0:0:0:0:
130,121,204732,1,0,0:0:0:0:
447,292,204875,1,8,0:0:0:0:
167,131,205018,1,0,0:0:0:0:
116,104,205089,1,0,0:0:0:0:
167,131,205161,1,0,0:0:0:0:
167,131,205303,1,0,0:0:0:0:
422,287,205446,1,8,0:0:0:0:
158,119,205589,1,0,0:0:0:0:
158,119,205732,1,0,0:0:0:0:
158,117,205875,1,0,0:0:0:0:
375,219,206018,1,8,0:0:0:0:
174,147,206161,1,0,0:0:0:0:
103,95,206232,1,0,0:0:0:0:
408,292,206303,1,8,0:0:0:0:
196,107,206446,1,0,0:0:0:0:
411,274,206589,1,8,0:0:0:0:
118,79,206732,1,0,0:0:0:0:
118,79,206875,1,0,0:0:0:0:
150,114,206946,1,0,0:0:0:0:
444,252,207018,1,8,0:0:0:0:
436,300,207089,1,8,0:0:0:0:
118,79,207161,1,0,0:0:0:0:
118,79,207303,1,0,0:0:0:0:
397,90,207446,1,12,0:0:0:0:
144,48,207589,1,0,0:0:0:0:
144,48,207661,1,0,0:0:0:0:
147,103,207732,1,0,0:0:0:0:
147,103,207875,1,0,0:0:0:0:
389,251,208018,1,8,0:0:0:0:
160,91,208161,1,0,0:0:0:0:
427,274,208303,1,8,0:0:0:0:
159,105,208446,1,0,0:0:0:0:
159,105,208518,1,0,0:0:0:0:
159,105,208589,1,0,0:0:0:0:
159,105,208732,1,0,0:0:0:0:
393,263,208875,1,8,0:0:0:0:
393,263,209018,1,8,0:0:0:0:
392,276,209089,1,8,0:0:0:0:
190,80,209161,1,0,0:0:0:0:
170,152,209303,1,0,0:0:0:0:
388,271,209446,1,8,0:0:0:0:
393,263,209589,1,8,0:0:0:0:
180,105,209732,1,0,0:0:0:0:
180,105,209875,1,0,0:0:0:0:
427,274,210018,1,8,0:0:0:0:
462,315,210089,1,8,0:0:0:0:
146,92,210161,1,0,0:0:0:0:
146,92,210232,1,0,0:0:0:0:
146,92,210303,1,0,0:0:0:0:
406,262,210446,1,8,0:0:0:0:
402,260,210589,1,8,0:0:0:0:
402,260,210661,1,8,0:0:0:0:
110,78,210732,1,0,0:0:0:0:
399,81,210875,1,12,0:0:0:0:
136,56,211018,1,0,0:0:0:0:
397,295,211161,1,8,0:0:0:0:
127,96,211303,1,0,0:0:0:0:
152,104,211375,1,0,0:0:0:0:
444,294,211446,1,8,0:0:0:0:
136,110,211589,1,0,0:0:0:0:
460,332,211732,1,8,0:0:0:0:
122,113,211875,1,0,0:0:0:0:
121,112,211946,1,0,0:0:0:0:
121,112,212018,1,0,0:0:0:0:
121,112,212161,1,0,0:0:0:0:
398,322,212303,1,8,0:0:0:0:
398,322,212446,1,8,0:0:0:0:
131,101,212589,1,0,0:0:0:0:
186,148,212732,1,0,0:0:0:0:
114,76,212803,1,0,0:0:0:0:
382,247,212875,1,8,0:0:0:0:
382,247,213018,1,8,0:0:0:0:
353,261,213161,1,8,0:0:0:0:
92,107,213303,1,0,0:0:0:0:
382,247,213446,1,8,0:0:0:0:
97,55,213589,1,0,0:0:0:0:
97,55,213661,1,0,0:0:0:0:
164,136,213732,1,0,0:0:0:0:
404,310,213875,1,8,0:0:0:0:
424,300,214018,1,8,0:0:0:0:
395,273,214161,1,8,0:0:0:0:
416,300,214232,1,8,0:0:0:0:
86,99,214303,1,0,0:0:0:0:
129,88,214446,1,0,0:0:0:0:
129,88,214589,1,0,0:0:0:0:
387,272,214732,1,8,0:0:0:0:
371,265,214875,1,8,0:0:0:0:
107,81,215018,1,0,0:0:0:0:
387,272,215161,1,8,0:0:0:0:
376,272,215232,1,8,0:0:0:0:
107,81,215303,1,0,0:0:0:0:
107,81,215375,1,0,0:0:0:0:
107,81,215446,1,0,0:0:0:0:
387,272,215589,1,8,0:0:0:0:
387,272,215732,1,8,0:0:0:0:
147,103,215875,1,0,0:0:0:0:
387,272,216018,1,8,0:0:0:0:
312,248,216089,1,8,0:0:0:0:
144,144,216161,1,0,0:0:0:0:
163,105,216232,1,0,0:0:0:0:
347,240,216303,1,8,0:0:0:0:
378,276,216446,1,8,0:0:0:0:
304,320,216589,1,8,0:0:0:0:
406,320,216732,1,8,0:0:0:0:
113,102,216875,1,0,0:0:0:0:
360,272,217018,1,8,0:0:0:0:
360,272,217089,1,8,0:0:0:0:
360,272,217161,1,8,0:0:0:0:
334,283,217303,1,8,0:0:0:0:
158,112,217446,1,0,0:0:0:0:
158,112,217589,1,0,0:0:0:0:
360,320,217732,5,12,0:0:0:0:
144,120,217875,1,0,0:0:0:0:
180,140,218018,1,0,0:0:0:0:
416,320,218161,1,8,0:0:0:0:
336,264,218232,1,8,0:0:0:0:
140,120,218303,1,0,0:0:0:0:
180,140,218446,1,0,0:0:0:0:
380,296,218589,1,8,0:0:0:0:
144,120,218732,1,0,0:0:0:0:
132,104,218803,1,0,0:0:0:0:
152,92,218875,1,0,0:0:0:0:
344,272,219018,1,8,0:0:0:0:
140,116,219161,1,0,0:0:0:0:
140,120,219303,1,0,0:0:0:0:
392,292,219446,1,8,0:0:0:0:
392,292,219518,1,8,0:0:0:0:
120,125,219589,1,0,0:0:0:0:
140,116,219732,1,0,0:0:0:0:
140,116,219875,1,0,0:0:0:0:
388,286,220018,1,8,0:0:0:0:
140,116,220161,1,0,0:0:0:0:
396,276,220303,1,8,0:0:0:0:
108,104,220446,1,0,0:0:0:0:
165,108,220518,1,0,0:0:0:0:
148,93,220589,1,0,0:0:0:0:
365,265,220732,1,8,0:0:0:0:
128,67,220875,1,0,0:0:0:0:
365,264,221018,1,8,0:0:0:0:
104,290,221161,1,4,0:0:0:0:
144,84,221303,1,0,0:0:0:0:
113,94,221446,1,0,0:0:0:0:
117,97,221518,1,0,0:0:0:0:
405,310,221589,1,8,0:0:0:0:
111,89,221732,1,0,0:0:0:0:
111,89,221875,1,0,0:0:0:0:
385,294,222018,1,8,0:0:0:0:
152,80,222161,1,0,0:0:0:0:
81,117,222303,1,0,0:0:0:0:
412,325,222446,1,8,0:0:0:0:
364,232,222518,1,8,0:0:0:0:
160,167,222589,1,0,0:0:0:0:
160,92,222732,1,0,0:0:0:0:
395,288,222875,1,8,0:0:0:0:
410,291,222946,1,8,0:0:0:0:
160,167,223018,1,0,0:0:0:0:
159,133,223161,1,0,0:0:0:0:
406,298,223303,1,8,0:0:0:0:
144,141,223446,1,0,0:0:0:0:
131,144,223589,1,0,0:0:0:0:
160,92,223661,1,0,0:0:0:0:
375,304,223732,1,8,0:0:0:0:
368,276,223803,1,8,0:0:0:0:
130,133,223875,1,0,0:0:0:0:
351,297,224018,1,8,0:0:0:0:
370,310,224089,1,8,0:0:0:0:
351,297,224161,1,8,0:0:0:0:
351,297,224303,1,8,0:0:0:0:
351,297,224446,1,8,0:0:0:0:
304,281,224589,5,4,0:0:0:0:
96,96,224732,1,0,0:0:0:0:
152,136,224803,1,0,0:0:0:0:
140,128,224875,1,0,0:0:0:0:
152,136,224946,1,0,0:0:0:0:
344,289,225018,1,8,0:0:0:0:
182,136,225161,1,0,0:0:0:0:
182,136,225303,1,0,0:0:0:0:
335,281,225446,1,8,0:0:0:0:
384,284,225589,1,8,0:0:0:0:
113,96,225732,1,0,0:0:0:0:
184,120,225803,1,0,0:0:0:0:
359,286,225875,1,8,0:0:0:0:
352,288,225946,1,8,0:0:0:0:
139,105,226018,1,0,0:0:0:0:
130,96,226161,1,0,0:0:0:0:
454,333,226303,1,8,0:0:0:0:
421,308,226375,1,8,0:0:0:0:
86,46,226446,1,0,0:0:0:0:
172,96,226518,1,0,0:0:0:0:
392,284,226589,1,8,0:0:0:0:
155,101,226732,1,0,0:0:0:0:
155,97,226875,1,0,0:0:0:0:
437,268,227018,1,8,0:0:0:0:
398,236,227161,1,8,0:0:0:0:
404,264,227232,1,8,0:0:0:0:
190,136,227303,1,0,0:0:0:0:
182,134,227446,1,0,0:0:0:0:
429,247,227589,1,8,0:0:0:0:
426,267,227732,1,8,0:0:0:0:
152,104,227803,1,0,0:0:0:0:
426,267,227875,1,8,0:0:0:0:
423,73,228018,1,12,0:0:0:0:
164,103,228303,1,0,0:0:0:0:
436,263,228446,1,8,0:0:0:0:
436,263,228589,1,8,0:0:0:0:
187,83,228732,1,0,0:0:0:0:
447,304,228875,1,8,0:0:0:0:
114,97,229161,1,0,0:0:0:0:
397,274,229303,1,8,0:0:0:0:
105,105,229446,1,0,0:0:0:0:
105,105,229589,1,0,0:0:0:0:
413,283,229732,1,8,0:0:0:0:
413,283,229803,1,8,0:0:0:0:
168,140,229875,1,0,0:0:0:0:
97,131,230018,1,0,0:0:0:0:
433,294,230161,1,8,0:0:0:0:
82,110,230303,1,0,0:0:0:0:
154,134,230446,1,0,0:0:0:0:
145,129,230518,1,0,0:0:0:0:
433,294,230589,1,8,0:0:0:0:
128,117,230732,1,0,0:0:0:0:
440,302,230875,1,8,0:0:0:0:
431,309,231018,1,8,0:0:0:0:
481,321,231089,1,8,0:0:0:0:
407,267,231161,1,8,0:0:0:0:
389,326,231303,1,8,0:0:0:0:
110,262,231446,1,4,0:0:0:0:
108,92,231732,1,0,0:0:0:0:
108,92,231875,1,0,0:0:0:0:
460,256,232018,1,8,0:0:0:0:
172,136,232161,1,0,0:0:0:0:
420,256,232303,1,8,0:0:0:0:
172,136,232589,1,0,0:0:0:0:
172,136,232661,1,0,0:0:0:0:
172,136,232732,1,0,0:0:0:0:
172,136,232875,1,0,0:0:0:0:
172,136,232946,1,0,0:0:0:0:
172,136,233018,1,0,0:0:0:0:
328,240,233161,1,8,0:0:0:0:
352,256,233232,1,8,0:0:0:0:
180,144,233303,1,0,0:0:0:0:
384,264,233375,1,8,0:0:0:0:
208,152,233446,1,0,0:0:0:0:
368,248,233589,1,8,0:0:0:0:
188,112,233732,1,0,0:0:0:0:
188,112,233875,1,0,0:0:0:0:
372,296,234018,1,8,0:0:0:0:
148,128,234161,1,0,0:0:0:0:
148,128,234232,1,0,0:0:0:0:
436,272,234303,1,8,0:0:0:0:
168,136,234446,1,0,0:0:0:0:
456,328,234589,1,8,0:0:0:0:
428,288,234732,1,8,0:0:0:0:
188,112,234875,1,0,0:0:0:0:
148,128,235161,1,0,0:0:0:0:
144,128,235303,1,0,0:0:0:0:
404,264,235446,1,8,0:0:0:0:
404,264,235732,1,8,0:0:0:0:
164,156,236018,1,0,0:0:0:0:
164,156,236089,1,0,0:0:0:0:
164,156,236161,1,0,0:0:0:0:
164,156,236303,1,0,0:0:0:0:
164,156,236375,1,0,0:0:0:0:
160,148,236446,1,0,0:0:0:0:
404,264,236589,1,8,0:0:0:0:
184,140,236661,1,0,0:0:0:0:
416,288,236732,1,8,0:0:0:0:
136,104,236875,1,0,0:0:0:0:
388,224,237018,1,8,0:0:0:0:
144,92,237161,1,0,0:0:0:0:
144,92,237303,1,0,0:0:0:0:
408,272,237446,1,8,0:0:0:0:
408,272,237518,1,8,0:0:0:0:
200,140,237589,1,0,0:0:0:0:
416,272,237732,1,8,0:0:0:0:
164,120,237875,1,0,0:0:0:0:
184,128,238303,1,0,0:0:0:0:
148,128,238589,1,0,0:0:0:0:
144,128,238732,1,0,0:0:0:0:
404,264,238875,1,8,0:0:0:0:
404,264,239161,1,8,0:0:0:0:
164,156,239446,1,0,0:0:0:0:
164,156,239518,1,0,0:0:0:0:
164,156,239589,1,0,0:0:0:0:
164,156,239732,1,0,0:0:0:0:
164,156,239803,1,0,0:0:0:0:
160,148,239875,1,0,0:0:0:0:
404,264,240018,1,8,0:0:0:0:
184,140,240089,1,0,0:0:0:0:
416,288,240161,1,8,0:0:0:0:
136,104,240303,1,0,0:0:0:0:
388,224,240446,1,8,0:0:0:0:
144,92,240589,1,0,0:0:0:0:
144,92,240732,1,0,0:0:0:0:
408,272,240875,1,8,0:0:0:0:
408,272,240946,1,8,0:0:0:0:
200,140,241018,1,0,0:0:0:0:
416,272,241161,1,8,0:0:0:0:
164,120,241303,1,0,0:0:0:0:
428,292,241446,1,8,0:0:0:0:
132,112,241589,1,0,0:0:0:0:
392,296,241732,5,12,0:0:0:0:
132,136,241875,1,0,0:0:0:0:
132,136,242018,1,0,0:0:0:0:
420,328,242161,1,8,0:0:0:0:
420,328,242303,1,8,0:0:0:0:
136,136,242446,1,0,0:0:0:0:
136,136,242518,1,0,0:0:0:0:
380,296,242589,1,8,0:0:0:0:
100,112,242732,1,0,0:0:0:0:
100,112,242875,1,0,0:0:0:0:
308,232,243018,1,8,0:0:0:0:
116,128,243161,1,0,0:0:0:0:
116,128,243303,1,0,0:0:0:0:
368,272,243446,1,8,0:0:0:0:
368,272,243589,1,8,0:0:0:0:
368,272,243661,1,8,0:0:0:0:
368,272,243732,1,8,0:0:0:0:
368,272,243875,1,8,0:0:0:0:
368,272,244018,1,8,0:0:0:0:
368,272,244161,1,8,0:0:0:0:
132,124,244303,1,0,0:0:0:0:
132,124,244375,1,0,0:0:0:0:
392,304,244446,1,8,0:0:0:0:
392,304,244518,1,8,0:0:0:0:
100,104,244589,1,0,0:0:0:0:
100,104,244661,1,0,0:0:0:0:
396,312,244732,1,8,0:0:0:0:
396,312,244803,1,8,0:0:0:0:
92,80,244875,1,0,0:0:0:0:
344,96,245161,1,12,0:0:0:0:
344,96,245303,1,12,0:0:0:0:
344,96,245446,1,12,0:0:0:0:
392,288,245732,1,8,0:0:0:0:
392,288,245803,1,8,0:0:0:0:
392,288,245875,1,8,0:0:0:0:
392,288,246018,1,8,0:0:0:0:
392,288,246161,1,8,0:0:0:0:
180,84,246875,1,0,0:0:0:0:
152,92,247732,1,0,0:0:0:0:
112,128,248589,1,0,0:0:0:0:
112,128,248732,1,0,0:0:0:0:
112,128,248875,1,0,0:0:0:0:
112,128,249161,1,0,0:0:0:0:
112,128,249303,1,0,0:0:0:0:
112,128,249446,1,0,0:0:0:0:
112,128,249589,1,0,0:0:0:0:
72,120,250303,1,0,0:0:0:0:
72,120,251161,1,0,0:0:0:0:
72,120,252018,1,0,0:0:0:0:
72,120,252161,1,0,0:0:0:0:
72,120,252303,1,0,0:0:0:0:
96,120,252589,1,0,0:0:0:0:
96,120,252661,1,0,0:0:0:0:
96,120,252732,1,0,0:0:0:0:
104,108,252875,1,0,0:0:0:0:
96,120,253018,1,0,0:0:0:0:
152,116,255446,1,0,0:0:0:0:
152,116,255589,1,0,0:0:0:0:
152,116,255732,1,0,0:0:0:0:
152,116,256018,1,0,0:0:0:0:
152,116,256161,1,0,0:0:0:0:
152,116,256303,1,0,0:0:0:0:
152,116,256446,1,0,0:0:0:0:
148,280,258875,5,4,0:0:0:0:
136,88,259018,1,0,0:0:0:0:
360,308,259161,1,8,0:0:0:0:
144,88,259303,1,0,0:0:0:0:
144,88,259446,1,0,0:0:0:0:
144,88,259589,1,0,0:0:0:0:
364,276,259732,1,8,0:0:0:0:
344,276,259875,1,8,0:0:0:0:
144,84,260018,1,0,0:0:0:0:
380,260,260161,1,8,0:0:0:0:
380,260,260303,1,8,0:0:0:0:
144,88,260446,1,0,0:0:0:0:
376,292,260589,1,8,0:0:0:0:
136,88,260732,1,0,0:0:0:0:
144,88,260875,1,0,0:0:0:0:
384,280,260946,1,8,0:0:0:0:
144,88,261018,1,0,0:0:0:0:
144,88,261161,1,0,0:0:0:0:
144,88,261303,1,0,0:0:0:0:
364,276,261446,1,8,0:0:0:0:
136,88,261589,1,0,0:0:0:0:
144,84,261732,1,0,0:0:0:0:
144,88,261875,1,0,0:0:0:0:
388,256,262018,1,8,0:0:0:0:
144,88,262161,1,0,0:0:0:0:
380,256,262303,1,8,0:0:0:0:
380,256,262446,1,8,0:0:0:0:
144,88,262589,1,0,0:0:0:0:
144,88,262732,1,0,0:0:0:0:
368,288,262875,1,8,0:0:0:0:
360,288,263018,1,8,0:0:0:0:
352,244,263161,1,8,0:0:0:0:
136,88,263303,1,0,0:0:0:0:
360,328,263446,1,8,0:0:0:0:
144,88,263589,1,0,0:0:0:0:
388,336,263732,1,8,0:0:0:0:
388,336,263875,1,8,0:0:0:0:
136,88,264018,1,0,0:0:0:0:
136,88,264161,1,0,0:0:0:0:
144,88,264303,1,0,0:0:0:0:
372,268,264399,1,8,0:0:0:0:
360,288,264494,1,8,0:0:0:0:
144,88,264589,1,0,0:0:0:0:
144,88,264732,1,0,0:0:0:0:
376,236,264875,1,8,0:0:0:0:
136,88,265018,1,0,0:0:0:0:
144,84,265161,1,0,0:0:0:0:
144,88,265303,1,0,0:0:0:0:
144,88,265446,1,0,0:0:0:0:
144,88,265589,1,0,0:0:0:0:
328,232,265732,1,8,0:0:0:0:
136,88,265875,1,0,0:0:0:0:
336,232,266018,1,8,0:0:0:0:
144,88,266161,1,0,0:0:0:0:
316,280,266303,1,8,0:0:0:0:
368,280,266446,1,8,0:0:0:0:
356,280,266589,1,8,0:0:0:0:
136,88,266732,1,0,0:0:0:0:
288,236,266875,1,8,0:0:0:0:
144,88,267018,1,0,0:0:0:0:
144,104,267089,1,0,0:0:0:0:
144,88,267161,1,0,0:0:0:0:
144,88,267303,1,0,0:0:0:0:
348,240,267446,1,8,0:0:0:0:
136,88,267589,1,0,0:0:0:0:
336,260,267732,1,8,0:0:0:0:
336,260,267803,1,8,0:0:0:0:
144,88,267875,1,0,0:0:0:0:
144,88,268018,1,0,0:0:0:0:
144,88,268161,1,0,0:0:0:0:
156,120,268232,1,0,0:0:0:0:
356,280,268303,1,8,0:0:0:0:
136,88,268446,1,0,0:0:0:0:
144,84,268589,1,0,0:0:0:0:
144,88,268732,1,0,0:0:0:0:
144,88,268875,1,0,0:0:0:0:
144,88,269018,1,0,0:0:0:0:
348,264,269161,1,8,0:0:0:0:
136,88,269303,1,0,0:0:0:0:
384,304,269446,1,8,0:0:0:0:
384,304,269589,1,8,0:0:0:0:
144,88,269732,1,0,0:0:0:0:
344,252,269875,1,8,0:0:0:0:
356,280,270018,1,8,0:0:0:0:
136,88,270161,1,0,0:0:0:0:
144,84,270303,1,0,0:0:0:0:
144,88,270446,1,0,0:0:0:0:
360,324,270589,1,8,0:0:0:0:
360,324,270732,1,8,0:0:0:0:
120,316,270875,5,4,0:0:0:0:
132,108,271018,1,0,0:0:0:0:
132,108,271161,1,0,0:0:0:0:
480,300,271303,1,8,0:0:0:0:
188,120,271446,1,0,0:0:0:0:
464,344,271589,1,8,0:0:0:0:
456,316,271732,1,8,0:0:0:0:
216,132,271875,1,0,0:0:0:0:
468,324,272018,1,8,0:0:0:0:
468,324,272161,1,8,0:0:0:0:
148,92,272303,1,0,0:0:0:0:
348,256,272446,1,8,0:0:0:0:
88,316,272589,1,4,0:0:0:0:
84,108,272875,1,0,0:0:0:0:
84,108,273018,1,0,0:0:0:0:
404,300,273161,1,8,0:0:0:0:
120,112,273303,1,0,0:0:0:0:
392,288,273446,1,8,0:0:0:0:
432,308,273589,1,8,0:0:0:0:
100,108,273732,1,0,0:0:0:0:
396,300,273875,1,8,0:0:0:0:
64,80,274018,1,0,0:0:0:0:
412,300,274161,1,8,0:0:0:0:
96,80,274303,1,0,0:0:0:0:
376,232,274399,1,8,0:0:0:0:
416,296,274494,1,8,0:0:0:0:
148,120,274589,1,0,0:0:0:0:
400,280,274732,1,8,0:0:0:0:
180,88,274875,1,0,0:0:0:0:
380,284,274970,1,8,0:0:0:0:
152,108,275065,1,0,0:0:0:0:
392,260,275161,1,8,0:0:0:0:
416,296,275303,1,8,0:0:0:0:
416,296,275375,1,8,0:0:0:0:
136,112,275446,1,0,0:0:0:0:
136,112,275589,1,0,0:0:0:0:
168,128,275732,1,0,0:0:0:0:
384,292,275875,1,8,0:0:0:0:
136,124,276018,1,0,0:0:0:0:
136,124,276089,1,0,0:0:0:0:
136,124,276161,1,0,0:0:0:0:
184,128,276303,1,0,0:0:0:0:
184,128,276446,1,0,0:0:0:0:
408,292,276589,1,8,0:0:0:0:
196,144,276732,1,0,0:0:0:0:
480,312,276875,1,8,0:0:0:0:
416,304,277018,1,8,0:0:0:0:
408,300,277089,1,8,0:0:0:0:
136,124,277161,1,0,0:0:0:0:
168,112,277303,1,0,0:0:0:0:
408,292,277446,1,8,0:0:0:0:
404,284,277589,1,8,0:0:0:0:
180,112,277732,1,0,0:0:0:0:
420,288,277827,1,8,0:0:0:0:
420,288,277922,1,8,0:0:0:0:
180,112,278018,1,0,0:0:0:0:
128,104,278161,1,0,0:0:0:0:
128,104,278303,1,0,0:0:0:0:
128,104,278375,1,0,0:0:0:0:
128,104,278446,1,0,0:0:0:0:
416,260,278589,1,8,0:0:0:0:
96,104,278732,1,0,0:0:0:0:
96,104,278875,1,0,0:0:0:0:
96,104,279018,1,0,0:0:0:0:
96,104,279161,1,0,0:0:0:0:
96,104,279303,1,0,0:0:0:0:
96,104,279446,1,0,0:0:0:0:
96,104,279518,1,0,0:0:0:0:
396,268,279589,1,8,0:0:0:0:
100,92,279661,1,0,0:0:0:0:
396,228,279732,1,8,0:0:0:0:
376,252,279803,1,8,0:0:0:0:
88,100,279875,1,0,0:0:0:0:
416,280,279946,1,8,0:0:0:0:
384,272,280018,1,8,0:0:0:0:
128,116,280089,1,0,0:0:0:0:
408,284,280161,1,8,0:0:0:0:
96,88,280232,1,0,0:0:0:0:
424,268,280303,1,8,0:0:0:0:
124,108,280375,1,0,0:0:0:0:
124,108,280446,1,0,0:0:0:0:
472,316,280518,1,8,0:0:0:0:
144,108,280589,1,0,0:0:0:0:
104,104,280661,1,0,0:0:0:0:
492,296,280732,1,8,0:0:0:0:
140,120,280803,1,0,0:0:0:0:
456,296,280875,1,8,0:0:0:0:
96,128,281018,1,0,0:0:0:0:
464,292,281161,1,8,0:0:0:0:
464,292,281232,1,8,0:0:0:0:
160,108,281303,1,0,0:0:0:0:
156,108,281375,1,0,0:0:0:0:
156,108,281446,1,0,0:0:0:0:
440,264,281518,1,8,0:0:0:0:
156,108,281589,1,0,0:0:0:0:
152,104,281661,1,0,0:0:0:0:
436,276,281732,1,8,0:0:0:0:
180,108,281875,1,0,0:0:0:0:
376,248,282018,1,8,0:0:0:0:
408,256,282089,1,8,0:0:0:0:
208,120,282161,1,0,0:0:0:0:
456,308,282303,1,8,0:0:0:0:
176,152,282446,1,0,0:0:0:0:
436,276,282589,1,8,0:0:0:0:
436,276,282732,1,8,0:0:0:0:
148,96,282875,1,0,0:0:0:0:
164,104,282946,1,0,0:0:0:0:
424,296,283018,1,8,0:0:0:0:
404,264,283161,1,8,0:0:0:0:
136,80,283303,1,0,0:0:0:0:
136,80,283375,1,0,0:0:0:0:
448,280,283446,1,8,0:0:0:0:
404,264,283541,1,8,0:0:0:0:
172,120,283637,1,0,0:0:0:0:
444,288,283732,1,8,0:0:0:0:
148,96,283827,1,0,0:0:0:0:
144,112,283922,1,0,0:0:0:0:
392,276,284018,1,8,0:0:0:0:
392,276,284113,1,8,0:0:0:0:
176,128,284208,1,0,0:0:0:0:
504,332,284303,1,8,0:0:0:0:
412,280,284399,1,8,0:0:0:0:
168,104,284494,1,0,0:0:0:0:
452,288,284589,1,8,0:0:0:0:
380,268,284732,1,8,0:0:0:0:
380,268,284875,1,8,0:0:0:0:
396,284,284970,1,8,0:0:0:0:
396,284,285065,1,8,0:0:0:0:
120,84,285161,1,0,0:0:0:0:
148,60,285303,1,0,0:0:0:0:
148,60,285375,1,0,0:0:0:0:
356,272,285446,1,8,0:0:0:0:
368,268,285541,1,8,0:0:0:0:
392,284,285637,1,8,0:0:0:0:
160,152,285732,1,0,0:0:0:0:
188,152,285875,1,0,0:0:0:0:
396,284,285946,1,8,0:0:0:0:
152,136,286018,1,0,0:0:0:0:
152,132,286161,1,0,0:0:0:0:
128,260,286303,1,4,0:0:0:0:
376,276,286589,1,8,0:0:0:0:
164,148,286875,1,0,0:0:0:0:
428,308,287161,1,12,0:0:0:0:
180,160,287446,1,0,0:0:0:0:
200,116,287732,1,0,0:0:0:0:
360,288,287827,1,8,0:0:0:0:
392,260,287922,1,8,0:0:0:0:
152,256,288018,1,4,0:0:0:0:
124,88,288303,1,0,0:0:0:0:
124,88,288375,1,0,0:0:0:0:
124,88,288446,1,0,0:0:0:0:
124,88,288589,1,0,0:0:0:0:
440,288,288875,1,8,0:0:0:0:
148,120,289161,1,0,0:0:0:0:
148,120,289446,1,0,0:0:0:0:
256,192,289732,12,0,305018,0:0:0:0:
152,136,305161,5,0,0:0:0:0:
368,244,305446,1,8,0:0:0:0:
368,244,305732,1,8,0:0:0:0:
376,260,306018,1,8,0:0:0:0:
108,88,306303,1,0,0:0:0:0:
108,88,306589,1,0,0:0:0:0:
444,272,306875,1,8,0:0:0:0:
80,100,307161,1,0,0:0:0:0:
80,100,307446,1,0,0:0:0:0:
356,244,307732,1,8,0:0:0:0:
108,112,308303,1,0,0:0:0:0:
120,120,308589,1,0,0:0:0:0:
144,100,308875,1,0,0:0:0:0:
144,100,309161,1,0,0:0:0:0:
348,240,309446,1,8,0:0:0:0:
372,264,309732,1,8,0:0:0:0:
372,264,310018,1,8,0:0:0:0:
68,88,310303,1,0,0:0:0:0:
68,88,310589,1,0,0:0:0:0:
416,272,310875,1,8,0:0:0:0:
100,132,311161,1,0,0:0:0:0:
136,120,312018,1,0,0:0:0:0:
448,296,312303,1,8,0:0:0:0:
448,296,312589,1,8,0:0:0:0:
448,296,312875,1,8,0:0:0:0:
492,328,313161,1,8,0:0:0:0:
152,116,313446,1,0,0:0:0:0:
448,296,313732,1,8,0:0:0:0:
200,128,314018,1,0,0:0:0:0:
200,128,314303,1,0,0:0:0:0:
448,336,314589,1,8,0:0:0:0:
116,128,315161,1,0,0:0:0:0:
104,88,315446,1,0,0:0:0:0:
104,104,315732,1,0,0:0:0:0:
424,296,316018,1,8,0:0:0:0:
40,68,316303,1,0,0:0:0:0:
356,264,316589,1,8,0:0:0:0:
364,272,316875,1,8,0:0:0:0:
92,72,317161,1,0,0:0:0:0:
120,120,317446,1,0,0:0:0:0:
120,120,317732,1,0,0:0:0:0:
32,124,318018,1,0,0:0:0:0:
76,68,318303,1,0,0:0:0:0:
160,128,318399,1,0,0:0:0:0:
424,312,318494,1,8,0:0:0:0:
116,84,318589,1,0,0:0:0:0:
176,276,318875,5,4,0:0:0:0:
140,88,319303,1,0,0:0:0:0:
140,88,319589,1,0,0:0:0:0:
440,252,319732,1,8,0:0:0:0:
400,280,320113,1,8,0:0:0:0:
388,244,320208,1,8,0:0:0:0:
184,112,320303,1,0,0:0:0:0:
152,116,320589,1,0,0:0:0:0:
100,88,321018,1,0,0:0:0:0:
132,88,321303,1,0,0:0:0:0:
412,300,321446,1,8,0:0:0:0:
148,132,321732,1,0,0:0:0:0:
148,132,322018,1,0,0:0:0:0:
148,132,322303,1,0,0:0:0:0:
148,132,322732,1,0,0:0:0:0:
148,132,323018,1,0,0:0:0:0:
460,296,323161,1,8,0:0:0:0:
452,300,323518,1,8,0:0:0:0:
156,128,323732,1,0,0:0:0:0:
156,128,324018,1,0,0:0:0:0:
456,316,324446,1,8,0:0:0:0:
164,136,324732,1,0,0:0:0:0:
412,284,324875,1,8,0:0:0:0:
144,120,325161,1,0,0:0:0:0:
144,116,325446,1,0,0:0:0:0:
120,244,325732,1,4,0:0:0:0:
144,120,326161,1,0,0:0:0:0:
152,116,326446,1,0,0:0:0:0:
412,296,326589,1,8,0:0:0:0:
400,292,326970,1,8,0:0:0:0:
400,292,327065,1,8,0:0:0:0:
140,84,327161,1,0,0:0:0:0:
144,88,327446,1,0,0:0:0:0:
136,112,327875,1,0,0:0:0:0:
160,120,328161,1,0,0:0:0:0:
400,280,328303,1,8,0:0:0:0:
152,92,328589,1,0,0:0:0:0:
152,92,328875,1,0,0:0:0:0:
152,96,329161,1,0,0:0:0:0:
128,88,329589,1,0,0:0:0:0:
128,88,329875,1,0,0:0:0:0:
340,248,330018,1,8,0:0:0:0:
128,104,330589,1,0,0:0:0:0:
148,100,330875,1,0,0:0:0:0:
436,336,331303,1,8,0:0:0:0:
184,72,331589,1,0,0:0:0:0:
416,296,331732,1,8,0:0:0:0:
360,192,331780,1,8,0:0:0:0:
416,296,332018,1,8,0:0:0:0:
172,108,332161,1,0,0:0:0:0:
172,108,332303,1,0,0:0:0:0:
376,280,332446,1,8,0:0:0:0:
376,280,332589,1,8,0:0:0:0:
160,96,333018,1,0,0:0:0:0:
160,96,333303,1,0,0:0:0:0:
360,256,333446,1,8,0:0:0:0:
428,308,333827,1,8,0:0:0:0:
428,308,333922,1,8,0:0:0:0:
428,308,334018,1,8,0:0:0:0:
420,96,334303,1,12,0:0:0:0:
428,308,334732,1,8,0:0:0:0:
128,72,335018,1,0,0:0:0:0:
388,260,335161,1,8,0:0:0:0:
164,140,335446,1,0,0:0:0:0:
164,140,335732,1,0,0:0:0:0:
164,140,336018,1,0,0:0:0:0:
88,132,336446,1,0,0:0:0:0:
180,132,336732,1,0,0:0:0:0:
424,288,336875,1,8,0:0:0:0:
444,288,337256,1,8,0:0:0:0:
444,288,337351,1,8,0:0:0:0:
196,100,337446,1,0,0:0:0:0:
208,120,337732,1,0,0:0:0:0:
156,112,338161,1,0,0:0:0:0:
208,104,338446,1,0,0:0:0:0:
336,212,338589,1,8,0:0:0:0:
156,112,338732,1,0,0:0:0:0:
320,224,339018,1,8,0:0:0:0:
136,100,339161,1,0,0:0:0:0:
152,352,339446,1,4,0:0:0:0:
136,96,339875,1,0,0:0:0:0:
188,132,340161,1,0,0:0:0:0:
336,268,340303,1,8,0:0:0:0:
392,272,340684,1,8,0:0:0:0:
392,272,340780,1,8,0:0:0:0:
172,120,340875,1,0,0:0:0:0:
328,40,341161,1,0,0:0:0:0:
160,104,341732,1,0,0:0:0:0:
204,92,341875,1,0,0:0:0:0:
204,92,341946,1,0,0:0:0:0:
384,260,342018,1,8,0:0:0:0:
168,92,342303,1,0,0:0:0:0:
156,96,342589,1,0,0:0:0:0:
192,120,342875,1,0,0:0:0:0:
356,264,343303,1,8,0:0:0:0:
180,104,343589,1,0,0:0:0:0:
180,104,343661,1,0,0:0:0:0:
384,340,343732,1,8,0:0:0:0:
156,132,344018,1,0,0:0:0:0:
384,284,344113,1,8,0:0:0:0:
384,284,344208,1,8,0:0:0:0:
104,96,344303,1,0,0:0:0:0:
376,248,344589,5,8,0:0:0:0:
140,100,344661,1,0,0:0:0:0:
140,100,344732,1,0,0:0:0:0:
140,100,344803,1,0,0:0:0:0:
392,268,344875,1,8,0:0:0:0:
384,284,344946,1,8,0:0:0:0:
88,112,345018,1,0,0:0:0:0:
88,112,345089,1,0,0:0:0:0:
392,272,345161,1,8,0:0:0:0:
88,112,345232,1,0,0:0:0:0:
88,112,345303,1,0,0:0:0:0:
88,112,345375,1,0,0:0:0:0:
392,268,345446,1,8,0:0:0:0:
384,284,345518,1,8,0:0:0:0:
88,112,345589,1,0,0:0:0:0:
88,112,345661,1,0,0:0:0:0:
392,268,345732,1,8,0:0:0:0:
88,112,345803,1,0,0:0:0:0:
88,112,345875,1,0,0:0:0:0:
88,112,345946,1,0,0:0:0:0:
392,272,346018,1,8,0:0:0:0:
312,288,346089,1,8,0:0:0:0:
88,112,346161,1,0,0:0:0:0:
88,112,346232,1,0,0:0:0:0:
392,268,346303,1,8,0:0:0:0:
144,96,346446,1,0,0:0:0:0:
388,256,346589,1,8,0:0:0:0:
132,120,346732,1,0,0:0:0:0:
132,120,346803,1,0,0:0:0:0:
132,120,346875,1,0,0:0:0:0:
132,116,347018,1,0,0:0:0:0:
428,288,347161,1,8,0:0:0:0:
124,128,347303,1,0,0:0:0:0:
404,288,347446,1,0,0:0:0:0:
176,136,347589,1,0,0:0:0:0:
132,120,347661,1,0,0:0:0:0:
408,284,347732,1,8,0:0:0:0:
156,152,347875,1,0,0:0:0:0:
88,76,348018,1,0,0:0:0:0:
88,76,348089,1,0,0:0:0:0:
80,72,348161,1,0,0:0:0:0:
88,76,348232,1,0,0:0:0:0:
368,280,348303,1,8,0:0:0:0:
368,280,348375,1,8,0:0:0:0:
372,264,348446,1,8,0:0:0:0:
372,264,348518,1,8,0:0:0:0:
8,0,348589,1,0,0:0:0:0:
8,0,348661,1,0,0:0:0:0:
80,72,348732,1,0,0:0:0:0:
80,72,348803,1,0,0:0:0:0:
404,260,348875,1,8,0:0:0:0:
404,288,348946,1,8,0:0:0:0:
420,260,349018,1,8,0:0:0:0:
464,284,349089,1,8,0:0:0:0:
80,68,349161,1,0,0:0:0:0:
80,68,349232,1,0,0:0:0:0:
148,96,349303,1,0,0:0:0:0:
148,96,349375,1,0,0:0:0:0:
420,260,349446,1,8,0:0:0:0:
420,260,349518,1,8,0:0:0:0:
416,260,349589,1,8,0:0:0:0:
416,260,349661,1,8,0:0:0:0:
168,84,349732,5,0,0:0:0:0:
156,84,349875,1,0,0:0:0:0:
400,264,350018,1,8,0:0:0:0:
132,120,350161,1,0,0:0:0:0:
132,120,350232,1,0,0:0:0:0:
132,120,350303,1,0,0:0:0:0:
132,120,350446,1,0,0:0:0:0:
348,248,350589,1,8,0:0:0:0:
148,88,350732,1,0,0:0:0:0:
340,272,350875,1,8,0:0:0:0:
112,88,351018,1,0,0:0:0:0:
168,96,351089,1,0,0:0:0:0:
336,244,351161,1,8,0:0:0:0:
156,88,351303,1,0,0:0:0:0:
152,96,351446,1,4,0:0:0:0:
156,88,351589,1,0,0:0:0:0:
160,84,351732,1,0,0:0:0:0:
364,268,351875,1,8,0:0:0:0:
160,84,351946,1,0,0:0:0:0:
168,128,352018,1,0,0:0:0:0:
168,128,352161,1,0,0:0:0:0:
344,236,352303,1,8,0:0:0:0:
124,104,352446,1,0,0:0:0:0:
124,104,352518,1,0,0:0:0:0:
308,248,352589,1,8,0:0:0:0:
344,240,352732,1,8,0:0:0:0:
184,80,352803,1,0,0:0:0:0:
344,236,352875,1,8,0:0:0:0:
344,236,352946,1,8,0:0:0:0:
120,80,353018,1,0,0:0:0:0:
376,256,353161,1,12,0:0:0:0:
156,84,353303,1,0,0:0:0:0:
400,264,353446,1,8,0:0:0:0:
132,120,353589,1,0,0:0:0:0:
132,120,353661,1,0,0:0:0:0:
132,120,353732,1,0,0:0:0:0:
132,120,353875,1,0,0:0:0:0:
348,248,354018,1,8,0:0:0:0:
148,88,354161,1,0,0:0:0:0:
340,272,354303,1,8,0:0:0:0:
112,88,354446,5,0,0:0:0:0:
168,96,354518,1,0,0:0:0:0:
336,244,354589,1,8,0:0:0:0:
156,88,354732,1,0,0:0:0:0:
152,96,354875,1,0,0:0:0:0:
88,76,354946,1,0,0:0:0:0:
80,72,355018,1,0,0:0:0:0:
88,76,355089,1,0,0:0:0:0:
368,280,355161,1,8,0:0:0:0:
368,280,355232,1,8,0:0:0:0:
372,264,355303,1,8,0:0:0:0:
372,264,355375,1,8,0:0:0:0:
8,0,355446,1,0,0:0:0:0:
8,0,355518,1,0,0:0:0:0:
80,72,355589,1,0,0:0:0:0:
80,72,355661,1,0,0:0:0:0:
404,260,355732,1,8,0:0:0:0:
404,288,355803,1,8,0:0:0:0:
420,260,355875,1,8,0:0:0:0:
464,284,355946,1,8,0:0:0:0:
80,68,356018,1,0,0:0:0:0:
80,68,356089,1,0,0:0:0:0:
148,96,356161,1,0,0:0:0:0:
148,96,356232,1,0,0:0:0:0:
420,260,356303,1,8,0:0:0:0:
420,260,356375,1,8,0:0:0:0:
416,260,356446,1,8,0:0:0:0:
160,224,356589,5,4,0:0:0:0:
72,268,356732,1,4,0:0:0:0:
72,268,356875,1,4,0:0:0:0:
152,132,357303,1,0,0:0:0:0:
404,288,357446,1,8,0:0:0:0:
404,288,357518,1,8,0:0:0:0:
408,280,357589,1,8,0:0:0:0:
408,280,357661,1,8,0:0:0:0:
384,256,357732,1,8,0:0:0:0:
180,152,357875,1,0,0:0:0:0:
432,308,358018,1,8,0:0:0:0:
432,288,358161,1,8,0:0:0:0:
200,136,358303,1,0,0:0:0:0:
200,136,358446,1,0,0:0:0:0:
200,136,358518,1,0,0:0:0:0:
200,136,358589,1,0,0:0:0:0:
204,140,358732,1,0,0:0:0:0:
480,272,358875,1,8,0:0:0:0:
448,272,359018,1,8,0:0:0:0:
156,136,359161,1,0,0:0:0:0:
156,136,359232,1,0,0:0:0:0:
396,272,359303,1,8,0:0:0:0:
396,272,359375,1,8,0:0:0:0:
140,76,359446,1,0,0:0:0:0:
408,268,359589,1,8,0:0:0:0:
132,64,359732,5,0,0:0:0:0:
456,284,359875,1,8,0:0:0:0:
132,248,360018,5,4,0:0:0:0:
136,112,360303,1,0,0:0:0:0:
308,240,360446,1,8,0:0:0:0:
96,80,360589,1,0,0:0:0:0:
104,88,360732,1,0,0:0:0:0:
400,316,360875,1,8,0:0:0:0:
380,304,361161,1,8,0:0:0:0:
116,80,361232,1,0,0:0:0:0:
320,292,361303,1,8,0:0:0:0:
320,292,361375,1,8,0:0:0:0:
104,120,361446,1,0,0:0:0:0:
124,280,361732,1,4,0:0:0:0:
128,116,362018,1,0,0:0:0:0:
128,116,362161,1,0,0:0:0:0:
152,108,362446,1,0,0:0:0:0:
356,256,362589,1,8,0:0:0:0:
148,144,362875,1,0,0:0:0:0:
148,144,363018,1,0,0:0:0:0:
408,376,363161,1,8,0:0:0:0:
400,320,363303,1,8,0:0:0:0:
128,124,363446,1,0,0:0:0:0:
96,124,363732,1,0,0:0:0:0:
352,280,363875,1,8,0:0:0:0:
108,136,364161,1,0,0:0:0:0:
108,136,364303,1,0,0:0:0:0:
456,384,364589,1,8,0:0:0:0:
152,144,364661,1,0,0:0:0:0:
160,168,364732,1,0,0:0:0:0:
364,276,364803,1,8,0:0:0:0:
108,108,364875,1,0,0:0:0:0:
376,124,365161,1,12,0:0:0:0:
152,124,365446,1,0,0:0:0:0:
152,124,365589,1,0,0:0:0:0:
152,124,365875,1,0,0:0:0:0:
112,60,366018,1,0,0:0:0:0:
384,312,366161,1,8,0:0:0:0:
144,124,366303,1,4,0:0:0:0:
148,128,366589,1,0,0:0:0:0:
120,120,366732,1,0,0:0:0:0:
348,80,366875,1,12,0:0:0:0:
132,112,367161,1,0,0:0:0:0:
400,252,367303,1,8,0:0:0:0:
128,120,367446,1,0,0:0:0:0:
128,120,367589,1,0,0:0:0:0:
420,280,367732,1,8,0:0:0:0:
388,264,368018,1,8,0:0:0:0:
96,80,368089,1,0,0:0:0:0:
376,240,368161,1,8,0:0:0:0:
376,240,368232,1,8,0:0:0:0:
96,80,368303,1,0,0:0:0:0:
448,116,368589,1,4,0:0:0:0:
164,112,368875,1,0,0:0:0:0:
164,112,369018,1,0,0:0:0:0:
164,112,369303,1,0,0:0:0:0:
408,264,369446,1,8,0:0:0:0:
136,124,369732,1,0,0:0:0:0:
136,124,369875,1,0,0:0:0:0:
384,264,370018,1,8,0:0:0:0:
384,260,370161,1,8,0:0:0:0:
424,116,370303,1,4,0:0:0:0:
408,316,370446,1,8,0:0:0:0:
128,116,370732,1,0,0:0:0:0:
128,116,370875,1,0,0:0:0:0:
340,288,371018,1,8,0:0:0:0:
164,124,371161,1,0,0:0:0:0:
148,52,371446,1,0,0:0:0:0:
420,292,371589,1,8,0:0:0:0:
112,92,371732,1,0,0:0:0:0:
88,108,371875,1,0,0:0:0:0:
388,128,372018,1,4,0:0:0:0:
412,248,372161,1,8,0:0:0:0:
412,248,372232,1,8,0:0:0:0:
412,248,372303,1,8,0:0:0:0:
416,144,372446,1,8,0:0:0:0:
412,248,372589,1,8,0:0:0:0:
132,96,372732,1,0,0:0:0:0:
448,192,372875,1,8,0:0:0:0:
132,96,373018,1,0,0:0:0:0:
395,270,373161,5,8,0:0:0:0:
395,270,373232,1,8,0:0:0:0:
142,96,373303,1,0,0:0:0:0:
142,96,373375,1,0,0:0:0:0:
422,298,373446,1,8,0:0:0:0:
86,73,373518,1,0,0:0:0:0:
86,73,373589,1,0,0:0:0:0:
86,73,373661,1,0,0:0:0:0:
404,268,373732,1,8,0:0:0:0:
151,125,373803,1,0,0:0:0:0:
151,125,373875,1,0,0:0:0:0:
151,125,373946,1,0,0:0:0:0:
384,286,374018,1,8,0:0:0:0:
384,286,374089,1,8,0:0:0:0:
151,125,374161,1,0,0:0:0:0:
151,125,374232,1,0,0:0:0:0:
384,286,374303,1,8,0:0:0:0:
151,125,374375,1,0,0:0:0:0:
151,125,374446,1,0,0:0:0:0:
151,125,374518,1,0,0:0:0:0:
387,247,374589,1,8,0:0:0:0:
151,125,374661,1,0,0:0:0:0:
212,120,374732,1,0,0:0:0:0:
212,120,374803,1,0,0:0:0:0:
372,272,374875,1,8,0:0:0:0:
372,272,374946,1,8,0:0:0:0:
151,125,375018,1,0,0:0:0:0:
151,125,375089,1,0,0:0:0:0:
474,290,375161,1,8,0:0:0:0:
151,125,375232,1,0,0:0:0:0:
151,125,375303,1,0,0:0:0:0:
151,125,375375,1,0,0:0:0:0:
444,308,375446,1,8,0:0:0:0:
464,345,375518,1,8,0:0:0:0:
151,125,375589,1,0,0:0:0:0:
151,125,375661,1,0,0:0:0:0:
224,156,375732,1,0,0:0:0:0:
151,125,375803,1,0,0:0:0:0:
151,125,375875,1,0,0:0:0:0:
151,125,375946,1,0,0:0:0:0:
439,309,376018,1,8,0:0:0:0:
439,309,376089,1,8,0:0:0:0:
151,125,376161,1,0,0:0:0:0:
151,125,376232,1,0,0:0:0:0:
387,247,376303,1,8,0:0:0:0:
151,125,376375,1,0,0:0:0:0:
160,144,376446,1,0,0:0:0:0:
160,144,376518,1,0,0:0:0:0:
97,120,376589,1,0,0:0:0:0:
151,125,376661,1,0,0:0:0:0:
151,125,376732,1,0,0:0:0:0:
151,125,376803,1,0,0:0:0:0:
409,273,376875,1,8,0:0:0:0:
164,130,376946,1,0,0:0:0:0:
151,125,377018,1,0,0:0:0:0:
151,125,377089,1,0,0:0:0:0:
469,312,377161,1,8,0:0:0:0:
469,312,377232,1,8,0:0:0:0:
151,125,377303,1,0,0:0:0:0:
151,125,377375,1,0,0:0:0:0:
498,311,377446,1,8,0:0:0:0:
151,125,377518,1,0,0:0:0:0:
151,125,377589,1,0,0:0:0:0:
151,125,377661,1,0,0:0:0:0:
420,284,377732,1,8,0:0:0:0:
420,284,377803,1,8,0:0:0:0:
151,125,377875,1,0,0:0:0:0:
151,125,377946,1,0,0:0:0:0:
387,247,378018,1,8,0:0:0:0:
151,125,378089,1,0,0:0:0:0:
151,125,378161,1,0,0:0:0:0:
442,311,378232,1,8,0:0:0:0:
442,311,378303,1,8,0:0:0:0:
407,257,378375,1,8,0:0:0:0:
151,125,378446,1,0,0:0:0:0:
151,125,378518,1,0,0:0:0:0:
390,309,378589,1,8,0:0:0:0:
151,125,378661,1,0,0:0:0:0:
151,125,378732,1,0,0:0:0:0:
151,125,378803,1,0,0:0:0:0:
409,286,378875,1,8,0:0:0:0:
151,125,378946,1,0,0:0:0:0:
144,104,379018,1,0,0:0:0:0:
144,104,379089,1,0,0:0:0:0:
151,125,379161,1,0,0:0:0:0:
168,144,379232,1,0,0:0:0:0:
151,125,379303,1,0,0:0:0:0:
82,118,379375,1,0,0:0:0:0:
335,296,379446,1,8,0:0:0:0:
151,125,379518,1,0,0:0:0:0:
151,125,379589,1,0,0:0:0:0:
151,125,379661,1,0,0:0:0:0:
387,247,379732,1,8,0:0:0:0:
394,253,379803,1,8,0:0:0:0:
394,253,379875,1,8,0:0:0:0:
394,253,379946,1,8,0:0:0:0:
162,102,380018,1,0,0:0:0:0:
162,102,380089,1,0,0:0:0:0:
162,102,380161,1,0,0:0:0:0:
136,83,380232,1,0,0:0:0:0:
393,263,380303,1,8,0:0:0:0:
363,211,380375,1,8,0:0:0:0:
393,263,380446,1,8,0:0:0:0:
387,247,380518,1,8,0:0:0:0:
96,81,380589,1,0,0:0:0:0:
96,81,380661,1,0,0:0:0:0:
96,81,380732,1,0,0:0:0:0:
96,81,380803,1,0,0:0:0:0:
96,81,380875,1,0,0:0:0:0:
96,81,380946,1,0,0:0:0:0:
96,81,381018,1,0,0:0:0:0:
96,81,381089,1,0,0:0:0:0:
416,248,381161,1,8,0:0:0:0:
424,281,381232,1,8,0:0:0:0:
56,65,381303,1,0,0:0:0:0:
56,65,381375,1,0,0:0:0:0:
369,241,381446,1,8,0:0:0:0:
56,65,381518,1,0,0:0:0:0:
56,65,381589,1,0,0:0:0:0:
56,65,381661,1,0,0:0:0:0:
56,65,381732,1,0,0:0:0:0:
56,65,381803,1,0,0:0:0:0:
56,65,381875,1,0,0:0:0:0:
56,65,381946,1,0,0:0:0:0:
366,252,382018,1,8,0:0:0:0:
56,65,382089,1,0,0:0:0:0:
56,65,382161,1,0,0:0:0:0:
80,87,382232,1,0,0:0:0:0:
366,252,382303,1,8,0:0:0:0:
396,307,382375,1,8,0:0:0:0:
56,65,382446,1,0,0:0:0:0:
56,65,382518,1,0,0:0:0:0:
56,65,382589,1,0,0:0:0:0:
56,65,382661,1,0,0:0:0:0:
56,65,382732,1,0,0:0:0:0:
56,65,382803,1,0,0:0:0:0:
378,281,382875,1,8,0:0:0:0:
56,65,382946,1,0,0:0:0:0:
56,65,383018,1,0,0:0:0:0:
58,90,383089,1,0,0:0:0:0:
403,278,383161,1,8,0:0:0:0:
359,286,383232,1,8,0:0:0:0:
56,65,383303,1,0,0:0:0:0:
56,65,383375,1,0,0:0:0:0:
56,65,383446,1,0,0:0:0:0:
56,65,383518,1,0,0:0:0:0:
56,65,383589,1,0,0:0:0:0:
56,65,383661,1,0,0:0:0:0:
391,241,383732,1,8,0:0:0:0:
56,65,383803,1,0,0:0:0:0:
56,65,383875,1,0,0:0:0:0:
56,65,383946,1,0,0:0:0:0:
366,272,384018,1,8,0:0:0:0:
429,353,384089,1,8,0:0:0:0:
56,65,384161,1,0,0:0:0:0:
56,65,384232,1,0,0:0:0:0:
56,65,384303,1,0,0:0:0:0:
56,65,384375,1,0,0:0:0:0:
56,65,384446,1,0,0:0:0:0:
56,65,384518,1,0,0:0:0:0:
396,289,384589,1,8,0:0:0:0:
56,65,384661,1,0,0:0:0:0:
56,65,384732,1,0,0:0:0:0:
58,90,384803,1,0,0:0:0:0:
399,236,384875,1,8,0:0:0:0:
429,353,384946,1,8,0:0:0:0:
56,65,385018,1,0,0:0:0:0:
56,65,385089,1,0,0:0:0:0:
412,300,385161,1,8,0:0:0:0:
412,300,385232,1,8,0:0:0:0:
412,300,385303,1,8,0:0:0:0:
56,65,385375,1,0,0:0:0:0:
395,307,385446,1,8,0:0:0:0:
56,65,385518,1,0,0:0:0:0:
56,65,385589,1,0,0:0:0:0:
56,65,385661,1,0,0:0:0:0:
360,343,385732,1,8,0:0:0:0:
378,348,385803,1,8,0:0:0:0:
56,65,385875,1,0,0:0:0:0:
56,65,385946,1,0,0:0:0:0:
416,272,386018,1,8,0:0:0:0:
56,65,386089,1,0,0:0:0:0:
416,272,386161,1,8,0:0:0:0:
56,65,386232,1,0,0:0:0:0:
416,272,386303,1,8,0:0:0:0:
56,65,386375,1,0,0:0:0:0:
56,65,386446,1,0,0:0:0:0:
58,90,386518,1,0,0:0:0:0:
383,236,386589,1,8,0:0:0:0:
360,256,386661,1,8,0:0:0:0:
140,104,386732,1,0,0:0:0:0:
113,83,386875,1,4,0:0:0:0:
136,112,387018,1,0,0:0:0:0:
363,254,387161,1,12,0:0:0:0:
136,112,387303,1,0,0:0:0:0:
256,192,387446,12,0,389018,0:0:0:0:
96,272,389161,5,4,0:0:0:0:
96,272,389446,1,4,0:0:0:0:
96,272,389732,1,4,0:0:0:0:
440,260,390018,1,8,0:0:0:0:
432,264,390089,1,8,0:0:0:0:
432,264,390161,1,8,0:0:0:0:
432,264,390303,1,8,0:0:0:0:
432,264,390446,1,8,0:0:0:0:
140,84,390589,1,0,0:0:0:0:
140,84,390732,1,0,0:0:0:0:
382,269,390875,5,12,0:0:0:0:
152,104,391018,1,0,0:0:0:0:
152,104,391089,1,0,0:0:0:0:
142,107,391161,1,0,0:0:0:0:
439,291,391303,1,8,0:0:0:0:
130,121,391446,1,0,0:0:0:0:
130,121,391589,1,0,0:0:0:0:
447,292,391732,1,8,0:0:0:0:
167,131,391875,1,0,0:0:0:0:
116,104,391946,1,0,0:0:0:0:
167,131,392018,1,0,0:0:0:0:
116,100,392089,1,0,0:0:0:0:
167,131,392161,1,0,0:0:0:0:
422,287,392303,1,8,0:0:0:0:
158,119,392446,1,0,0:0:0:0:
158,119,392589,1,0,0:0:0:0:
158,117,392732,1,0,0:0:0:0:
375,219,392875,1,8,0:0:0:0:
174,147,393018,1,0,0:0:0:0:
103,95,393089,1,0,0:0:0:0:
408,292,393161,1,8,0:0:0:0:
108,124,393232,1,0,0:0:0:0:
196,107,393303,1,0,0:0:0:0:
411,274,393446,1,8,0:0:0:0:
118,79,393589,1,0,0:0:0:0:
118,79,393732,1,0,0:0:0:0:
150,114,393803,1,0,0:0:0:0:
444,252,393875,1,8,0:0:0:0:
118,79,394018,1,0,0:0:0:0:
118,79,394161,1,0,0:0:0:0:
397,90,394303,1,12,0:0:0:0:
152,104,394446,1,0,0:0:0:0:
152,104,394518,1,0,0:0:0:0:
147,103,394589,1,0,0:0:0:0:
108,124,394661,1,0,0:0:0:0:
147,103,394732,1,0,0:0:0:0:
389,251,394875,1,8,0:0:0:0:
160,91,395018,1,0,0:0:0:0:
427,274,395161,1,8,0:0:0:0:
159,105,395303,1,0,0:0:0:0:
159,105,395375,1,0,0:0:0:0:
159,105,395446,1,0,0:0:0:0:
159,105,395589,1,0,0:0:0:0:
393,263,395732,1,8,0:0:0:0:
393,263,395875,1,8,0:0:0:0:
432,320,395946,1,8,0:0:0:0:
190,80,396018,1,0,0:0:0:0:
170,152,396161,1,0,0:0:0:0:
388,271,396303,1,8,0:0:0:0:
393,263,396446,1,8,0:0:0:0:
462,315,396518,1,8,0:0:0:0:
180,105,396589,1,0,0:0:0:0:
180,105,396732,1,0,0:0:0:0:
427,274,396875,1,8,0:0:0:0:
146,92,397018,1,0,0:0:0:0:
146,92,397089,1,0,0:0:0:0:
146,92,397161,1,0,0:0:0:0:
406,262,397303,1,8,0:0:0:0:
152,104,397375,1,0,0:0:0:0:
402,260,397446,1,8,0:0:0:0:
402,260,397518,1,8,0:0:0:0:
110,78,397589,1,0,0:0:0:0:
399,81,397732,1,12,0:0:0:0:
152,104,397875,1,0,0:0:0:0:
397,295,398018,1,8,0:0:0:0:
392,288,398089,1,8,0:0:0:0:
127,96,398161,1,0,0:0:0:0:
444,294,398303,1,8,0:0:0:0:
136,110,398446,1,0,0:0:0:0:
460,332,398589,1,8,0:0:0:0:
122,113,398732,1,0,0:0:0:0:
121,112,398803,1,0,0:0:0:0:
121,112,398875,1,0,0:0:0:0:
127,96,398946,1,0,0:0:0:0:
121,112,399018,1,0,0:0:0:0:
398,322,399161,1,8,0:0:0:0:
398,322,399303,1,8,0:0:0:0:
131,101,399446,1,0,0:0:0:0:
186,148,399589,1,0,0:0:0:0:
114,76,399661,1,0,0:0:0:0:
382,247,399732,1,8,0:0:0:0:
382,247,399875,1,8,0:0:0:0:
353,261,400018,1,8,0:0:0:0:
92,107,400161,1,0,0:0:0:0:
382,247,400303,1,8,0:0:0:0:
97,55,400446,1,0,0:0:0:0:
97,55,400518,1,0,0:0:0:0:
164,136,400589,1,0,0:0:0:0:
120,96,400661,1,0,0:0:0:0:
404,310,400732,1,8,0:0:0:0:
424,300,400875,1,8,0:0:0:0:
395,273,401018,1,8,0:0:0:0:
86,99,401161,1,0,0:0:0:0:
129,88,401303,1,0,0:0:0:0:
129,88,401446,1,0,0:0:0:0:
120,96,401518,1,0,0:0:0:0:
387,272,401589,1,8,0:0:0:0:
371,265,401732,1,8,0:0:0:0:
107,81,401875,1,0,0:0:0:0:
387,272,402018,1,8,0:0:0:0:
107,81,402161,1,0,0:0:0:0:
107,81,402232,1,0,0:0:0:0:
107,81,402303,1,0,0:0:0:0:
387,272,402446,1,8,0:0:0:0:
387,272,402589,1,8,0:0:0:0:
147,103,402732,1,0,0:0:0:0:
387,272,402875,1,8,0:0:0:0:
352,272,402946,1,8,0:0:0:0:
347,240,403018,1,8,0:0:0:0:
347,240,403089,1,8,0:0:0:0:
163,105,403161,1,0,0:0:0:0:
378,276,403303,1,8,0:0:0:0:
113,102,403446,1,0,0:0:0:0:
113,102,403589,1,0,0:0:0:0:
406,320,403732,1,8,0:0:0:0:
376,280,403803,1,8,0:0:0:0:
145,128,403875,1,0,0:0:0:0:
145,128,403946,1,0,0:0:0:0:
145,128,404018,1,0,0:0:0:0:
334,283,404161,1,8,0:0:0:0:
158,112,404303,1,0,0:0:0:0:
158,112,404446,1,0,0:0:0:0:
382,269,404589,5,12,0:0:0:0:
136,56,404732,1,0,0:0:0:0:
136,56,404803,1,0,0:0:0:0:
142,107,404875,1,0,0:0:0:0:
439,291,405018,1,8,0:0:0:0:
130,121,405161,1,0,0:0:0:0:
130,121,405303,1,0,0:0:0:0:
447,292,405446,1,8,0:0:0:0:
167,131,405589,1,0,0:0:0:0:
120,96,405661,1,0,0:0:0:0:
167,131,405732,1,0,0:0:0:0:
167,131,405875,1,0,0:0:0:0:
422,287,406018,1,8,0:0:0:0:
368,288,406089,1,8,0:0:0:0:
158,119,406161,1,0,0:0:0:0:
158,119,406303,1,0,0:0:0:0:
158,117,406446,1,0,0:0:0:0:
375,219,406589,1,8,0:0:0:0:
174,147,406732,1,0,0:0:0:0:
103,95,406803,1,0,0:0:0:0:
408,292,406875,1,8,0:0:0:0:
196,107,407018,1,0,0:0:0:0:
411,274,407161,1,8,0:0:0:0:
118,79,407303,1,0,0:0:0:0:
118,79,407446,1,0,0:0:0:0:
150,114,407518,1,0,0:0:0:0:
444,252,407589,1,8,0:0:0:0:
436,300,407661,1,8,0:0:0:0:
118,79,407732,1,0,0:0:0:0:
118,79,407875,1,0,0:0:0:0:
397,90,408018,1,12,0:0:0:0:
144,48,408161,1,0,0:0:0:0:
144,48,408232,1,0,0:0:0:0:
147,103,408303,1,0,0:0:0:0:
147,103,408446,1,0,0:0:0:0:
389,251,408589,1,8,0:0:0:0:
160,91,408732,1,0,0:0:0:0:
427,274,408875,1,8,0:0:0:0:
159,105,409018,1,0,0:0:0:0:
159,105,409089,1,0,0:0:0:0:
159,105,409161,1,0,0:0:0:0:
159,105,409303,1,0,0:0:0:0:
393,263,409446,1,8,0:0:0:0:
393,263,409589,1,8,0:0:0:0:
392,276,409661,1,8,0:0:0:0:
190,80,409732,1,0,0:0:0:0:
170,152,409875,1,0,0:0:0:0:
388,271,410018,1,8,0:0:0:0:
393,263,410161,1,8,0:0:0:0:
462,315,410232,1,8,0:0:0:0:
180,105,410303,1,0,0:0:0:0:
180,105,410446,1,0,0:0:0:0:
427,274,410589,1,8,0:0:0:0:
146,92,410732,1,0,0:0:0:0:
146,92,410803,1,0,0:0:0:0:
146,92,410875,1,0,0:0:0:0:
406,262,411018,1,8,0:0:0:0:
402,260,411161,1,8,0:0:0:0:
402,260,411232,1,8,0:0:0:0:
110,78,411303,1,0,0:0:0:0:
399,81,411446,1,12,0:0:0:0:
136,56,411589,1,0,0:0:0:0:
397,295,411732,1,8,0:0:0:0:
127,96,411875,1,0,0:0:0:0:
152,104,411946,1,0,0:0:0:0:
444,294,412018,1,8,0:0:0:0:
136,110,412161,1,0,0:0:0:0:
460,332,412303,1,8,0:0:0:0:
122,113,412446,1,0,0:0:0:0:
121,112,412518,1,0,0:0:0:0:
121,112,412589,1,0,0:0:0:0:
121,112,412732,1,0,0:0:0:0:
398,322,412875,1,8,0:0:0:0:
398,322,413018,1,8,0:0:0:0:
131,101,413161,1,0,0:0:0:0:
186,148,413303,1,0,0:0:0:0:
114,76,413375,1,0,0:0:0:0:
382,247,413446,1,8,0:0:0:0:
382,247,413589,1,8,0:0:0:0:
353,261,413732,1,8,0:0:0:0:
92,107,413875,1,0,0:0:0:0:
382,247,414018,1,8,0:0:0:0:
97,55,414161,1,0,0:0:0:0:
97,55,414232,1,0,0:0:0:0:
164,136,414303,1,0,0:0:0:0:
404,310,414446,1,8,0:0:0:0:
424,300,414589,1,8,0:0:0:0:
395,273,414732,1,8,0:0:0:0:
416,300,414803,1,8,0:0:0:0:
86,99,414875,1,0,0:0:0:0:
129,88,415018,1,0,0:0:0:0:
129,88,415161,1,0,0:0:0:0:
387,272,415303,1,8,0:0:0:0:
371,265,415446,1,8,0:0:0:0:
107,81,415589,1,0,0:0:0:0:
387,272,415732,1,8,0:0:0:0:
376,272,415803,1,8,0:0:0:0:
107,81,415875,1,0,0:0:0:0:
107,81,415946,1,0,0:0:0:0:
107,81,416018,1,0,0:0:0:0:
387,272,416161,1,8,0:0:0:0:
387,272,416303,1,8,0:0:0:0:
147,103,416446,1,0,0:0:0:0:
387,272,416589,1,8,0:0:0:0:
312,248,416661,1,8,0:0:0:0:
144,144,416732,1,0,0:0:0:0:
163,105,416803,1,0,0:0:0:0:
347,240,416875,1,8,0:0:0:0:
378,276,417018,1,8,0:0:0:0:
304,320,417161,1,8,0:0:0:0:
406,320,417303,1,8,0:0:0:0:
113,102,417446,1,0,0:0:0:0:
360,272,417589,1,8,0:0:0:0:
360,272,417661,1,8,0:0:0:0:
360,272,417732,1,8,0:0:0:0:
334,283,417875,1,8,0:0:0:0:
158,112,418018,1,0,0:0:0:0:
158,112,418161,1,0,0:0:0:0:
382,269,418303,5,12,0:0:0:0:
152,104,418446,1,0,0:0:0:0:
152,104,418518,1,0,0:0:0:0:
142,107,418589,1,0,0:0:0:0:
439,291,418732,1,8,0:0:0:0:
130,121,418875,1,0,0:0:0:0:
130,121,419018,1,0,0:0:0:0:
447,292,419161,1,8,0:0:0:0:
167,131,419303,1,0,0:0:0:0:
116,104,419375,1,0,0:0:0:0:
167,131,419446,1,0,0:0:0:0:
116,100,419518,1,0,0:0:0:0:
167,131,419589,1,0,0:0:0:0:
422,287,419732,1,8,0:0:0:0:
158,119,419875,1,0,0:0:0:0:
158,119,420018,1,0,0:0:0:0:
158,117,420161,1,0,0:0:0:0:
375,219,420303,1,8,0:0:0:0:
174,147,420446,1,0,0:0:0:0:
103,95,420518,1,0,0:0:0:0:
408,292,420589,1,8,0:0:0:0:
108,124,420661,1,0,0:0:0:0:
196,107,420732,1,0,0:0:0:0:
411,274,420875,1,8,0:0:0:0:
118,79,421018,1,0,0:0:0:0:
118,79,421161,1,0,0:0:0:0:
150,114,421232,1,0,0:0:0:0:
444,252,421303,1,8,0:0:0:0:
118,79,421446,1,0,0:0:0:0:
118,79,421589,1,0,0:0:0:0:
397,90,421732,1,12,0:0:0:0:
152,104,421875,1,0,0:0:0:0:
152,104,421946,1,0,0:0:0:0:
147,103,422018,1,0,0:0:0:0:
108,124,422089,1,0,0:0:0:0:
147,103,422161,1,0,0:0:0:0:
389,251,422303,1,8,0:0:0:0:
160,91,422446,1,0,0:0:0:0:
427,274,422589,1,8,0:0:0:0:
159,105,422732,1,0,0:0:0:0:
159,105,422803,1,0,0:0:0:0:
159,105,422875,1,0,0:0:0:0:
159,105,423018,1,0,0:0:0:0:
393,263,423161,1,8,0:0:0:0:
393,263,423303,1,8,0:0:0:0:
432,320,423375,1,8,0:0:0:0:
190,80,423446,1,0,0:0:0:0:
170,152,423589,1,0,0:0:0:0:
388,271,423732,1,8,0:0:0:0:
393,263,423875,1,8,0:0:0:0:
462,315,423946,1,8,0:0:0:0:
180,105,424018,1,0,0:0:0:0:
180,105,424161,1,0,0:0:0:0:
427,274,424303,1,8,0:0:0:0:
146,92,424446,1,0,0:0:0:0:
146,92,424518,1,0,0:0:0:0:
146,92,424589,1,0,0:0:0:0:
406,262,424732,1,8,0:0:0:0:
152,104,424803,1,0,0:0:0:0:
402,260,424875,1,8,0:0:0:0:
402,260,424946,1,8,0:0:0:0:
110,78,425018,1,0,0:0:0:0:
399,81,425161,1,12,0:0:0:0:
152,104,425303,1,0,0:0:0:0:
397,295,425446,1,8,0:0:0:0:
392,288,425518,1,8,0:0:0:0:
127,96,425589,1,0,0:0:0:0:
444,294,425732,1,8,0:0:0:0:
136,110,425875,1,0,0:0:0:0:
460,332,426018,1,8,0:0:0:0:
122,113,426161,1,0,0:0:0:0:
121,112,426232,1,0,0:0:0:0:
121,112,426303,1,0,0:0:0:0:
127,96,426375,1,0,0:0:0:0:
121,112,426446,1,0,0:0:0:0:
398,322,426589,1,8,0:0:0:0:
398,322,426732,1,8,0:0:0:0:
131,101,426875,1,0,0:0:0:0:
186,148,427018,1,0,0:0:0:0:
114,76,427089,1,0,0:0:0:0:
382,247,427161,1,8,0:0:0:0:
382,247,427303,1,8,0:0:0:0:
353,261,427446,1,8,0:0:0:0:
92,107,427589,1,0,0:0:0:0:
382,247,427732,1,8,0:0:0:0:
97,55,427875,1,0,0:0:0:0:
97,55,427946,1,0,0:0:0:0:
164,136,428018,1,0,0:0:0:0:
120,96,428089,1,0,0:0:0:0:
404,310,428161,1,8,0:0:0:0:
424,300,428303,1,8,0:0:0:0:
395,273,428446,1,8,0:0:0:0:
86,99,428589,1,0,0:0:0:0:
129,88,428732,1,0,0:0:0:0:
129,88,428875,1,0,0:0:0:0:
120,96,428946,1,0,0:0:0:0:
387,272,429018,1,8,0:0:0:0:
371,265,429161,1,8,0:0:0:0:
107,81,429303,1,0,0:0:0:0:
387,272,429446,1,8,0:0:0:0:
107,81,429589,1,0,0:0:0:0:
107,81,429661,1,0,0:0:0:0:
107,81,429732,1,0,0:0:0:0:
387,272,429875,1,8,0:0:0:0:
387,272,430018,1,8,0:0:0:0:
147,103,430161,1,0,0:0:0:0:
387,272,430303,1,8,0:0:0:0:
352,272,430375,1,8,0:0:0:0:
347,240,430446,1,8,0:0:0:0:
347,240,430518,1,8,0:0:0:0:
163,105,430589,1,0,0:0:0:0:
378,276,430732,1,8,0:0:0:0:
113,102,430875,1,0,0:0:0:0:
113,102,431018,1,0,0:0:0:0:
406,320,431161,1,8,0:0:0:0:
376,280,431232,1,8,0:0:0:0:
145,128,431303,1,0,0:0:0:0:
145,128,431375,1,0,0:0:0:0:
145,128,431446,1,0,0:0:0:0:
334,283,431589,1,8,0:0:0:0:
158,112,431732,1,0,0:0:0:0:
158,112,431875,1,0,0:0:0:0:
382,269,432018,5,12,0:0:0:0:
136,56,432161,1,0,0:0:0:0:
136,56,432232,1,0,0:0:0:0:
142,107,432303,1,0,0:0:0:0:
439,291,432446,1,8,0:0:0:0:
130,121,432589,1,0,0:0:0:0:
120,96,432661,1,0,0:0:0:0:
130,121,432732,1,0,0:0:0:0:
447,292,432875,1,8,0:0:0:0:
167,131,433018,1,0,0:0:0:0:
116,104,433089,1,0,0:0:0:0:
167,131,433161,1,0,0:0:0:0:
167,131,433303,1,0,0:0:0:0:
422,287,433446,1,8,0:0:0:0:
158,119,433589,1,0,0:0:0:0:
158,119,433732,1,0,0:0:0:0:
158,117,433875,1,0,0:0:0:0:
375,219,434018,1,8,0:0:0:0:
174,147,434161,1,0,0:0:0:0:
103,95,434232,1,0,0:0:0:0:
408,292,434303,1,8,0:0:0:0:
196,107,434446,1,0,0:0:0:0:
411,274,434589,1,8,0:0:0:0:
118,79,434732,1,0,0:0:0:0:
118,79,434875,1,0,0:0:0:0:
150,114,434946,1,0,0:0:0:0:
444,252,435018,1,8,0:0:0:0:
436,300,435089,1,8,0:0:0:0:
118,79,435161,1,0,0:0:0:0:
118,79,435303,1,0,0:0:0:0:
397,90,435446,1,12,0:0:0:0:
144,48,435589,1,0,0:0:0:0:
144,48,435661,1,0,0:0:0:0:
147,103,435732,1,0,0:0:0:0:
147,103,435875,1,0,0:0:0:0:
389,251,436018,1,8,0:0:0:0:
160,91,436161,1,0,0:0:0:0:
427,274,436303,1,8,0:0:0:0:
159,105,436446,1,0,0:0:0:0:
159,105,436518,1,0,0:0:0:0:
159,105,436589,1,0,0:0:0:0:
159,105,436732,1,0,0:0:0:0:
393,263,436875,1,8,0:0:0:0:
393,263,437018,1,8,0:0:0:0:
392,276,437089,1,8,0:0:0:0:
190,80,437161,1,0,0:0:0:0:
170,152,437303,1,0,0:0:0:0:
388,271,437446,1,8,0:0:0:0:
393,263,437589,1,8,0:0:0:0:
462,315,437661,1,8,0:0:0:0:
180,105,437732,1,0,0:0:0:0:
180,105,437875,1,0,0:0:0:0:
427,274,438018,1,8,0:0:0:0:
146,92,438161,1,0,0:0:0:0:
146,92,438232,1,0,0:0:0:0:
146,92,438303,1,0,0:0:0:0:
406,262,438446,1,8,0:0:0:0:
402,260,438589,1,8,0:0:0:0:
402,260,438661,1,8,0:0:0:0:
110,78,438732,1,0,0:0:0:0:
399,81,438875,1,12,0:0:0:0:
136,56,439018,1,0,0:0:0:0:
397,295,439161,1,8,0:0:0:0:
127,96,439303,1,0,0:0:0:0:
152,104,439375,1,0,0:0:0:0:
444,294,439446,1,8,0:0:0:0:
136,110,439589,1,0,0:0:0:0:
460,332,439732,1,8,0:0:0:0:
122,113,439875,1,0,0:0:0:0:
121,112,439946,1,0,0:0:0:0:
121,112,440018,1,0,0:0:0:0:
121,112,440161,1,0,0:0:0:0:
398,322,440303,1,8,0:0:0:0:
398,322,440446,1,8,0:0:0:0:
131,101,440589,1,0,0:0:0:0:
186,148,440732,1,0,0:0:0:0:
114,76,440803,1,0,0:0:0:0:
382,247,440875,1,8,0:0:0:0:
382,247,441018,1,8,0:0:0:0:
353,261,441161,1,8,0:0:0:0:
92,107,441303,1,0,0:0:0:0:
382,247,441446,1,8,0:0:0:0:
97,55,441589,1,0,0:0:0:0:
97,55,441661,1,0,0:0:0:0:
164,136,441732,1,0,0:0:0:0:
404,310,441875,1,8,0:0:0:0:
424,300,442018,1,8,0:0:0:0:
395,273,442161,1,8,0:0:0:0:
416,300,442232,1,8,0:0:0:0:
86,99,442303,1,0,0:0:0:0:
129,88,442446,1,0,0:0:0:0:
129,88,442589,1,0,0:0:0:0:
387,272,442732,1,8,0:0:0:0:
371,265,442875,1,8,0:0:0:0:
107,81,443018,1,0,0:0:0:0:
387,272,443161,1,8,0:0:0:0:
376,272,443232,1,8,0:0:0:0:
107,81,443303,1,0,0:0:0:0:
107,81,443375,1,0,0:0:0:0:
107,81,443446,1,0,0:0:0:0:
387,272,443589,1,8,0:0:0:0:
387,272,443732,1,8,0:0:0:0:
147,103,443875,1,0,0:0:0:0:
387,272,444018,1,8,0:0:0:0:
312,248,444089,1,8,0:0:0:0:
144,144,444161,1,0,0:0:0:0:
163,105,444232,1,0,0:0:0:0:
347,240,444303,1,8,0:0:0:0:
378,276,444446,1,8,0:0:0:0:
304,320,444589,1,8,0:0:0:0:
406,320,444732,1,8,0:0:0:0:
113,102,444875,1,0,0:0:0:0:
360,272,445018,1,8,0:0:0:0:
360,272,445089,1,8,0:0:0:0:
360,272,445161,1,8,0:0:0:0:
334,283,445303,5,8,0:0:0:0:
158,112,445446,1,0,0:0:0:0:
158,112,445589,1,0,0:0:0:0:
256,192,445732,12,0,471446,0:0:0:0:
