osu file format v14

[General]
AudioFilename: audio.mp3
AudioLeadIn: 0
PreviewTime: 70020
Countdown: 0
SampleSet: Normal
StackLeniency: 0.7
Mode: 0
LetterboxInBreaks: 0
SkinPreference:MrKOSIEJS's Devil Skin
EpilepsyWarning: 1
WidescreenStoryboard: 1

[Editor]
Bookmarks: 85733,101161,114875,128589,132018,159446,173161,190303,204018,217732,231446,245161,270875,289732,305161,312018,318875,332589,344589,346303,360018,373732,387446,390875,418303,445732
DistanceSpacing: 1
BeatDivisor: 3
GridSize: 4
TimelineZoom: 2.6

[Metadata]
Title:Tsukiakari
TitleUnicode:Tsukiakari
Artist:Whispered
ArtistUnicode:Whispered
Creator:MrKOSIEJ
Version:Future Month
Source:
Tags:kosiej mrk Raiden hard rock metal death melodic eastern folk metsutan songs of the void 月明
BeatmapID:991258
BeatmapSetID:462888

[Difficulty]
HPDrainRate:6
CircleSize:4.2
OverallDifficulty:9.2
ApproachRate:9.8
SliderMultiplier:2
SliderTickRate:1

[Events]
//Background and Video events
0,0,"samurai-artwork-1.jpg",0,0
//Break Periods
2,289932,295253
2,296503,301253
//Storyboard Layer 0 (Background)
//Storyboard Layer 1 (Fail)
//Storyboard Layer 2 (Pass)
//Storyboard Layer 3 (Foreground)
//Storyboard Sound Samples

[TimingPoints]
4020,500,4,1,1,70,1,0
70020,500,4,1,1,70,1,0
72019,285.714285714286,6,1,1,70,1,0
101161,285.714285714286,6,1,1,70,1,0
101161,-100,4,1,1,70,0,1
128589,-100,4,1,1,70,0,0
159446,-133.333333333333,4,1,1,70,0,0
159447,-133.333333333333,4,1,1,70,0,0
159733,-100,4,1,1,70,0,0
161161,-133.333333333333,4,1,1,70,0,0
161446,-100,4,1,1,70,0,0
162875,-133.333333333333,4,1,1,70,0,0
163161,-100,4,1,1,70,0,0
164589,-200,4,1,1,70,0,0
164875,-100,4,1,1,70,0,0
166303,-133.333333333333,4,1,1,70,0,0
166589,-100,4,1,1,70,0,0
168232,-100,4,1,1,5,0,0
168303,-100,4,1,1,70,0,0
168518,-100,4,1,1,5,0,0
168589,-100,4,1,1,70,0,0
168803,-100,4,1,1,5,0,0
168875,-100,4,1,1,70,0,0
169732,-133.333333333333,4,1,1,70,0,0
170018,-100,4,1,1,70,0,0
171375,-100,4,1,1,5,0,0
171446,-100,4,1,1,70,0,0
173161,-100,4,1,1,70,0,0
187732,-200,4,1,1,70,0,0
188018,-100,4,1,1,70,0,0
190303,-100,4,1,1,70,0,1
217732,-100,4,1,1,70,0,0
246875,-200,4,1,1,40,0,0
247161,-100,4,1,1,40,0,0
250303,-200,4,1,1,40,0,0
250446,-100,4,1,1,40,0,0
253446,-133.333333333333,4,1,1,40,0,0
253589,-100,4,1,1,40,0,0
255446,-200,4,1,1,40,0,0
256589,-100,4,1,1,40,0,0
258875,-100,4,1,1,50,0,0
259732,-200,4,1,1,50,0,0
259875,-100,4,1,1,50,0,0
261446,-200,4,1,1,50,0,0
261589,-100,4,1,1,50,0,0
264875,-200,4,1,1,50,0,0
265161,-100,4,1,1,50,0,0
270875,-100,4,1,1,70,0,0
278589,-200,4,1,1,70,0,0
278875,-100,4,1,1,70,0,0
286303,-133.333333333333,4,1,1,70,0,0
287446,-100,4,1,1,70,0,0
288018,-133.333333333333,4,1,1,70,0,0
288304,-100,4,1,1,70,0,0
304875,-100,4,3,0,40,0,0
305161,-100,4,3,0,40,0,0
308589,-200,4,3,0,40,0,0
308876,-100,4,3,0,40,0,0
315446,-200,4,3,0,40,0,0
315733,-100,4,3,0,40,0,0
317732,-100,4,1,1,50,0,0
322303,-200,4,1,1,50,0,0
322590,-100,4,1,1,50,0,0
329161,-200,4,1,1,50,0,0
329447,-100,4,1,1,50,0,0
332589,-200,4,1,1,50,0,0
332733,-100,4,1,1,50,0,0
334303,-200,4,1,1,50,0,0
336161,-100,4,1,1,50,0,0
337732,-200,4,1,1,50,0,0
339590,-100,4,1,1,50,0,0
341161,-200,4,1,1,50,0,0
343019,-100,4,1,1,50,0,0
344589,-100,4,1,1,70,0,0
346303,-100,4,1,1,70,0,1
360018,-200,4,1,1,70,0,0
360161,-100,4,1,1,70,0,0
361732,-200,4,1,1,70,0,0
362019,-100,4,1,1,70,0,0
365161,-200,4,1,1,70,0,0
365447,-100,4,1,1,70,0,0
368803,-100,4,1,1,5,0,0
368875,-100,4,1,1,70,0,0
369089,-100,4,1,1,5,0,0
369161,-100,4,1,1,70,0,0
369375,-100,4,1,1,5,0,0
369446,-100,4,1,1,70,0,0
390875,-100,4,1,1,70,0,1
418304,-100,4,1,1,70,0,1
445732,-100,4,1,1,70,0,0

[Colours]
Combo1 : 143,143,143
Combo2 : 185,0,4
Combo3 : 217,217,0

[HitObjects]
36,156,70020,5,2,0:0:0:0:
176,40,70270,1,2,0:0:0:0:
248,280,70520,5,2,0:0:0:0:
332,40,70770,1,2,0:0:0:0:
480,192,71020,5,2,0:0:0:0:
332,40,71270,2,2,P|272:60|220:88,1,100
36,156,71770,1,2,0:0:0:0:
164,348,72019,6,4,P|228:284|216:168,1,200,4|0,0:0|0:0,0:0:0:0:
104,48,72447,1,0,0:0:0:0:
400,200,72590,1,0,0:0:0:0:
332,40,72733,1,0,0:0:0:0:
484,188,72876,6,8,P|464:256|420:288,1,100,8|0,0:0|0:0,0:0:0:0:
276,344,73161,1,0,0:0:0:0:
400,200,73304,1,8,0:0:0:0:
332,40,73447,2,8,P|276:52|236:80,1,100,8|0,0:0|0:0,0:0:0:0:
67,128,73733,6,0,L|105:162,3,50
68,244,74019,2,0,P|104:304|160:320,1,100
276,344,74304,1,0,0:0:0:0:
196,160,74447,1,0,0:0:0:0:
392,252,74590,1,0,0:0:0:0:
196,160,74733,1,0,0:0:0:0:
476,268,74876,2,0,P|436:324|388:340,1,100
104,161,75161,2,0,P|128:93|164:73,1,100
288,40,75447,6,4,B|348:43|346:103|346:103|410:125|391:190,1,200,4|0,0:0|0:0,0:0:0:0:
344,344,75876,1,0,0:0:0:0:
236,192,76019,1,0,0:0:0:0:
120,344,76161,1,0,0:0:0:0:
0,192,76304,6,0,B|-9:134|51:118|51:118|56:56|112:51,1,200,4|0,0:0|0:0,0:0:0:0:
288,40,76733,1,0,0:0:0:0:
328,225,76876,1,0,0:0:0:0:
448,56,77019,1,0,0:0:0:0:
458,286,77161,6,0,L|434:330,3,50
352,328,77447,2,0,P|284:320|244:284,1,100
128,192,77733,1,0,0:0:0:0:
352,204,77876,1,0,0:0:0:0:
160,80,78019,5,0,0:0:0:0:
259,302,78161,1,0,0:0:0:0:
256,48,78304,1,0,0:0:0:0:
168,312,78447,1,0,0:0:0:0:
364,68,78590,1,0,0:0:0:0:
96,284,78733,1,0,0:0:0:0:
452,144,78876,6,0,B|474:176|474:176|436:200|436:200|469:237|421:323|387:305,1,200,2|0,0:0|0:0,0:0:0:0:
292,354,79304,1,0,0:0:0:0:
352,231,79447,1,0,0:0:0:0:
167,313,79590,1,0,0:0:0:0:
34,92,79733,6,0,P|78:53|130:44,1,100,4|0,0:0|0:0,0:0:0:0:
340,52,80019,1,0,0:0:0:0:
124,152,80161,1,0,0:0:0:0:
340,52,80304,1,0,0:0:0:0:
72,256,80447,1,0,0:0:0:0:
314,357,80590,6,0,L|374:373,3,50
223,348,80876,2,0,P|255:284|303:268,1,100
416,240,81161,1,0,0:0:0:0:
440,91,81304,1,0,0:0:0:0:
416,240,81447,5,0,0:0:0:0:
252,112,81590,1,0,0:0:0:0:
56,148,81733,2,0,P|32:204|40:256,1,100,8|0,0:0|0:0,0:0:0:0:
184,376,82019,2,0,P|252:384|312:360,1,100,8|0,0:0|0:0,0:0:0:0:
480,188,82304,5,4,0:0:0:0:
312,0,82590,1,0,0:0:0:0:
316,112,82733,1,0,0:0:0:0:
312,0,82876,2,0,P|256:16|220:52,1,100
56,148,83161,5,4,0:0:0:0:
316,112,83447,1,0,0:0:0:0:
179,251,83590,1,0,0:0:0:0:
316,112,83733,2,0,P|352:176|352:224,1,100
296,336,84019,5,8,0:0:0:0:
247,323,84090,1,8,0:0:0:0:
205,295,84161,1,8,0:0:0:0:
179,251,84233,1,8,0:0:0:0:
171,201,84304,2,8,P|179:139|208:110,1,100
436,64,84590,1,0,0:0:0:0:
264,184,84733,1,0,0:0:0:0:
100,32,84876,5,8,0:0:0:0:
64,68,84947,1,8,0:0:0:0:
44,114,85019,1,8,0:0:0:0:
40,164,85090,1,8,0:0:0:0:
52,212,85161,1,8,0:0:0:0:
256,324,85304,1,0,0:0:0:0:
316,67,85447,1,0,0:0:0:0:
420,236,85590,1,0,0:0:0:0:
316,67,85733,6,0,P|221:82|131:149,1,200,4|0,0:0|0:0,0:0:0:0:
136,352,86161,1,0,0:0:0:0:
296,212,86304,1,0,0:0:0:0:
440,352,86447,1,0,0:0:0:0:
480,171,86590,6,0,P|401:98|284:63,1,200,4|0,0:0|0:0,0:0:0:0:
52,48,87019,1,0,0:0:0:0:
96,248,87161,1,0,0:0:0:0:
264,136,87304,1,0,0:0:0:0:
465,75,87447,5,8,0:0:0:0:
465,75,87519,1,8,0:0:0:0:
465,75,87590,1,8,0:0:0:0:
465,75,87661,1,8,0:0:0:0:
469,79,87733,2,8,P|488:144|475:177,1,100
324,312,88019,1,0,0:0:0:0:
400,132,88161,1,0,0:0:0:0:
324,312,88304,5,0,0:0:0:0:
164,212,88447,1,0,0:0:0:0:
128,52,88590,2,0,P|65:88|51:135,1,100
56,328,88876,2,0,P|104:359|150:362,1,100
432,348,89161,6,0,P|480:272|460:168,1,200,4|0,0:0|0:0,0:0:0:0:
320,36,89590,1,0,0:0:0:0:
176,132,89733,1,0,0:0:0:0:
40,40,89876,1,0,0:0:0:0:
116,260,90019,6,0,P|212:260|300:200,1,200,4|0,0:0|0:0,0:0:0:0:
392,52,90447,1,0,0:0:0:0:
452,304,90590,1,0,0:0:0:0:
392,52,90733,1,0,0:0:0:0:
112,52,90876,5,8,0:0:0:0:
112,52,90947,1,8,0:0:0:0:
112,52,91019,1,8,0:0:0:0:
112,52,91090,1,8,0:0:0:0:
112,52,91161,2,8,P|88:104|84:152,1,100
108,324,91447,1,0,0:0:0:0:
264,136,91590,1,0,0:0:0:0:
424,320,91733,6,0,P|460:272|460:220,1,100
478,83,92019,2,0,P|418:107|383:153,1,100
260,348,92304,1,0,0:0:0:0:
164,100,92447,1,0,0:0:0:0:
280,220,92590,6,0,P|312:176|316:120,2,100,4|0|0,0:0|0:0|0:0,0:0:0:0:
84,304,93019,1,0,0:0:0:0:
32,96,93161,1,0,0:0:0:0:
224,144,93304,1,0,0:0:0:0:
440,228,93447,6,0,P|456:296|452:332,2,100,4|0|0,0:0|0:0|0:0,0:0:0:0:
336,36,93876,1,0,0:0:0:0:
288,224,94019,1,0,0:0:0:0:
152,72,94161,1,0,0:0:0:0:
68,244,94304,5,8,0:0:0:0:
83,263,94376,1,8,0:0:0:0:
102,278,94447,1,8,0:0:0:0:
124,290,94519,1,8,0:0:0:0:
148,296,94590,2,8,P|220:296|252:280,1,100
476,112,94876,1,0,0:0:0:0:
400,352,95019,1,0,0:0:0:0:
312,144,95161,5,2,0:0:0:0:
180,40,95304,1,0,0:0:0:0:
308,144,95447,1,0,0:0:0:0:
92,96,95590,1,0,0:0:0:0:
308,148,95733,1,0,0:0:0:0:
8,192,95876,1,0,0:0:0:0:
292,340,96019,6,2,P|356:320|392:280,1,100,2|0,0:0|0:0,0:0:0:0:
432,156,96304,1,0,0:0:0:0:
320,56,96447,1,0,0:0:0:0:
172,80,96590,1,0,0:0:0:0:
80,200,96733,1,0,0:0:0:0:
40,344,96876,6,2,P|108:320|144:284,1,100,2|0,0:0|0:0,0:0:0:0:
228,192,97161,1,0,0:0:0:0:
360,120,97304,1,0,0:0:0:0:
480,208,97447,1,0,0:0:0:0:
420,348,97590,1,0,0:0:0:0:
283,274,97733,5,8,0:0:0:0:
264,259,97804,1,8,0:0:0:0:
247,239,97876,1,8,0:0:0:0:
235,216,97947,1,8,0:0:0:0:
228,192,98019,2,8,P|234:128|258:99,1,100
432,32,98304,2,0,P|472:100|472:140,1,100
383,240,98590,1,0,0:0:0:0:
52,44,98876,5,0,0:0:0:0:
172,224,99019,1,0,0:0:0:0:
188,32,99161,1,0,0:0:0:0:
56,168,99304,1,0,0:0:0:0:
264,132,99447,5,2,0:0:0:0:
440,248,99733,1,0,0:0:0:0:
440,248,99876,1,0,0:0:0:0:
304,320,100019,1,0,0:0:0:0:
304,320,100161,1,0,0:0:0:0:
84,240,100304,6,0,L|32:264,2,50
178,121,100590,1,0,0:0:0:0:
178,121,100733,1,0,0:0:0:0:
330,85,100876,1,0,0:0:0:0:
330,85,101019,1,0,0:0:0:0:
452,184,101161,6,0,P|440:260|416:292,1,100,4|0,0:0|0:0,0:0:0:0:
252,336,101446,1,0,0:0:0:0:
152,144,101589,1,0,0:0:0:0:
300,204,101732,1,0,0:0:0:0:
104,276,101875,1,0,0:0:0:0:
68,92,102018,6,2,P|112:52|172:44,1,100
344,52,102303,1,0,0:0:0:0:
468,196,102446,1,0,0:0:0:0:
300,204,102589,1,0,0:0:0:0:
448,88,102732,1,0,0:0:0:0:
420,308,102875,6,2,P|356:340|320:336,1,100,0|0,0:0|0:0,0:0:0:0:
92,256,103161,1,0,0:0:0:0:
256,92,103303,1,0,0:0:0:0:
248,232,103446,1,0,0:0:0:0:
124,76,103589,1,0,0:0:0:0:
412,68,103732,6,2,P|456:116|472:172,1,100
420,308,104018,1,0,0:0:0:0:
200,184,104161,1,0,0:0:0:0:
368,156,104303,1,0,0:0:0:0:
252,332,104446,1,0,0:0:0:0:
8,192,104589,6,0,P|48:96|136:64,1,200,4|0,0:0|0:0,0:0:0:0:
424,248,105018,2,0,P|448:320|452:344,2,100
288,48,105446,2,2,P|252:112|144:184,1,200
4,192,105875,1,0,0:0:0:0:
136,312,106018,1,0,0:0:0:0:
160,64,106161,1,0,0:0:0:0:
312,200,106303,6,2,P|364:144|372:112,1,100
224,136,106589,2,2,P|180:176|164:220,1,100
364,288,106875,2,2,P|412:244|428:200,1,100
232,52,107161,2,2,P|168:72|128:116,1,100
80,272,107446,2,2,B|120:328|180:320,1,100
468,104,107732,2,2,P|408:80|360:88,1,100
224,136,108018,5,4,0:0:0:0:
488,296,108303,1,0,0:0:0:0:
344,232,108446,1,0,0:0:0:0:
396,300,108589,2,0,P|428:244|416:188,1,100
368,40,108875,5,2,0:0:0:0:
68,68,109161,1,0,0:0:0:0:
212,128,109303,1,0,0:0:0:0:
172,60,109446,2,0,P|136:104|136:148,1,100
194,332,109732,5,0,0:0:0:0:
396,268,110018,2,0,P|444:320|456:360,2,100
248,200,110446,1,0,0:0:0:0:
352,56,110589,2,0,P|376:104|372:160,1,100
292,332,110875,2,0,P|240:344|184:328,1,100
32,152,111161,2,0,P|88:136|152:148,1,100
360,196,111446,5,4,0:0:0:0:
200,56,111732,1,0,0:0:0:0:
200,56,111875,1,0,0:0:0:0:
92,228,112018,2,0,P|120:276|156:304,1,100
336,352,112303,5,0,0:0:0:0:
484,120,112589,1,0,0:0:0:0:
336,168,112732,1,0,0:0:0:0:
288,32,112875,1,0,0:0:0:0:
336,168,113018,1,0,0:0:0:0:
208,340,113161,5,8,0:0:0:0:
184,314,113232,1,8,0:0:0:0:
172,281,113303,1,8,0:0:0:0:
170,245,113375,1,8,0:0:0:0:
186,214,113446,1,8,0:0:0:0:
300,76,113589,1,0,0:0:0:0:
360,308,113732,1,0,0:0:0:0:
440,168,113875,1,0,0:0:0:0:
164,56,114018,5,8,0:0:0:0:
139,80,114089,1,8,0:0:0:0:
117,107,114161,1,8,0:0:0:0:
107,140,114232,1,8,0:0:0:0:
105,174,114303,1,8,0:0:0:0:
256,352,114446,1,0,0:0:0:0:
212,148,114589,1,0,0:0:0:0:
388,248,114732,1,0,0:0:0:0:
300,76,114875,6,0,P|192:48|108:96,1,200,0|0,0:0|0:0,0:0:0:0:
84,312,115303,1,0,0:0:0:0:
212,148,115446,1,0,0:0:0:0:
312,316,115589,1,0,0:0:0:0:
376,124,115732,6,0,P|420:72|464:56,2,100,0|0|0,0:0|0:0|0:0,0:0:0:0:
308,276,116161,1,0,0:0:0:0:
212,148,116303,1,0,0:0:0:0:
308,312,116446,1,0,0:0:0:0:
104,264,116589,6,0,P|80:192|84:148,1,100
292,36,116875,2,0,P|316:104|320:144,1,100
312,284,117161,1,0,0:0:0:0:
432,204,117303,1,0,0:0:0:0:
308,308,117446,1,0,0:0:0:0:
176,184,117589,1,0,0:0:0:0:
304,332,117732,1,0,0:0:0:0:
312,96,117875,1,0,0:0:0:0:
300,352,118018,1,0,0:0:0:0:
200,56,118161,1,0,0:0:0:0:
128,188,118303,6,0,P|204:228|312:176,1,200,0|0,0:0|0:0,0:0:0:0:
452,56,118732,1,0,0:0:0:0:
272,40,118875,1,0,0:0:0:0:
432,184,119018,1,0,0:0:0:0:
312,324,119161,6,0,P|216:360|108:320,1,200
24,148,119589,1,0,0:0:0:0:
212,244,119732,1,0,0:0:0:0:
396,140,119875,1,0,0:0:0:0:
124,72,120018,6,0,L|24:28,1,100
292,96,120303,2,0,L|392:48,1,100
128,172,120589,2,0,L|16:124,1,100
424,164,120875,6,0,L|332:205,1,100
51,238,121161,2,0,L|144:276,1,100
420,284,121446,2,0,L|326:324,1,100
204,72,121732,6,0,P|284:48|324:64,1,100,0|0,0:0|0:0,0:0:0:0:
444,96,122018,1,0,0:0:0:0:
408,260,122161,1,0,0:0:0:0:
268,132,122303,1,0,0:0:0:0:
420,292,122446,1,0,0:0:0:0:
48,256,122589,6,0,P|32:200|44:156,1,100,0|0,0:0|0:0,0:0:0:0:
204,72,122875,1,0,0:0:0:0:
272,208,123018,1,0,0:0:0:0:
124,200,123161,1,0,0:0:0:0:
296,228,123303,1,0,0:0:0:0:
396,48,123446,5,0,0:0:0:0:
76,100,123732,2,0,P|124:144|176:160,1,100
460,232,124018,2,0,P|412:260|348:272,1,100
92,284,124303,5,0,0:0:0:0:
300,40,124589,2,0,P|312:104|300:148,1,100
220,348,124875,2,0,P|208:288|216:236,1,100
232,96,125161,5,0,0:0:0:0:
396,156,125446,5,0,0:0:0:0:
480,320,125589,1,0,0:0:0:0:
444,64,125732,1,0,0:0:0:0:
232,96,126018,5,0,0:0:0:0:
116,156,126303,5,0,0:0:0:0:
32,320,126446,1,0,0:0:0:0:
68,64,126589,1,0,0:0:0:0:
185,289,126875,5,2,0:0:0:0:
255,70,127018,1,2,0:0:0:0:
326,289,127161,1,2,0:0:0:0:
141,154,127303,1,2,0:0:0:0:
370,154,127446,1,2,0:0:0:0:
165,316,127589,5,2,0:0:0:0:
256,37,127732,1,2,0:0:0:0:
346,316,127875,1,2,0:0:0:0:
109,144,128018,1,2,0:0:0:0:
402,144,128161,1,2,0:0:0:0:
165,316,128303,2,2,P|180:248|208:216,1,100
368,36,128589,5,4,0:0:0:0:
256,192,128661,12,0,130875,0:0:0:0:
472,40,131446,5,0,0:0:0:0:
388,352,131732,1,0,0:0:0:0:
135,108,132018,6,0,P|182:123|220:156,1,100
252,344,132303,1,0,0:0:0:0:
104,248,132446,1,0,0:0:0:0:
280,76,132589,2,0,P|320:140|312:188,1,100
252,344,132875,1,0,0:0:0:0:
220,156,133018,1,0,0:0:0:0:
448,56,133161,5,0,0:0:0:0:
448,188,133303,1,0,0:0:0:0:
324,72,133446,1,0,0:0:0:0:
416,304,133589,1,0,0:0:0:0:
294,336,133732,5,10,0:0:0:0:
273,322,133803,1,8,0:0:0:0:
257,302,133875,1,8,0:0:0:0:
249,278,133946,1,8,0:0:0:0:
250,242,134018,5,10,0:0:0:0:
283,250,134089,1,8,0:0:0:0:
317,243,134161,1,8,0:0:0:0:
349,228,134232,1,8,0:0:0:0:
378,187,134303,5,10,0:0:0:0:
347,146,134375,1,8,0:0:0:0:
302,124,134446,1,8,0:0:0:0:
251,121,134518,1,8,0:0:0:0:
203,134,134589,6,0,L|172:92,3,50
116,192,134875,2,0,L|65:167,3,50
276,236,135161,2,0,L|330:213,3,50
124,316,135446,5,2,0:0:0:0:
368,344,135732,5,0,0:0:0:0:
464,168,135875,1,0,0:0:0:0:
276,236,136018,1,0,0:0:0:0:
336,44,136161,1,0,0:0:0:0:
276,236,136303,6,0,P|241:175|214:157,1,100
0,52,136589,2,0,P|1:114|17:153,1,100
100,332,136875,1,0,0:0:0:0:
271,233,137018,1,0,0:0:0:0:
420,352,137161,5,2,0:0:0:0:
276,32,137446,2,0,P|256:88|272:148,1,100
328,292,137732,2,0,L|364:256,2,50
112,83,138018,5,10,0:0:0:0:
106,102,138089,1,8,0:0:0:0:
106,121,138161,1,8,0:0:0:0:
113,139,138232,1,8,0:0:0:0:
139,161,138303,5,10,0:0:0:0:
127,194,138375,1,8,0:0:0:0:
133,228,138446,1,8,0:0:0:0:
150,258,138518,1,8,0:0:0:0:
173,276,138589,5,10,0:0:0:0:
221,261,138661,1,8,0:0:0:0:
256,226,138732,1,8,0:0:0:0:
274,179,138803,1,8,0:0:0:0:
273,127,138875,5,10,0:0:0:0:
392,344,139161,5,0,0:0:0:0:
480,196,139303,1,0,0:0:0:0:
392,344,139446,1,0,0:0:0:0:
273,127,139589,1,0,0:0:0:0:
164,344,139732,6,0,P|132:288|132:248,1,100
136,32,140018,2,0,P|192:40|232:76,1,100
392,344,140303,2,0,P|424:288|428:236,1,100
162,158,140589,5,10,0:0:0:0:
162,158,140661,1,8,0:0:0:0:
162,158,140732,1,8,0:0:0:0:
162,158,140803,1,8,0:0:0:0:
162,158,140875,5,10,0:0:0:0:
134,162,140946,1,8,0:0:0:0:
106,170,141018,1,8,0:0:0:0:
82,186,141089,1,8,0:0:0:0:
62,206,141161,1,10,0:0:0:0:
46,234,141232,1,8,0:0:0:0:
42,262,141303,1,8,0:0:0:0:
46,290,141375,1,8,0:0:0:0:
66,310,141446,5,10,0:0:0:0:
97,273,141518,1,8,0:0:0:0:
131,253,141589,1,8,0:0:0:0:
171,250,141661,1,8,0:0:0:0:
208,264,141732,1,10,0:0:0:0:
241,286,141803,1,8,0:0:0:0:
279,297,141875,1,8,0:0:0:0:
319,299,141946,1,8,0:0:0:0:
357,290,142018,1,10,0:0:0:0:
390,268,142089,1,8,0:0:0:0:
406,231,142161,1,8,0:0:0:0:
400,191,142232,1,8,0:0:0:0:
378,156,142303,5,10,0:0:0:0:
56,144,142589,5,0,0:0:0:0:
192,272,142732,1,0,0:0:0:0:
112,48,142875,1,0,0:0:0:0:
84,260,143018,1,0,0:0:0:0:
400,56,143161,6,0,P|428:128|432:168,1,100
380,344,143446,2,0,P|368:280|344:244,1,100
252,48,143732,1,0,0:0:0:0:
284,324,143875,1,0,0:0:0:0:
312,148,144018,6,0,L|352:112,3,50
252,48,144303,2,0,P|192:84|172:116,1,100
104,336,144589,1,0,0:0:0:0:
68,56,144732,1,0,0:0:0:0:
224,224,144875,5,10,0:0:0:0:
245,236,144946,1,8,0:0:0:0:
270,237,145018,1,8,0:0:0:0:
292,227,145089,1,8,0:0:0:0:
307,207,145161,5,10,0:0:0:0:
341,228,145232,1,8,0:0:0:0:
358,263,145303,1,8,0:0:0:0:
348,302,145375,1,8,0:0:0:0:
316,326,145446,5,10,0:0:0:0:
267,338,145518,1,8,0:0:0:0:
217,336,145589,1,8,0:0:0:0:
170,315,145661,1,8,0:0:0:0:
133,284,145732,5,10,0:0:0:0:
368,60,146018,5,0,0:0:0:0:
416,160,146161,1,0,0:0:0:0:
252,36,146303,2,0,P|268:104|292:148,1,100
396,328,146589,5,0,0:0:0:0:
416,160,146732,1,0,0:0:0:0:
256,296,146875,1,0,0:0:0:0:
416,160,147018,1,0,0:0:0:0:
100,236,147161,1,0,0:0:0:0:
416,160,147303,1,0,0:0:0:0:
252,47,147446,5,10,0:0:0:0:
231,40,147518,1,8,0:0:0:0:
206,37,147589,1,8,0:0:0:0:
181,41,147661,1,8,0:0:0:0:
156,53,147732,5,10,0:0:0:0:
172,89,147803,1,8,0:0:0:0:
197,119,147875,1,8,0:0:0:0:
231,137,147946,1,8,0:0:0:0:
270,144,148018,5,10,0:0:0:0:
262,198,148089,1,8,0:0:0:0:
235,245,148161,1,8,0:0:0:0:
186,270,148232,1,8,0:0:0:0:
131,268,148303,6,0,L|71:258,3,50
160,172,148589,2,0,L|136:112,3,50
270,144,148875,2,0,L|310:104,3,50
425,182,149161,5,2,0:0:0:0:
92,32,149446,5,0,0:0:0:0:
88,236,149589,1,0,0:0:0:0:
270,144,149732,1,0,0:0:0:0:
264,344,149875,1,0,0:0:0:0:
270,144,150018,6,0,P|305:205|332:223,1,100
473,343,150303,2,0,P|472:281|456:242,1,100
384,93,150589,1,0,0:0:0:0:
270,144,150732,1,0,0:0:0:0:
152,80,150875,5,2,0:0:0:0:
236,352,151161,2,0,P|256:296|240:236,1,100
144,288,151446,2,0,L|108:324,2,50
400,301,151732,5,10,0:0:0:0:
406,282,151803,1,8,0:0:0:0:
406,263,151875,1,8,0:0:0:0:
399,245,151946,1,8,0:0:0:0:
373,223,152018,5,10,0:0:0:0:
340,199,152089,1,8,0:0:0:0:
332,159,152161,1,8,0:0:0:0:
346,121,152232,1,8,0:0:0:0:
376,95,152303,5,10,0:0:0:0:
344,56,152375,1,8,0:0:0:0:
296,39,152446,1,8,0:0:0:0:
247,51,152518,1,8,0:0:0:0:
208,83,152589,5,10,0:0:0:0:
256,336,152875,1,0,0:0:0:0:
144,140,153161,2,0,P|116:188|120:248,1,100
140,336,153446,5,0,0:0:0:0:
212,212,153589,1,0,0:0:0:0:
124,352,153732,1,0,0:0:0:0:
296,236,153875,1,0,0:0:0:0:
108,368,154018,1,0,0:0:0:0:
376,280,154161,1,0,0:0:0:0:
460,148,154303,5,10,0:0:0:0:
451,119,154375,1,8,0:0:0:0:
433,94,154446,1,8,0:0:0:0:
407,77,154518,1,8,0:0:0:0:
382,93,154589,5,10,0:0:0:0:
346,110,154661,1,8,0:0:0:0:
305,109,154732,1,8,0:0:0:0:
266,97,154803,1,8,0:0:0:0:
228,83,154875,5,10,0:0:0:0:
230,132,154946,1,8,0:0:0:0:
218,180,155018,1,8,0:0:0:0:
186,218,155089,1,8,0:0:0:0:
145,246,155161,6,0,L|96:214,3,50
216,312,155446,2,0,L|190:355,3,50
324,328,155732,2,0,L|380:340,3,50
384,212,156018,5,2,0:0:0:0:
60,48,156303,1,0,0:0:0:0:
136,292,156589,5,0,0:0:0:0:
216,152,156732,1,0,0:0:0:0:
76,240,156875,2,0,P|56:300|76:352,1,100
316,304,157161,1,0,0:0:0:0:
380,64,157303,2,0,P|424:100|436:160,2,100
128,40,157732,5,0,0:0:0:0:
44,136,157875,1,0,0:0:0:0:
64,264,158018,2,0,P|124:232|172:240,1,100
300,316,158303,2,0,P|336:272|344:216,1,100
344,88,158589,1,0,0:0:0:0:
476,248,158732,1,8,0:0:0:0:
476,248,158803,1,8,0:0:0:0:
476,248,158875,5,8,0:0:0:0:
252,240,159018,1,0,0:0:0:0:
168,40,159161,2,0,P|132:88|128:132,1,100
152,328,159446,6,0,P|210:359|304:356,1,150.000005722046
512,228,159875,1,0,0:0:0:0:
360,64,160018,2,0,P|408:88|440:152,1,100
436,264,160303,6,0,P|372:232|340:196,1,100
232,92,160589,2,0,L|196:32,2,66.6666666666667
132,100,160875,2,0,P|92:156|84:212,1,100
127,356,161161,6,0,B|189:343|223:284|223:284|253:295|253:295|253:266|253:266|327:259|359:200,1,300.000011444092
416,56,162018,1,0,0:0:0:0:
452,240,162303,1,0,0:0:0:0:
272,136,162589,2,0,P|229:175|174:195,1,100
48,208,162875,6,0,B|40:132|104:100|104:100|148:120|192:76|192:76,1,225.000008583069
336,52,163446,1,0,0:0:0:0:
452,240,163732,1,0,0:0:0:0:
436,100,164018,2,0,L|488:72,3,50
360,140,164303,2,0,P|324:184|312:256,1,100
296,344,164589,6,0,B|248:340|224:288|224:288|164:292|136:240,1,200
120,64,165446,1,0,0:0:0:0:
288,128,165732,1,0,0:0:0:0:
452,40,166018,2,0,L|452:152,1,100
419,292,166303,6,0,P|331:236|287:120,1,225.000008583069
128,52,166875,1,0,0:0:0:0:
84,340,167161,2,0,P|160:364|204:364,1,100
292,368,167446,2,0,L|352:336,2,66.6666666666667
248,284,167732,2,0,P|300:224|348:204,1,100
436,104,168018,6,0,P|376:72|288:60,1,150
220,108,168303,2,0,P|156:48|92:52,1,150
132,140,168589,2,0,P|100:196|132:284,1,150
192,212,168875,2,0,P|248:252|380:228,1,200
468,32,169446,5,0,0:0:0:0:
500,196,169732,2,0,P|472:280|344:328,1,225.000008583069
208,328,170303,1,0,0:0:0:0:
380,220,170589,1,0,0:0:0:0:
296,100,170875,2,0,L|288:40,3,50
196,92,171161,2,0,P|148:128|132:236,1,150
136,324,171446,5,0,0:0:0:0:
296,100,171732,1,0,0:0:0:0:
331,290,171875,1,0,0:0:0:0:
436,100,172018,1,0,0:0:0:0:
432,352,172303,5,10,0:0:0:0:
413,327,172375,1,8,0:0:0:0:
388,309,172446,1,8,0:0:0:0:
361,295,172518,1,8,0:0:0:0:
331,290,172589,5,10,0:0:0:0:
301,317,172661,1,8,0:0:0:0:
263,330,172732,1,8,0:0:0:0:
223,323,172803,1,8,0:0:0:0:
192,292,172875,5,10,0:0:0:0:
232,132,173018,1,0,0:0:0:0:
384,204,173161,6,0,L|436:184,7,50
368,112,173732,2,0,L|360:56,3,50
256,96,174018,5,0,0:0:0:0:
216,98,174089,1,0,0:0:0:0:
177,105,174161,1,0,0:0:0:0:
142,125,174232,1,0,0:0:0:0:
116,155,174303,1,0,0:0:0:0:
106,194,174375,1,0,0:0:0:0:
108,233,174446,1,0,0:0:0:0:
126,269,174518,1,0,0:0:0:0:
151,299,174589,2,0,L|201:342,3,50
264,260,174875,6,0,L|300:212,7,50
376,296,175446,2,0,L|420:328,3,50
408,208,175732,5,0,0:0:0:0:
415,168,175803,1,0,0:0:0:0:
408,128,175875,1,0,0:0:0:0:
388,93,175946,1,0,0:0:0:0:
358,64,176018,5,0,0:0:0:0:
325,94,176089,1,0,0:0:0:0:
282,107,176161,1,0,0:0:0:0:
236,101,176232,1,0,0:0:0:0:
198,76,176303,2,0,P|119:85|88:115,1,100
48,236,176589,6,0,L|44:304,7,50
156,228,177161,2,0,L|192:188,3,50
164,324,177446,5,0,0:0:0:0:
208,348,177518,1,0,0:0:0:0:
256,360,177589,1,0,0:0:0:0:
304,356,177661,1,0,0:0:0:0:
348,332,177732,6,0,L|396:300,3,50
308,240,178018,2,0,L|284:184,3,50
400,184,178303,6,0,L|436:140,7,50
312,104,178875,2,0,L|312:40,3,50
208,84,179161,5,10,0:0:0:0:
164,108,179232,1,8,0:0:0:0:
130,144,179303,1,8,0:0:0:0:
117,192,179375,1,8,0:0:0:0:
122,241,179446,5,10,0:0:0:0:
167,219,179518,1,8,0:0:0:0:
216,223,179589,1,8,0:0:0:0:
253,255,179661,1,8,0:0:0:0:
276,298,179732,6,0,L|271:359,1,50
286,172,179875,2,0,L|291:111,1,50
117,192,180018,6,0,L|61:213,7,50
152,288,180589,2,0,L|160:348,3,50
256,295,180875,5,0,0:0:0:0:
300,296,180946,1,0,0:0:0:0:
344,288,181018,1,0,0:0:0:0:
380,264,181089,1,0,0:0:0:0:
406,231,181161,1,0,0:0:0:0:
417,189,181232,1,0,0:0:0:0:
415,147,181303,1,0,0:0:0:0:
396,109,181375,1,0,0:0:0:0:
369,76,181446,2,0,L|315:30,3,50
248,136,181732,6,0,P|272:192|312:224,1,100
413,321,182018,2,0,P|337:325|301:301,1,100
126,79,182303,2,0,L|79:45,3,50
92,174,182589,5,0,0:0:0:0:
84,217,182661,1,0,0:0:0:0:
92,260,182732,1,0,0:0:0:0:
113,298,182803,1,0,0:0:0:0:
146,329,182875,5,0,0:0:0:0:
181,297,182946,1,0,0:0:0:0:
227,283,183018,1,0,0:0:0:0:
277,290,183089,1,0,0:0:0:0:
318,316,183161,2,0,P|403:307|436:274,1,100
475,192,183446,6,0,L|480:118,7,50
359,200,184018,2,0,L|320:243,3,50
350,97,184303,5,0,0:0:0:0:
303,71,184375,1,0,0:0:0:0:
251,58,184446,1,0,0:0:0:0:
199,62,184518,1,0,0:0:0:0:
152,88,184589,6,0,L|100:123,3,50
196,176,184875,2,0,L|222:237,3,50
92,217,185161,6,0,L|53:265,7,50
184,316,185732,2,0,L|184:385,3,50
307,308,186018,5,0,0:0:0:0:
355,282,186089,1,0,0:0:0:0:
391,243,186161,1,0,0:0:0:0:
405,192,186232,1,0,0:0:0:0:
400,139,186303,5,0,0:0:0:0:
351,162,186375,1,0,0:0:0:0:
299,158,186446,1,0,0:0:0:0:
259,124,186518,1,0,0:0:0:0:
232,81,186589,2,0,L|209:20,3,50
128,88,186875,5,0,0:0:0:0:
332,344,187161,1,0,0:0:0:0:
420,32,187446,1,0,0:0:0:0:
104,352,187732,6,0,P|60:284|72:168,1,200
148,32,188589,5,0,0:0:0:0:
480,244,188875,1,0,0:0:0:0:
332,32,189161,2,0,P|292:76|280:128,1,100
260,308,189446,5,0,0:0:0:0:
368,192,189589,1,0,0:0:0:0:
261,330,189732,1,0,0:0:0:0:
168,120,189875,1,0,0:0:0:0:
260,353,190018,1,0,0:0:0:0:
299,65,190161,1,0,0:0:0:0:
61,187,190303,6,0,P|73:265|97:297,1,100
261,375,190589,1,0,0:0:0:0:
394,192,190732,1,0,0:0:0:0:
240,212,190875,1,0,0:0:0:0:
426,313,191018,1,0,0:0:0:0:
450,94,191161,6,0,P|389:53|345:45,1,100
166,49,191446,1,0,0:0:0:0:
61,187,191589,1,0,0:0:0:0:
199,163,191732,1,0,0:0:0:0:
53,74,191875,1,0,0:0:0:0:
89,309,192018,6,0,P|154:342|191:338,1,100
422,256,192303,1,0,0:0:0:0:
256,90,192446,1,0,0:0:0:0:
264,232,192589,1,0,0:0:0:0:
389,74,192732,1,0,0:0:0:0:
97,66,192875,6,0,P|53:114|36:171,1,100
81,338,193161,1,0,0:0:0:0:
312,183,193303,1,0,0:0:0:0:
142,155,193446,1,0,0:0:0:0:
260,334,193589,1,0,0:0:0:0:
507,192,193732,6,0,P|467:94|377:62,1,200
248,142,194161,2,0,P|197:80|193:55,2,100
507,192,194589,6,0,P|470:256|360:330,1,200
204,252,195018,1,0,0:0:0:0:
376,204,195161,1,0,0:0:0:0:
300,44,195303,1,0,0:0:0:0:
88,168,195446,6,2,P|35:111|27:78,1,100
317,127,195732,2,2,P|361:167|377:212,1,100
128,272,196018,2,2,P|72:256|24:200,1,100
300,44,196303,2,2,P|352:52|405:108,1,100
434,273,196589,2,2,B|394:330|333:321,1,100
40,102,196875,2,2,P|101:78|150:86,1,100
480,160,197161,5,0,0:0:0:0:
192,276,197446,1,0,0:0:0:0:
300,348,197589,1,0,0:0:0:0:
424,276,197732,2,0,P|393:236|349:214,1,100
32,224,198018,5,0,0:0:0:0:
212,36,198303,1,0,0:0:0:0:
320,108,198446,1,0,0:0:0:0:
448,72,198589,2,0,P|476:128|472:185,1,100
385,325,198875,5,0,0:0:0:0:
113,269,199161,2,0,P|65:321|53:362,2,100
268,200,199589,1,0,0:0:0:0:
158,53,199732,2,0,P|126:110|138:159,1,100
219,334,200018,2,0,P|276:348|329:330,1,100
484,152,200303,2,0,P|427:136|362:148,1,100
150,196,200589,5,0,0:0:0:0:
312,53,200875,5,0,0:0:0:0:
308,176,201018,1,0,0:0:0:0:
426,220,201161,2,0,P|398:269|361:297,1,100
174,354,201446,5,0,0:0:0:0:
24,118,201732,5,0,0:0:0:0:
184,172,201875,1,0,0:0:0:0:
223,29,202018,1,0,0:0:0:0:
200,200,202161,1,0,0:0:0:0:
404,296,202303,5,8,0:0:0:0:
428,269,202375,1,8,0:0:0:0:
440,236,202446,1,8,0:0:0:0:
442,199,202518,1,8,0:0:0:0:
432,164,202589,1,8,0:0:0:0:
216,100,202732,1,2,0:0:0:0:
328,224,202875,1,2,0:0:0:0:
80,112,203018,1,2,0:0:0:0:
348,56,203161,5,8,0:0:0:0:
376,76,203232,1,8,0:0:0:0:
397,105,203303,1,8,0:0:0:0:
407,139,203375,1,8,0:0:0:0:
409,173,203446,1,8,0:0:0:0:
236,288,203589,1,2,0:0:0:0:
300,147,203732,1,2,0:0:0:0:
108,296,203875,1,2,0:0:0:0:
209,68,204018,6,0,P|324:38|413:89,1,200
439,319,204446,1,0,0:0:0:0:
300,147,204589,1,0,0:0:0:0:
196,324,204732,1,0,0:0:0:0:
128,119,204875,6,0,P|81:64|34:47,2,100
200,290,205303,1,0,0:0:0:0:
302,153,205446,1,0,0:0:0:0:
200,319,205589,1,0,0:0:0:0:
418,268,205732,6,0,P|443:192|439:145,1,100
217,25,206018,2,0,P|192:98|187:140,1,100
196,290,206303,1,0,0:0:0:0:
144,196,206446,1,0,0:0:0:0:
200,315,206589,1,0,0:0:0:0:
320,156,206732,1,0,0:0:0:0:
204,341,206875,1,0,0:0:0:0:
196,89,207018,1,0,0:0:0:0:
208,364,207161,1,0,0:0:0:0:
315,47,207303,1,0,0:0:0:0:
384,216,207446,6,0,P|303:259|188:203,1,200,0|0,0:0|0:0,0:0:0:0:
8,44,207875,1,0,0:0:0:0:
188,96,208018,1,0,0:0:0:0:
48,232,208161,1,0,0:0:0:0:
196,332,208303,6,0,P|300:364|408:328,1,200
496,152,208732,1,0,0:0:0:0:
302,247,208875,1,0,0:0:0:0:
108,148,209018,1,0,0:0:0:0:
487,23,209161,6,0,L|396:64,1,100
126,45,209446,2,0,L|217:89,1,100
483,130,209732,2,0,L|392:170,1,100
163,203,210018,6,0,L|72:160,1,100
474,241,210303,2,0,L|381:278,1,100
176,328,210589,2,0,L|84:288,1,100
218,39,210875,6,0,P|267:40|311:64,1,100,0|0,0:0|0:0,0:0:0:0:
380,268,211161,1,0,0:0:0:0:
148,276,211303,1,0,0:0:0:0:
243,128,211446,1,0,0:0:0:0:
119,294,211589,1,0,0:0:0:0:
477,260,211732,6,0,P|494:200|481:153,1,100,0|0,0:0|0:0,0:0:0:0:
310,63,212018,1,0,0:0:0:0:
204,240,212161,1,0,0:0:0:0:
384,200,212303,1,0,0:0:0:0:
176,261,212446,1,0,0:0:0:0:
106,38,212589,5,0,0:0:0:0:
447,93,212875,2,0,P|404:140|341:157,1,100
38,234,213161,2,0,P|88:268|157:277,1,100
430,311,213446,5,0,0:0:0:0:
209,29,213732,2,0,P|196:98|209:145,1,100
294,358,214018,2,0,P|307:294|298:238,1,100
288,88,214303,5,2,0:0:0:0:
64,100,214589,5,0,0:0:0:0:
32,292,214732,1,0,0:0:0:0:
176,216,214875,1,0,0:0:0:0:
294,358,215161,5,2,0:0:0:0:
432,256,215446,5,0,0:0:0:0:
484,100,215589,1,0,0:0:0:0:
308,64,215732,1,0,0:0:0:0:
312,256,216018,5,2,0:0:0:0:
217,219,216161,1,2,0:0:0:0:
307,158,216303,1,2,0:0:0:0:
315,283,216446,5,2,0:0:0:0:
187,204,216589,1,2,0:0:0:0:
329,152,216732,1,2,0:0:0:0:
314,319,216875,5,2,0:0:0:0:
160,180,217018,1,2,0:0:0:0:
363,156,217161,1,2,0:0:0:0:
314,346,217303,5,2,0:0:0:0:
143,157,217446,1,2,0:0:0:0:
382,166,217589,1,2,0:0:0:0:
307,373,217732,6,0,P|208:360|124:288,1,200
61,110,218161,1,0,0:0:0:0:
231,212,218303,1,0,0:0:0:0:
296,24,218446,1,0,0:0:0:0:
452,64,218589,6,0,P|466:157|439:295,1,200
364,368,219018,1,0,0:0:0:0:
256,284,219161,1,0,0:0:0:0:
164,380,219303,1,0,0:0:0:0:
72,284,219446,5,8,0:0:0:0:
66,275,219518,1,8,0:0:0:0:
61,265,219589,1,8,0:0:0:0:
58,255,219661,1,8,0:0:0:0:
56,246,219732,2,8,P|51:180|68:147,1,100
177,43,220018,1,0,0:0:0:0:
140,208,220161,1,0,0:0:0:0:
192,68,220303,5,0,0:0:0:0:
400,125,220446,1,0,0:0:0:0:
208,100,220589,1,0,0:0:0:0:
320,240,220732,1,0,0:0:0:0:
436,120,220875,2,0,P|382:74|336:66,1,100
74,31,221161,6,0,P|24:109|45:216,1,200
168,352,221589,1,0,0:0:0:0:
316,236,221732,1,0,0:0:0:0:
472,348,221875,1,0,0:0:0:0:
384,124,222018,6,0,P|285:124|194:186,1,200
112,340,222446,1,0,0:0:0:0:
52,136,222589,1,0,0:0:0:0:
112,340,222732,1,0,0:0:0:0:
340,336,222875,5,8,0:0:0:0:
348,337,222946,1,8,0:0:0:0:
357,339,223018,1,8,0:0:0:0:
366,340,223089,1,8,0:0:0:0:
375,339,223161,2,8,P|400:285|404:236,1,100
408,55,223446,1,0,0:0:0:0:
264,252,223589,1,0,0:0:0:0:
120,36,223732,6,0,P|65:76|45:116,1,100
49,348,224018,2,0,P|104:308|124:268,1,100
256,40,224303,1,0,0:0:0:0:
332,320,224446,1,0,0:0:0:0:
196,120,224589,6,0,P|164:72|159:17,2,100
332,320,225018,1,0,0:0:0:0:
352,116,225161,1,0,0:0:0:0:
228,256,225303,1,0,0:0:0:0:
66,154,225446,6,0,P|48:104|53:47,2,100
173,352,225875,1,0,0:0:0:0:
222,158,226018,1,0,0:0:0:0:
332,320,226161,1,0,0:0:0:0:
450,138,226303,5,8,0:0:0:0:
434,118,226375,1,8,0:0:0:0:
414,103,226446,1,8,0:0:0:0:
392,90,226518,1,8,0:0:0:0:
367,84,226589,2,8,P|293:84|260:101,1,100
28,274,226875,1,0,0:0:0:0:
107,26,227018,1,0,0:0:0:0:
198,241,227161,5,0,0:0:0:0:
334,348,227303,1,0,0:0:0:0:
202,241,227446,1,0,0:0:0:0:
425,291,227589,1,0,0:0:0:0:
202,237,227732,1,0,0:0:0:0:
511,192,227875,1,0,0:0:0:0:
218,39,228018,6,0,P|152:59|115:101,1,100
74,229,228303,1,0,0:0:0:0:
189,332,228446,1,0,0:0:0:0:
342,307,228589,1,0,0:0:0:0:
437,183,228732,1,0,0:0:0:0:
478,35,228875,6,0,P|408:59|371:97,1,100
284,192,229161,1,0,0:0:0:0:
148,266,229303,1,0,0:0:0:0:
24,175,229446,1,0,0:0:0:0:
86,31,229589,1,0,0:0:0:0:
235,68,229732,5,8,0:0:0:0:
256,80,229803,1,8,0:0:0:0:
271,99,229875,1,8,0:0:0:0:
283,120,229946,1,8,0:0:0:0:
289,144,230018,2,8,P|282:210|258:240,1,100
104,336,230303,2,8,P|59:286|53:248,1,100
144,35,230589,5,0,0:0:0:0:
466,344,230875,5,0,0:0:0:0:
342,158,231018,1,0,0:0:0:0:
326,357,231161,1,0,0:0:0:0:
462,216,231303,1,0,0:0:0:0:
247,253,231446,5,2,0:0:0:0:
132,96,231732,1,0,0:0:0:0:
48,204,231875,1,0,0:0:0:0:
264,60,232018,1,0,0:0:0:0:
476,156,232303,5,2,0:0:0:0:
324,328,232589,2,8,L|312:272,2,50
444,308,232875,2,8,L|430:259,2,50
292,68,233161,6,0,L|320:24,3,50
208,52,233446,2,0,P|176:88|164:168,1,100
160,316,233732,1,0,0:0:0:0:
268,140,233875,1,0,0:0:0:0:
52,276,234018,1,0,0:0:0:0:
368,184,234161,1,0,0:0:0:0:
8,180,234303,2,0,P|48:116|88:88,1,100
424,32,234589,2,0,P|472:84|484:136,1,100
362,259,234875,5,8,0:0:0:0:
362,259,234946,1,8,0:0:0:0:
362,259,235018,2,8,P|367:308|352:356,2,100
288,32,235446,1,0,0:0:0:0:
88,336,235732,5,8,0:0:0:0:
88,336,235803,1,8,0:0:0:0:
88,336,235875,1,8,0:0:0:0:
144,160,236018,1,8,0:0:0:0:
144,160,236089,1,8,0:0:0:0:
144,160,236161,1,8,0:0:0:0:
312,144,236303,1,8,0:0:0:0:
312,144,236375,1,8,0:0:0:0:
312,144,236446,1,8,0:0:0:0:
292,316,236589,6,0,L|320:360,3,50
208,332,236875,2,0,P|176:296|168:240,1,100
160,68,237161,1,0,0:0:0:0:
272,248,237303,1,0,0:0:0:0:
60,96,237446,1,0,0:0:0:0:
376,200,237589,1,0,0:0:0:0:
8,176,237732,1,0,0:0:0:0:
140,332,237875,2,0,B|184:308|184:308|216:344|216:344|256:312|256:312|296:348|296:348,1,200
452,280,238303,6,0,P|480:220|484:164,1,100
372,28,238589,1,0,0:0:0:0:
244,144,238732,1,0,0:0:0:0:
112,32,238875,2,0,P|84:84|84:152,1,100
88,252,239161,5,0,0:0:0:0:
115,293,239232,1,0,0:0:0:0:
157,318,239303,1,0,0:0:0:0:
304,312,239446,1,0,0:0:0:0:
349,290,239518,1,0,0:0:0:0:
378,250,239589,1,0,0:0:0:0:
392,152,239732,1,0,0:0:0:0:
386,102,239803,1,0,0:0:0:0:
359,59,239875,1,0,0:0:0:0:
160,32,240018,6,0,L|100:64,3,50
224,112,240303,2,0,P|216:164|188:224,1,100
140,352,240589,1,0,0:0:0:0:
320,180,240732,1,0,0:0:0:0:
24,280,240875,1,0,0:0:0:0:
412,232,241018,1,0,0:0:0:0:
8,156,241161,2,0,P|48:116|100:100,1,100
340,36,241446,1,0,0:0:0:0:
352,292,241589,1,0,0:0:0:0:
400,104,241732,5,10,0:0:0:0:
380,152,241803,1,8,0:0:0:0:
347,190,241875,1,8,0:0:0:0:
300,206,241946,1,8,0:0:0:0:
249,206,242018,1,10,0:0:0:0:
201,191,242089,1,8,0:0:0:0:
161,159,242161,1,8,0:0:0:0:
133,117,242232,1,8,0:0:0:0:
112,72,242303,2,8,L|84:-8,3,50,10|8|8|8,0:0|0:0|0:0|0:0,0:0:0:0:
192,40,242589,5,10,0:0:0:0:
216,84,242661,1,8,0:0:0:0:
216,136,242732,1,8,0:0:0:0:
184,176,242803,1,8,0:0:0:0:
148,208,242875,1,10,0:0:0:0:
140,256,242946,1,8,0:0:0:0:
168,300,243018,1,8,0:0:0:0:
216,304,243089,1,8,0:0:0:0:
260,284,243161,2,8,L|300:236,3,50,10|8|8|8,0:0|0:0|0:0|0:0,0:0:0:0:
360,304,243446,5,10,0:0:0:0:
360,304,243518,1,8,0:0:0:0:
360,304,243589,1,8,0:0:0:0:
360,304,243661,5,8,0:0:0:0:
392,280,243732,1,10,0:0:0:0:
416,248,243803,1,8,0:0:0:0:
420,208,243875,1,8,0:0:0:0:
408,172,243946,1,8,0:0:0:0:
384,140,244018,5,10,0:0:0:0:
348,152,244089,1,8,0:0:0:0:
308,152,244161,1,8,0:0:0:0:
272,132,244232,1,8,0:0:0:0:
248,100,244303,5,10,0:0:0:0:
196,92,244375,1,8,0:0:0:0:
148,104,244446,1,8,0:0:0:0:
112,140,244518,1,8,0:0:0:0:
106,189,244589,5,10,0:0:0:0:
120,237,244661,1,8,0:0:0:0:
158,268,244732,1,8,0:0:0:0:
207,271,244803,1,8,0:0:0:0:
247,240,244875,1,10,0:0:0:0:
284,206,244946,1,8,0:0:0:0:
333,198,245018,1,8,0:0:0:0:
377,220,245089,1,8,0:0:0:0:
399,265,245161,5,10,0:0:0:0:
244,352,245303,1,2,0:0:0:0:
180,200,245446,1,2,0:0:0:0:
352,36,245732,5,8,0:0:0:0:
352,36,245803,1,8,0:0:0:0:
352,36,245875,1,8,0:0:0:0:
480,140,246018,1,2,0:0:0:0:
396,284,246161,1,2,0:0:0:0:
46,321,246589,6,0,P|58:257|112:204,1,100
248,108,246875,6,0,P|312:148|332:192,2,100
104,116,247732,5,8,0:0:0:0:
100,184,247827,1,8,0:0:0:0:
128,244,247922,1,8,0:0:0:0:
188,276,248018,1,8,0:0:0:0:
256,272,248113,1,8,0:0:0:0:
312,236,248208,1,8,0:0:0:0:
324,172,248303,1,8,0:0:0:0:
381,137,248399,1,8,0:0:0:0:
445,152,248494,1,8,0:0:0:0:
479,208,248589,6,0,P|463:263|425:293,1,100
256,352,248875,1,0,0:0:0:0:
80,68,249161,5,0,0:0:0:0:
244,24,249303,1,0,0:0:0:0:
84,216,249446,1,0,0:0:0:0:
244,24,249589,1,0,0:0:0:0:
496,80,250018,6,0,P|440:132|424:160,1,100
348,316,250303,6,0,P|312:256|308:208,1,100
296,60,250732,1,0,0:0:0:0:
156,152,250875,1,8,0:0:0:0:
112,202,250970,1,8,0:0:0:0:
102,267,251065,1,8,0:0:0:0:
138,323,251161,1,8,0:0:0:0:
203,332,251256,1,8,0:0:0:0:
254,289,251351,1,8,0:0:0:0:
270,224,251446,1,8,0:0:0:0:
325,188,251541,1,8,0:0:0:0:
390,204,251637,1,8,0:0:0:0:
412,268,251732,6,8,L|432:336,2,66.6666666666667
384,144,252018,2,0,P|352:96|300:64,1,100
180,64,252303,1,0,0:0:0:0:
60,344,252589,5,0,0:0:0:0:
284,164,252732,1,0,0:0:0:0:
200,320,252875,1,0,0:0:0:0:
76,96,253018,1,0,0:0:0:0:
492,136,253446,6,0,P|440:192|428:236,1,100.000003814697
412,276,253732,1,8,0:0:0:0:
352,304,253827,1,8,0:0:0:0:
300,264,253922,1,8,0:0:0:0:
272,204,254018,1,8,0:0:0:0:
208,192,254113,1,8,0:0:0:0:
144,212,254208,1,8,0:0:0:0:
96,256,254303,5,8,0:0:0:0:
32,244,254399,1,8,0:0:0:0:
8,180,254494,1,8,0:0:0:0:
28,116,254589,1,8,0:0:0:0:
88,80,254684,1,8,0:0:0:0:
156,72,254780,1,8,0:0:0:0:
224,84,254875,2,8,L|264:196,1,100
316,352,255161,2,8,P|236:352|200:312,1,100
44,156,255446,6,0,P|92:116|224:84,1,200
496,252,256303,2,0,B|392:304|392:304|355:270|292:296,1,200
216,264,257018,6,8,L|164:228,1,50
124,152,257161,1,8,0:0:0:0:
148,88,257256,1,8,0:0:0:0:
204,56,257351,1,8,0:0:0:0:
268,64,257446,1,8,0:0:0:0:
300,120,257541,1,8,0:0:0:0:
360,148,257637,1,8,0:0:0:0:
424,136,257732,5,8,0:0:0:0:
428,204,257827,1,8,0:0:0:0:
388,256,257922,1,8,0:0:0:0:
324,272,258018,1,8,0:0:0:0:
268,236,258113,1,8,0:0:0:0:
248,172,258208,1,8,0:0:0:0:
196,132,258303,1,8,0:0:0:0:
132,148,258399,1,8,0:0:0:0:
92,200,258494,1,8,0:0:0:0:
108,264,258589,2,8,L|160:316,2,66.6666666666667
176,224,258875,5,2,0:0:0:0:
332,176,259018,1,0,0:0:0:0:
152,208,259161,1,0,0:0:0:0:
356,196,259303,1,0,0:0:0:0:
144,188,259446,1,0,0:0:0:0:
376,224,259589,1,0,0:0:0:0:
328,120,259732,6,0,P|276:92|224:92,1,100
84,104,260161,1,0,0:0:0:0:
152,240,260303,6,0,P|212:282|252:278,1,100
504,280,260589,5,0,0:0:0:0:
436,140,260875,2,8,L|476:92,3,50
352,84,261161,2,0,P|284:96|244:128,1,100
204,312,261446,6,0,P|120:269|88:233,1,100
52,128,262018,1,0,0:0:0:0:
304,28,262303,5,0,0:0:0:0:
276,264,262446,1,0,0:0:0:0:
384,64,262589,1,0,0:0:0:0:
268,296,262732,1,0,0:0:0:0:
456,124,262875,1,0,0:0:0:0:
260,324,263018,1,0,0:0:0:0:
512,196,263161,6,0,P|456:240|408:256,1,100
16,352,263446,2,0,P|68:280|104:256,1,100
368,20,263732,2,0,P|352:96|332:132,1,100
248,372,264018,6,0,P|224:312|228:264,1,100
232,120,264303,2,8,L|236:52,3,50
132,108,264589,2,0,P|104:192|72:232,1,100
36,336,264875,6,0,B|72:352|88:324|88:324|124:328|124:328|136:296|136:296|164:288|192:248,1,200
432,104,265732,5,0,0:0:0:0:
232,140,265875,1,0,0:0:0:0:
432,236,266018,1,0,0:0:0:0:
356,64,266161,1,0,0:0:0:0:
156,88,266303,2,0,P|144:152|168:208,1,100
252,352,266589,5,0,0:0:0:0:
360,200,266732,1,0,0:0:0:0:
388,328,266875,1,0,0:0:0:0:
248,192,267018,1,0,0:0:0:0:
96,288,267161,2,0,P|80:228|96:176,1,100
152,24,267446,6,0,P|208:60|260:68,1,100
424,72,267732,2,8,L|496:72,2,50
344,184,268018,1,0,0:0:0:0:
424,296,268161,2,8,L|356:328,2,50
232,348,268589,6,0,L|220:276,1,50
208,200,268732,1,0,0:0:0:0:
4,196,268875,2,0,P|28:144|76:104,1,100
248,20,269161,5,0,0:0:0:0:
380,104,269303,1,0,0:0:0:0:
324,256,269446,1,0,0:0:0:0:
408,84,269589,1,0,0:0:0:0:
212,156,269732,2,0,P|176:196|164:252,1,100
156,368,270018,5,0,0:0:0:0:
260,236,270161,1,0,0:0:0:0:
56,168,270303,1,0,0:0:0:0:
288,208,270446,1,0,0:0:0:0:
408,368,270589,2,0,P|448:316|452:272,1,100
452,92,270875,6,8,L|480:44,3,50
344,88,271161,2,8,L|344:32,3,50
240,72,271446,5,10,0:0:0:0:
199,72,271518,1,8,0:0:0:0:
162,88,271589,1,8,0:0:0:0:
133,116,271661,1,8,0:0:0:0:
116,152,271732,1,10,0:0:0:0:
115,191,271803,1,8,0:0:0:0:
128,228,271875,1,8,0:0:0:0:
156,255,271946,1,8,0:0:0:0:
191,273,272018,5,10,0:0:0:0:
214,229,272089,1,8,0:0:0:0:
257,203,272161,1,8,0:0:0:0:
305,212,272232,1,8,0:0:0:0:
346,239,272303,1,10,0:0:0:0:
355,288,272375,1,8,0:0:0:0:
340,335,272446,1,8,0:0:0:0:
295,359,272518,1,8,0:0:0:0:
250,340,272589,6,0,P|206:315|176:222,1,150
180,112,272875,2,0,L|180:56,3,50
268,160,273161,2,0,P|316:196|376:212,1,100
496,232,273446,2,0,P|440:284|400:300,1,100
168,364,273732,2,0,P|192:308|232:264,1,100
356,108,274018,1,0,0:0:0:0:
128,112,274161,1,0,0:0:0:0:
20,304,274303,6,0,L|52:352,3,50
164,360,274589,2,0,P|160:288|148:248,1,100
128,112,274875,1,8,0:0:0:0:
159,88,274946,1,8,0:0:0:0:
197,75,275018,1,8,0:0:0:0:
236,75,275089,1,8,0:0:0:0:
273,87,275161,6,8,P|336:126|360:158,1,100
420,256,275446,2,8,L|452:304,3,50
336,324,275732,2,0,P|256:328|224:308,1,100
92,232,276018,6,8,L|48:196,3,50
164,164,276303,1,0,0:0:0:0:
412,104,276446,1,0,0:0:0:0:
285,281,276589,1,0,0:0:0:0:
232,64,276732,1,0,0:0:0:0:
53,200,276875,6,0,P|93:252|137:288,1,100
256,376,277161,2,0,P|280:320|284:256,1,100
300,16,277446,2,0,P|344:72|364:116,1,100
448,284,277732,5,0,0:0:0:0:
396,196,277827,2,0,L|306:179,1,66.6666666666667
240,212,278018,2,0,P|184:244|164:276,1,100
112,372,278303,2,8,L|64:352,2,50
276,292,278589,6,0,B|328:264|331:197|331:197|358:215|358:215|367:247|367:247,1,175
432,156,279161,6,0,P|392:112|348:100,1,100
184,100,279446,1,8,0:0:0:0:
144,107,279518,1,8,0:0:0:0:
110,129,279589,1,8,0:0:0:0:
90,163,279661,1,8,0:0:0:0:
85,203,279732,1,8,0:0:0:0:
92,242,279803,1,8,0:0:0:0:
113,275,279875,1,8,0:0:0:0:
147,294,279946,1,8,0:0:0:0:
186,299,280018,5,8,0:0:0:0:
222,283,280089,1,8,0:0:0:0:
245,249,280161,1,8,0:0:0:0:
282,235,280232,1,8,0:0:0:0:
318,250,280303,1,8,0:0:0:0:
335,286,280375,1,8,0:0:0:0:
368,307,280446,1,8,0:0:0:0:
408,305,280518,1,8,0:0:0:0:
443,286,280589,5,8,0:0:0:0:
464,242,280661,1,8,0:0:0:0:
461,191,280732,1,8,0:0:0:0:
433,149,280803,1,8,0:0:0:0:
383,137,280875,5,8,0:0:0:0:
343,167,280946,1,8,0:0:0:0:
292,166,281018,1,8,0:0:0:0:
245,148,281089,1,8,0:0:0:0:
205,116,281161,6,8,L|174:66,3,50
155,134,281446,1,8,0:0:0:0:
141,182,281518,1,8,0:0:0:0:
150,230,281589,1,8,0:0:0:0:
181,268,281661,1,8,0:0:0:0:
222,296,281732,2,8,P|284:292|331:263,1,100
496,64,282018,2,0,P|444:80|404:112,1,100
144,340,282303,6,0,B|96:328|128:304|128:304|32:280|83:221,1,150
112,128,282589,1,0,0:0:0:0:
212,184,282732,1,0,0:0:0:0:
296,96,282875,5,8,0:0:0:0:
360,81,282970,1,8,0:0:0:0:
420,107,283065,1,8,0:0:0:0:
451,166,283161,1,8,0:0:0:0:
447,232,283256,1,8,0:0:0:0:
394,272,283351,1,8,0:0:0:0:
332,246,283446,5,8,0:0:0:0:
268,226,283541,1,8,0:0:0:0:
205,250,283637,1,8,0:0:0:0:
158,297,283732,1,8,0:0:0:0:
92,283,283827,1,8,0:0:0:0:
72,219,283922,1,8,0:0:0:0:
100,158,284018,5,8,0:0:0:0:
164,143,284113,1,8,0:0:0:0:
229,153,284208,1,8,0:0:0:0:
285,117,284303,1,8,0:0:0:0:
283,49,284399,1,8,0:0:0:0:
231,6,284494,1,8,0:0:0:0:
164,6,284589,6,0,P|99:30|48:99,1,133.333333333333
37,232,284875,5,8,0:0:0:0:
100,252,284970,1,8,0:0:0:0:
154,214,285065,1,8,0:0:0:0:
136,149,285161,1,8,0:0:0:0:
188,106,285256,1,8,0:0:0:0:
253,116,285351,1,8,0:0:0:0:
297,165,285446,5,8,0:0:0:0:
344,212,285541,1,8,0:0:0:0:
410,201,285637,1,8,0:0:0:0:
437,140,285732,1,8,0:0:0:0:
400,84,285827,1,8,0:0:0:0:
335,69,285922,1,8,0:0:0:0:
280,108,286018,2,8,P|301:137|333:145,2,66.6666666666667
24,88,286303,6,0,P|96:224|252:280,1,300.000011444092
477,295,287161,2,0,P|469:219|386:90,1,225.000008583069
303,49,287732,1,8,0:0:0:0:
298,134,287827,1,8,0:0:0:0:
331,211,287922,1,8,0:0:0:0:
386,283,288018,6,0,P|280:336|100:268,1,300.000011444092
0,120,288875,1,0,0:0:0:0:
181,15,289161,2,0,P|243:41|281:73,1,100
419,183,289446,2,0,P|341:196|297:183,1,100
172,148,289732,5,6,0:0:0:0:
441,33,295732,5,0,0:0:0:0:
338,315,296018,1,0,0:0:0:0:
45,43,296303,1,0,0:0:0:0:
256,192,301732,12,0,304875,0:0:0:0:
104,95,305161,5,0,0:0:0:0:
274,188,305446,1,0,0:0:0:0:
347,32,305732,1,0,0:0:0:0:
67,240,306018,6,0,P|62:318|132:268,1,200
104,95,306589,1,0,0:0:0:0:
269,195,306875,2,0,P|310:239|354:269,2,100
256,23,307446,1,0,0:0:0:0:
495,93,307732,2,0,L|465:146,1,50
337,367,308303,1,0,0:0:0:0:
116,260,308589,6,0,B|176:224|184:176|184:176|248:208|288:184,1,200
499,211,309446,6,0,P|456:150|329:81,1,200
120,41,310018,1,0,0:0:0:0:
232,296,310303,1,0,0:0:0:0:
256,192,310375,12,0,311732,0:0:0:0:
379,343,312018,5,0,0:0:0:0:
196,148,312303,1,0,0:0:0:0:
202,339,312589,1,0,0:0:0:0:
457,170,312875,6,0,P|441:101|322:88,1,200
112,240,313446,1,0,0:0:0:0:
363,243,313732,2,0,P|402:273|316:276,1,200
206,115,314303,1,0,0:0:0:0:
8,296,314589,1,0,0:0:0:0:
171,10,315161,1,0,0:0:0:0:
392,104,315446,6,0,B|408:140|364:152|364:152|396:192|344:204|344:204|364:244|312:256,1,200
3,172,316303,6,0,P|48:235|180:307,1,200
369,318,316875,1,0,0:0:0:0:
284,72,317161,1,0,0:0:0:0:
491,103,318018,5,0,0:0:0:0:
377,329,318303,1,8,0:0:0:0:
377,329,318399,1,8,0:0:0:0:
377,329,318494,1,8,0:0:0:0:
377,329,318589,2,8,P|302:337|280:320,1,100
180,160,318875,5,2,0:0:0:0:
303,90,319161,2,8,L|351:63,3,50
366,158,319446,2,0,P|320:217|290:239,1,100
175,329,319732,5,0,0:0:0:0:
86,225,320018,2,8,L|51:180,3,50
180,160,320303,1,0,0:0:0:0:
492,67,320589,6,0,P|445:104|406:162,1,100
281,370,320875,2,0,P|270:282|251:248,1,100
148,14,321161,2,0,P|126:76|122:125,1,100
60,328,321446,2,0,P|140:269|204:181,1,200
298,30,322018,1,0,0:0:0:0:
464,280,322303,6,0,B|460:320|460:320|420:288|372:324|372:324|336:284|296:292,1,200
4,228,323161,6,0,P|57:175|182:100,1,200
387,19,323732,1,0,0:0:0:0:
256,192,324018,1,0,0:0:0:0:
256,192,324089,12,0,325161,0:0:0:0:
133,52,325446,6,0,P|209:44|231:62,1,100
320,200,325732,5,0,0:0:0:0:
208,295,326018,2,8,L|159:322,3,50
144,226,326303,2,0,P|191:166|221:144,1,100
328,56,326589,5,0,0:0:0:0:
428,158,326875,2,8,L|464:204,3,50
320,200,327161,1,0,0:0:0:0:
16,318,327446,6,0,P|81:263|103:222,1,100
230,11,327732,2,0,P|241:100|261:135,1,100
365,372,328018,2,0,P|387:309|392:260,1,100
440,31,328303,2,0,P|358:90|294:180,1,200
213,356,328875,1,0,0:0:0:0:
48,220,329161,6,0,B|72:192|56:156|56:156|104:172|104:172|116:132|116:132|132:112|168:116,1,200
511,155,330018,6,0,P|457:209|331:285,1,200
123,367,330589,1,0,0:0:0:0:
256,192,330875,1,0,0:0:0:0:
256,192,330946,12,0,332018,0:0:0:0:
487,136,332303,5,0,0:0:0:0:
388,279,332446,1,0,0:0:0:0:
330,127,332589,2,0,P|277:83|227:75,1,100
76,32,333161,1,0,0:0:0:0:
139,195,333446,6,0,P|192:262|222:283,1,100
331,329,333732,2,0,L|391:348,3,50
306,227,334018,2,0,P|320:156|347:123,1,100
392,40,334303,6,0,P|324:37|284:56,1,100
78,117,334875,1,0,0:0:0:0:
129,356,335161,2,0,P|184:310|201:278,1,100
295,48,335732,1,0,0:0:0:0:
496,125,336018,6,0,P|452:200|418:231,1,100
301,358,336589,1,0,0:0:0:0:
309,178,336875,6,0,P|264:137|216:122,1,100
136,64,337161,2,0,L|138:10,3,50
34,108,337446,1,0,0:0:0:0:
8,323,337732,6,0,P|72:313|110:280,1,100
272,140,338303,1,0,0:0:0:0:
368,364,338589,2,0,P|395:318|402:258,1,100
408,56,339161,1,0,0:0:0:0:
138,23,339446,6,0,P|108:103|113:138,1,100
116,338,340018,1,0,0:0:0:0:
214,200,340303,6,0,P|267:160|304:152,1,100
436,138,340589,2,0,L|470:87,3,50
368,28,340875,1,0,0:0:0:0:
355,357,341161,6,0,P|304:317|276:273,1,100
175,104,341732,1,0,0:0:0:0:
368,28,341875,1,8,0:0:0:0:
391,60,341946,1,8,0:0:0:0:
403,98,342018,2,8,P|408:185|398:211,1,100
355,357,342589,1,0,0:0:0:0:
120,268,342875,6,0,P|96:216|96:156,1,100
136,20,343446,1,0,0:0:0:0:
308,88,343732,2,0,L|336:40,3,50
396,144,344018,2,0,L|440:112,3,50
424,244,344303,1,0,0:0:0:0:
300,352,344589,5,10,0:0:0:0:
265,345,344661,1,8,0:0:0:0:
236,323,344732,1,8,0:0:0:0:
218,295,344803,1,8,0:0:0:0:
211,260,344875,5,10,0:0:0:0:
247,244,344946,1,8,0:0:0:0:
271,212,345018,1,8,0:0:0:0:
275,172,345089,1,8,0:0:0:0:
265,133,345161,5,10,0:0:0:0:
306,114,345232,1,8,0:0:0:0:
350,117,345303,1,8,0:0:0:0:
392,133,345375,1,8,0:0:0:0:
422,165,345446,5,10,0:0:0:0:
439,212,345518,1,8,0:0:0:0:
433,261,345589,1,8,0:0:0:0:
407,303,345661,1,8,0:0:0:0:
362,326,345732,5,10,0:0:0:0:
312,331,345803,1,8,0:0:0:0:
265,311,345875,1,8,0:0:0:0:
226,279,345946,1,8,0:0:0:0:
175,281,346018,5,10,0:0:0:0:
128,252,346089,1,8,0:0:0:0:
106,201,346161,1,8,0:0:0:0:
116,146,346232,1,8,0:0:0:0:
150,103,346303,5,14,0:0:0:0:
424,174,346446,1,2,0:0:0:0:
284,24,346589,1,2,0:0:0:0:
471,194,346732,1,2,0:0:0:0:
248,360,346875,2,2,P|192:324|164:280,1,100
96,32,347161,5,6,0:0:0:0:
264,260,347303,1,2,0:0:0:0:
292,20,347446,1,2,0:0:0:0:
280,296,347589,1,2,0:0:0:0:
16,120,347732,2,0,P|48:192|80:224,1,100
296,328,348018,5,10,0:0:0:0:
332,312,348089,1,8,0:0:0:0:
364,288,348161,1,8,0:0:0:0:
384,252,348232,1,8,0:0:0:0:
392,212,348303,5,10,0:0:0:0:
348,204,348375,1,8,0:0:0:0:
316,176,348446,1,8,0:0:0:0:
292,136,348518,1,8,0:0:0:0:
280,92,348589,5,10,0:0:0:0:
236,68,348661,1,8,0:0:0:0:
184,72,348732,1,8,0:0:0:0:
144,104,348803,1,8,0:0:0:0:
120,148,348875,6,8,L|64:136,3,50,10|8|8|8,0:0|0:0|0:0|0:0,0:0:0:0:
160,268,349161,2,8,L|112:320,3,50,10|8|8|8,0:0|0:0|0:0|0:0,0:0:0:0:
292,264,349446,2,8,L|316:328,3,50,10|8|8|8,0:0|0:0|0:0|0:0,0:0:0:0:
444,232,349732,5,10,0:0:0:0:
264,32,349875,1,2,0:0:0:0:
164,320,350018,1,2,0:0:0:0:
440,72,350161,1,2,0:0:0:0:
80,128,350303,1,2,0:0:0:0:
432,320,350446,1,2,0:0:0:0:
256,188,350589,5,2,0:0:0:0:
460,64,350732,1,2,0:0:0:0:
200,184,350875,1,2,0:0:0:0:
460,336,351018,1,2,0:0:0:0:
152,184,351161,2,2,P|184:131|232:96,1,100
368,12,351446,5,10,0:0:0:0:
409,39,351518,1,8,0:0:0:0:
436,80,351589,1,8,0:0:0:0:
451,127,351661,1,8,0:0:0:0:
445,176,351732,5,10,0:0:0:0:
265,369,351875,1,2,0:0:0:0:
328,140,352018,1,2,0:0:0:0:
76,304,352161,1,2,0:0:0:0:
7,117,352303,5,10,0:0:0:0:
42,80,352375,1,8,0:0:0:0:
89,66,352446,1,8,0:0:0:0:
134,87,352518,1,8,0:0:0:0:
169,121,352589,1,10,0:0:0:0:
216,135,352661,1,8,0:0:0:0:
263,117,352732,1,8,0:0:0:0:
303,87,352803,1,8,0:0:0:0:
353,83,352875,2,10,P|421:130|436:170,1,100
464,360,353161,5,6,0:0:0:0:
346,166,353303,1,2,0:0:0:0:
212,368,353446,1,2,0:0:0:0:
360,136,353589,1,2,0:0:0:0:
52,252,353732,1,2,0:0:0:0:
378,99,353875,1,2,0:0:0:0:
112,24,354018,6,2,P|116:96|132:128,1,100
320,380,354303,2,2,P|360:304|360:248,1,100
360,24,354589,1,2,0:0:0:0:
260,304,354732,1,2,0:0:0:0:
112,24,354875,5,10,0:0:0:0:
70,51,354946,1,8,0:0:0:0:
59,100,355018,1,8,0:0:0:0:
94,135,355089,1,8,0:0:0:0:
143,134,355161,5,10,0:0:0:0:
181,101,355232,1,8,0:0:0:0:
229,89,355303,1,8,0:0:0:0:
277,102,355375,1,8,0:0:0:0:
314,135,355446,5,10,0:0:0:0:
328,183,355518,1,8,0:0:0:0:
315,231,355589,1,8,0:0:0:0:
281,267,355661,1,8,0:0:0:0:
235,289,355732,6,8,L|195:229,3,50,10|8|8|8,0:0|0:0|0:0|0:0,0:0:0:0:
90,238,356018,2,8,L|78:186,3,50,10|8|8|8,0:0|0:0|0:0|0:0,0:0:0:0:
184,144,356303,2,8,L|200:84,3,50,10|8|8|8,0:0|0:0|0:0|0:0,0:0:0:0:
304,52,356589,5,10,0:0:0:0:
500,248,356732,1,2,0:0:0:0:
0,288,357303,5,0,0:0:0:0:
119,106,357446,2,0,P|87:56|42:32,2,100
169,253,357875,2,0,P|227:291|281:292,1,100
453,258,358161,1,0,0:0:0:0:
336,24,358303,2,0,P|268:52|236:76,1,100
72,236,358589,5,0,0:0:0:0:
124,321,358732,1,0,0:0:0:0:
212,366,358875,1,0,0:0:0:0:
311,360,359018,1,0,0:0:0:0:
432,248,359161,6,0,L|500:252,2,50
208,232,359446,2,0,P|264:216|312:188,1,100
491,90,359732,2,0,P|432:63|374:57,1,100
248,24,360018,6,0,P|248:112|252:144,1,100
289,309,360446,1,0,0:0:0:0:
104,320,360589,6,0,P|53:294|20:227,1,100
67,116,360875,2,0,P|130:150|167:187,1,100
289,309,361161,2,0,L|318:359,3,50
386,288,361446,2,0,P|428:229|436:171,1,100
364,44,361732,6,0,B|328:76|288:40|288:40|292:88|236:144,1,200
88,334,362589,1,0,0:0:0:0:
50,141,362875,1,0,0:0:0:0:
218,250,363161,2,0,P|264:216|324:208,1,100
486,162,363446,6,0,P|444:256|352:312,1,200
172,338,364018,1,0,0:0:0:0:
54,129,364303,1,0,0:0:0:0:
67,288,364589,2,0,L|12:317,3,50
146,246,364875,2,0,P|184:200|197:124,1,100
232,44,365161,6,0,B|287:72|299:122|299:122|313:170|368:184,1,200
398,326,366018,1,0,0:0:0:0:
222,259,366303,1,0,0:0:0:0:
50,351,366589,2,0,L|50:233,1,100
85,87,366875,6,0,P|177:145|223:267,1,200
264,344,367303,1,0,0:0:0:0:
380,304,367446,1,0,0:0:0:0:
468,60,367732,2,0,P|388:35|342:35,1,100
180,32,368018,2,0,L|130:58,3,50
260,104,368303,2,0,P|228:156|184:176,1,100
67,284,368589,6,0,P|136:332|214:335,1,150
296,288,368875,2,0,P|363:351|431:346,1,150
386,259,369161,2,0,P|419:200|384:108,1,150
324,184,369446,2,0,P|265:142|127:167,1,200
33,359,370018,5,0,0:0:0:0:
220,240,370161,1,0,0:0:0:0:
0,220,370303,5,0,0:0:0:0:
220,240,370446,1,0,0:0:0:0:
56,104,370589,2,0,P|88:56|136:40,2,100
112,232,371018,1,0,0:0:0:0:
304,112,371161,2,0,P|312:176|296:220,1,100
214,288,371446,2,0,L|213:342,3,50
318,296,371732,2,0,P|369:259|386:145,1,150
381,53,372018,5,2,0:0:0:0:
214,288,372161,1,8,0:0:0:0:
214,288,372232,1,8,0:0:0:0:
214,288,372303,1,8,0:0:0:0:
177,89,372446,1,0,0:0:0:0:
64,332,372589,1,0,0:0:0:0:
0,192,372732,1,0,0:0:0:0:
71,24,372875,5,10,0:0:0:0:
91,50,372946,1,8,0:0:0:0:
117,69,373018,1,8,0:0:0:0:
145,83,373089,1,8,0:0:0:0:
177,89,373161,5,10,0:0:0:0:
208,60,373232,1,8,0:0:0:0:
248,47,373303,1,8,0:0:0:0:
290,54,373375,1,8,0:0:0:0:
323,87,373446,5,10,0:0:0:0:
281,254,373589,1,0,0:0:0:0:
110,177,373732,6,0,L|66:200,7,50
140,292,374303,2,0,L|103:336,3,50
256,299,374589,5,0,0:0:0:0:
300,297,374661,1,0,0:0:0:0:
344,290,374732,1,0,0:0:0:0:
384,267,374803,1,0,0:0:0:0:
413,232,374875,1,0,0:0:0:0:
425,188,374946,1,0,0:0:0:0:
423,144,375018,1,0,0:0:0:0:
402,104,375089,1,0,0:0:0:0:
374,70,375161,2,0,L|332:26,3,50
246,114,375446,6,0,L|211:163,7,50
120,73,376018,2,0,L|65:30,3,50
83,173,376303,1,0,0:0:0:0:
75,218,376375,1,0,0:0:0:0:
83,264,376446,1,0,0:0:0:0:
106,303,376518,1,0,0:0:0:0:
140,336,376589,5,0,0:0:0:0:
177,301,376661,1,0,0:0:0:0:
225,287,376732,1,0,0:0:0:0:
277,294,376803,1,0,0:0:0:0:
320,322,376875,2,0,P|410:312|445:278,1,133.333333333333
485,192,377161,6,0,L|488:128,7,50
363,200,377732,2,0,L|316:252,3,50
355,91,378018,5,0,0:0:0:0:
305,64,378089,1,0,0:0:0:0:
250,50,378161,1,0,0:0:0:0:
196,56,378232,1,0,0:0:0:0:
147,83,378303,6,0,L|86:121,3,50
196,196,378589,2,0,L|221:257,3,50
74,256,378875,6,0,L|28:309,7,50
183,327,379446,2,0,L|182:397,3,50
309,313,379732,5,10,0:0:0:0:
359,286,379803,1,8,0:0:0:0:
398,245,379875,1,8,0:0:0:0:
412,192,379946,1,8,0:0:0:0:
406,135,380018,5,10,0:0:0:0:
356,160,380089,1,8,0:0:0:0:
300,156,380161,1,8,0:0:0:0:
259,119,380232,1,8,0:0:0:0:
236,67,380303,6,0,L|238:16,1,50
233,193,380446,2,0,L|231:244,1,50
411,206,380589,6,0,L|476:183,7,50
391,93,381161,2,0,L|381:30,3,50
256,74,381446,5,0,0:0:0:0:
208,75,381518,1,0,0:0:0:0:
158,86,381589,1,0,0:0:0:0:
118,110,381661,1,0,0:0:0:0:
85,147,381732,1,0,0:0:0:0:
73,195,381803,1,0,0:0:0:0:
75,242,381875,1,0,0:0:0:0:
97,285,381946,1,0,0:0:0:0:
127,322,382018,2,0,L|175:361,3,50
264,254,382303,6,0,P|237:192|192:155,1,100
83,50,382589,2,0,P|169:46|210:73,1,133.333333333333
402,319,382875,2,0,L|460:360,3,50
441,211,383161,1,0,0:0:0:0:
450,162,383232,1,0,0:0:0:0:
441,114,383303,1,0,0:0:0:0:
417,71,383375,1,0,0:0:0:0:
379,36,383446,5,0,0:0:0:0:
340,72,383518,1,0,0:0:0:0:
288,88,383589,1,0,0:0:0:0:
231,80,383661,1,0,0:0:0:0:
184,50,383732,2,0,P|88:61|52:98,1,133.333333333333
4,188,384018,6,0,L|4:250,7,50
138,182,384589,2,0,L|181:131,3,50
149,298,384875,5,0,0:0:0:0:
202,327,384946,1,0,0:0:0:0:
261,342,385018,1,0,0:0:0:0:
319,338,385089,1,0,0:0:0:0:
373,309,385161,6,0,L|423:276,3,50
312,211,385446,2,0,L|285:152,3,50
440,168,385732,6,0,L|474:127,7,50
323,85,386303,2,0,L|324:25,3,50
197,60,386589,5,0,0:0:0:0:
143,89,386661,1,0,0:0:0:0:
102,133,386732,1,0,0:0:0:0:
86,192,386803,1,0,0:0:0:0:
92,251,386875,5,0,0:0:0:0:
148,225,386946,1,0,0:0:0:0:
206,229,387018,1,0,0:0:0:0:
251,268,387089,1,0,0:0:0:0:
282,317,387161,2,0,L|301:366,3,50
400,309,387446,5,2,0:0:0:0:
176,32,387732,1,2,0:0:0:0:
83,359,388018,1,2,0:0:0:0:
336,164,388303,2,0,P|425:124|474:38,2,200
116,176,389161,5,0,0:0:0:0:
328,64,389446,1,0,0:0:0:0:
456,264,389732,2,0,P|425:302|380:324,1,100
162,321,390018,5,0,0:0:0:0:
68,164,390161,1,0,0:0:0:0:
151,344,390303,1,0,0:0:0:0:
360,232,390446,1,0,0:0:0:0:
140,369,390589,1,0,0:0:0:0:
236,88,390732,1,0,0:0:0:0:
504,184,390875,6,0,P|455:247|419:264,1,100
260,352,391161,1,0,0:0:0:0:
332,160,391303,1,0,0:0:0:0:
408,344,391446,1,0,0:0:0:0:
224,224,391589,1,0,0:0:0:0:
308,32,391732,6,0,P|374:64|402:98,1,100
460,244,392018,1,0,0:0:0:0:
300,152,392161,1,0,0:0:0:0:
472,136,392303,1,0,0:0:0:0:
336,264,392446,1,0,0:0:0:0:
132,348,392589,6,0,P|79:295|71:259,1,100
88,104,392875,1,0,0:0:0:0:
200,248,393018,1,0,0:0:0:0:
24,188,393161,1,0,0:0:0:0:
212,144,393303,1,0,0:0:0:0:
380,236,393446,6,0,P|424:187|432:128,1,100
396,12,393732,1,0,0:0:0:0:
308,152,393875,1,0,0:0:0:0:
492,80,394018,1,0,0:0:0:0:
296,48,394161,1,0,0:0:0:0:
104,128,394303,6,0,P|104:216|200:304,1,200
420,304,394732,2,0,P|471:242|475:217,2,100
172,292,395161,2,0,P|218:198|319:153,1,200
464,88,395589,1,0,0:0:0:0:
212,48,395732,1,0,0:0:0:0:
288,276,395875,1,0,0:0:0:0:
464,88,396018,6,2,P|400:64|344:84,1,100
148,156,396303,2,2,P|168:200|207:232,1,100
432,228,396589,2,2,P|410:183|372:151,1,100
100,288,396875,2,2,P|140:317|188:328,1,100
440,88,397161,2,2,B|408:52|344:48,1,100
24,80,397446,2,2,P|72:112|120:124,1,100
264,140,397732,5,2,0:0:0:0:
504,336,398018,1,0,0:0:0:0:
328,244,398161,1,0,0:0:0:0:
136,288,398303,2,0,P|91:265|61:226,1,100
24,80,398589,5,0,0:0:0:0:
304,44,398875,1,0,0:0:0:0:
328,244,399018,1,0,0:0:0:0:
436,84,399161,2,0,P|460:132|440:196,1,100
126,62,399446,5,0,0:0:0:0:
436,84,399732,2,0,P|484:31|496:-10,2,100
256,172,400161,1,0,0:0:0:0:
354,335,400303,2,0,P|386:277|374:228,1,100
259,48,400589,2,0,P|200:48|152:77,1,100
28,237,400875,2,0,P|85:253|150:241,1,100
304,180,401161,5,0,0:0:0:0:
120,344,401446,5,0,0:0:0:0:
28,237,401589,1,2,0:0:0:0:
60,104,401732,2,0,P|104:67|148:54,1,100
338,33,402018,5,2,0:0:0:0:
488,270,402303,5,0,0:0:0:0:
304,180,402446,1,0,0:0:0:0:
288,359,402589,1,0,0:0:0:0:
287,152,402732,1,0,0:0:0:0:
107,92,402875,5,8,0:0:0:0:
77,119,402946,1,8,0:0:0:0:
65,157,403018,1,8,0:0:0:0:
68,196,403089,1,8,0:0:0:0:
87,231,403161,1,8,0:0:0:0:
295,288,403303,1,2,0:0:0:0:
183,164,403446,1,2,0:0:0:0:
432,276,403589,1,2,0:0:0:0:
162,335,403732,5,8,0:0:0:0:
134,313,403803,1,8,0:0:0:0:
114,283,403875,1,8,0:0:0:0:
104,252,403946,1,8,0:0:0:0:
102,215,404018,1,8,0:0:0:0:
275,100,404161,1,2,0:0:0:0:
211,241,404303,1,2,0:0:0:0:
404,92,404446,1,2,0:0:0:0:
302,320,404589,6,0,P|186:350|97:298,1,200
72,69,405018,1,0,0:0:0:0:
209,235,405161,1,0,0:0:0:0:
315,63,405303,1,0,0:0:0:0:
384,269,405446,6,0,P|431:324|478:341,2,100
311,98,405875,1,0,0:0:0:0:
209,235,406018,1,0,0:0:0:0:
315,63,406161,1,0,0:0:0:0:
93,120,406303,6,0,P|67:196|71:243,1,100
294,363,406589,2,0,P|319:289|324:247,1,100
311,98,406875,1,0,0:0:0:0:
368,192,407018,1,0,0:0:0:0:
315,63,407161,1,0,0:0:0:0:
232,216,407303,1,0,0:0:0:0:
332,31,407446,1,0,0:0:0:0:
292,296,407589,1,0,0:0:0:0:
360,9,407732,1,0,0:0:0:0:
200,344,407875,1,0,0:0:0:0:
127,172,408018,6,0,P|208:128|323:185,1,200
504,344,408446,1,0,0:0:0:0:
324,292,408589,1,0,0:0:0:0:
464,156,408732,1,0,0:0:0:0:
315,55,408875,6,0,P|208:16|97:59,1,200
16,208,409303,1,0,0:0:0:0:
209,141,409446,1,0,0:0:0:0:
392,236,409589,1,0,0:0:0:0:
24,365,409732,6,2,L|115:323,1,100
386,343,410018,2,2,L|294:298,1,100
28,258,410303,2,2,L|119:217,1,100
440,228,410589,6,2,L|349:185,1,100
36,146,410875,2,2,L|140:104,1,100
464,48,411161,2,2,L|349:103,1,100
293,349,411446,6,2,P|243:347|199:323,1,100,2|0,0:0|0:0,0:0:0:0:
131,120,411732,1,0,0:0:0:0:
364,112,411875,1,0,0:0:0:0:
268,260,412018,1,0,0:0:0:0:
393,94,412161,1,0,0:0:0:0:
34,128,412303,6,0,P|16:188|29:235,1,100
199,323,412589,1,0,0:0:0:0:
316,152,412732,1,0,0:0:0:0:
120,184,412875,1,0,0:0:0:0:
342,131,413018,1,0,0:0:0:0:
406,350,413161,5,0,0:0:0:0:
34,253,413446,2,0,P|93:205|140:188,1,100
474,154,413732,2,0,P|418:127|354:110,1,100
81,77,414018,5,0,0:0:0:0:
156,364,414303,2,0,P|184:296|180:248,1,100
217,29,414589,2,0,P|245:75|256:144,1,100
280,312,414875,5,2,0:0:0:0:
400,160,415161,5,0,0:0:0:0:
496,24,415303,1,0,0:0:0:0:
444,236,415446,1,0,0:0:0:0:
223,296,415732,5,2,0:0:0:0:
140,132,416018,5,0,0:0:0:0:
0,188,416161,1,0,0:0:0:0:
68,12,416303,1,0,0:0:0:0:
264,134,416589,5,2,0:0:0:0:
354,218,416732,1,2,0:0:0:0:
268,304,416875,1,2,0:0:0:0:
176,215,417018,1,2,0:0:0:0:
282,120,417161,1,2,0:0:0:0:
371,240,417303,5,2,0:0:0:0:
251,325,417446,1,2,0:0:0:0:
155,192,417589,1,2,0:0:0:0:
300,102,417732,1,2,0:0:0:0:
398,268,417875,1,2,0:0:0:0:
511,106,418018,1,2,0:0:0:0:
398,295,418161,1,2,0:0:0:0:
208,337,418303,6,0,P|137:289|116:251,1,100,2|0,0:0|0:0,0:0:0:0:
72,136,418589,1,0,0:0:0:0:
200,68,418732,1,0,0:0:0:0:
304,144,418875,1,0,0:0:0:0:
404,60,419018,1,0,0:0:0:0:
500,152,419161,6,0,P|456:204|404:236,1,100
288,304,419446,1,0,0:0:0:0:
128,256,419589,1,0,0:0:0:0:
228,212,419732,1,0,0:0:0:0:
168,344,419875,1,0,0:0:0:0:
168,144,420018,6,0,P|231:121|271:129,1,100
404,176,420303,1,0,0:0:0:0:
260,320,420446,1,0,0:0:0:0:
228,212,420589,1,0,0:0:0:0:
384,288,420732,1,0,0:0:0:0:
484,152,420875,6,0,P|439:103|392:96,1,100
248,88,421161,1,0,0:0:0:0:
404,176,421303,1,0,0:0:0:0:
456,28,421446,1,0,0:0:0:0:
304,176,421589,1,0,0:0:0:0:
488,224,421732,6,0,P|428:304|328:324,1,200
112,264,422161,2,0,P|60:326|56:351,2,100
488,224,422589,2,0,P|450:159|340:85,1,200
184,160,423018,1,0,0:0:0:0:
360,204,423161,1,0,0:0:0:0:
232,332,423303,1,0,0:0:0:0:
88,220,423446,6,2,P|34:277|26:310,1,100
324,244,423732,2,2,P|368:203|384:158,1,100
128,116,424018,2,2,P|71:132|23:188,1,100
277,332,424303,2,2,P|341:311|382:267,1,100
435,115,424589,2,2,B|394:57|333:66,1,100
40,286,424875,2,2,P|101:310|150:302,1,100
481,228,425161,5,2,0:0:0:0:
144,148,425446,1,0,0:0:0:0:
272,24,425589,1,0,0:0:0:0:
425,112,425732,2,0,P|393:152|349:174,1,100
32,164,426018,5,0,0:0:0:0:
288,336,426303,1,0,0:0:0:0:
350,173,426446,1,0,0:0:0:0:
449,316,426589,2,0,P|477:259|473:202,1,100
386,62,426875,5,0,0:0:0:0:
113,119,427161,2,0,P|64:66|52:25,2,100
257,188,427589,1,0,0:0:0:0:
158,335,427732,2,0,P|125:277|137:228,1,100
220,53,428018,2,0,P|289:44|330:57,1,100
484,237,428303,2,0,P|426:253|361:241,1,100
150,192,428589,5,2,0:0:0:0:
313,335,428875,1,0,0:0:0:0:
284,192,429018,1,0,0:0:0:0:
427,168,429161,2,0,P|398:118|361:90,1,100
174,33,429446,5,2,0:0:0:0:
24,270,429732,1,0,0:0:0:0:
208,180,429875,1,0,0:0:0:0:
224,359,430018,1,0,0:0:0:0:
225,152,430161,1,0,0:0:0:0:
368,32,430303,5,8,0:0:0:0:
392,59,430375,1,8,0:0:0:0:
404,92,430446,1,8,0:0:0:0:
406,129,430518,1,8,0:0:0:0:
390,160,430589,1,8,0:0:0:0:
224,359,430732,1,2,0:0:0:0:
225,152,430875,1,2,0:0:0:0:
96,284,431018,1,2,0:0:0:0:
97,132,431161,5,8,0:0:0:0:
111,102,431232,1,8,0:0:0:0:
135,74,431303,1,8,0:0:0:0:
165,55,431375,1,8,0:0:0:0:
198,47,431446,1,8,0:0:0:0:
324,132,431589,1,2,0:0:0:0:
200,220,431732,1,2,0:0:0:0:
48,200,431875,1,2,0:0:0:0:
210,320,432018,6,0,P|325:350|414:298,1,200
440,69,432446,1,0,0:0:0:0:
303,235,432589,1,0,0:0:0:0:
197,63,432732,1,0,0:0:0:0:
128,269,432875,6,0,P|80:324|33:341,2,100
201,98,433303,1,0,0:0:0:0:
303,235,433446,1,0,0:0:0:0:
201,69,433589,1,0,0:0:0:0:
419,120,433732,6,0,P|444:196|440:243,1,100
218,363,434018,2,0,P|190:316|187:263,1,100
197,98,434303,1,0,0:0:0:0:
124,196,434446,1,0,0:0:0:0:
201,73,434589,1,0,0:0:0:0:
40,164,434732,1,0,0:0:0:0:
205,46,434875,1,0,0:0:0:0:
0,88,435018,1,0,0:0:0:0:
205,25,435161,1,0,0:0:0:0:
292,260,435303,1,0,0:0:0:0:
385,172,435446,6,0,P|303:128|188:185,1,200
8,344,435875,1,0,0:0:0:0:
188,292,436018,1,0,0:0:0:0:
48,156,436161,1,0,0:0:0:0:
197,55,436303,6,0,P|308:28|414:59,1,200
512,201,436732,1,0,0:0:0:0:
303,141,436875,1,0,0:0:0:0:
106,252,437018,1,0,0:0:0:0:
432,288,437161,6,2,L|344:227,1,100
136,88,437446,2,2,L|220:172,1,100
324,368,437732,2,2,L|280:268,1,100
288,32,438018,2,2,L|272:160,1,100
168,360,438303,2,2,L|220:256,1,100
432,72,438589,2,2,L|348:144,1,100
56,288,438875,6,2,P|72:232|116:180,1,100,2|0,0:0|0:0,0:0:0:0:
208,64,439161,1,0,0:0:0:0:
156,260,439303,1,0,0:0:0:0:
232,32,439446,1,0,0:0:0:0:
304,152,439589,1,0,0:0:0:0:
452,52,439732,6,0,P|469:112|456:159,1,100
380,280,440018,1,0,0:0:0:0:
257,205,440161,1,0,0:0:0:0:
368,108,440303,1,0,0:0:0:0:
224,212,440446,1,0,0:0:0:0:
106,350,440589,5,0,0:0:0:0:
448,295,440875,2,0,P|388:247|341:230,1,100
38,154,441161,2,0,P|93:127|157:110,1,100
431,77,441446,5,0,0:0:0:0:
210,359,441732,2,0,P|196:289|210:242,1,100
295,29,442018,2,0,P|308:93|299:149,1,100
289,296,442303,5,2,0:0:0:0:
106,235,442589,5,0,0:0:0:0:
17,59,442732,1,0,0:0:0:0:
55,333,442875,1,0,0:0:0:0:
289,296,443161,5,2,0:0:0:0:
409,208,443446,5,0,0:0:0:0:
498,32,443589,1,0,0:0:0:0:
460,289,443732,1,0,0:0:0:0:
332,93,444018,5,2,0:0:0:0:
258,327,444161,1,2,0:0:0:0:
181,93,444303,1,2,0:0:0:0:
379,237,444446,1,2,0:0:0:0:
134,237,444589,1,2,0:0:0:0:
354,63,444732,5,2,0:0:0:0:
257,362,444875,1,2,0:0:0:0:
160,63,445018,1,2,0:0:0:0:
413,248,445161,1,2,0:0:0:0:
100,248,445303,1,2,0:0:0:0:
364,40,445446,5,2,0:0:0:0:
256,376,445589,1,2,0:0:0:0:
152,40,445732,1,6,0:0:0:0:
256,192,445803,12,0,449161,0:0:0:0:
