osu file format v14

[General]
AudioFilename: audio.mp3
AudioLeadIn: 0
PreviewTime: 45555
Countdown: 0
SampleSet: Normal
StackLeniency: 0.6
Mode: 0
LetterboxInBreaks: 0
WidescreenStoryboard: 0

[Editor]
Bookmarks: 15655,42446,56728,61193,65658,70113,74588,79322,82950,83927,90764,97461,99694,101926,106392,108624,118671,119508,126485,128717,139880,146578,164438,165554,171136,175601,180066,183415,192205,197926,198485,202950,203089,203368,211880,220252,221229,229182,238112,255973,257089,258764,266019,270485,272717,273833,274950,283740,290438,291694,301740,308438,315136,319601,324066,327415,329508,332996,333136
DistanceSpacing: 1
BeatDivisor: 4
GridSize: 4
TimelineZoom: 2.1

[Metadata]
Title:Strike
TitleUnicode:Strike
Artist:Whispered
ArtistUnicode:Whispered
Creator:MrKosiej
Version:Charge
Source:
Tags:eastern japanese metal rock metsutan songs of the void
BeatmapID:1199180
BeatmapSetID:566078

[Difficulty]
HPDrainRate:6
CircleSize:4.2
OverallDifficulty:8.6
ApproachRate:9.6
SliderMultiplier:1.4
SliderTickRate:1

[Events]
//Background and Video events
0,0,"Samurai_Concept_Art_Illustration_01_Jonas_De_Ro.jpg",0,0
//Break Periods
2,86299,90255
2,275150,278208
//Storyboard Layer 0 (Background)
//Storyboard Layer 1 (Fail)
//Storyboard Layer 2 (Pass)
//Storyboard Layer 3 (Foreground)
//Storyboard Sound Samples

[TimingPoints]
2260,279.06976744186,3,1,1,30,1,0
2260,-133.333333333333,3,1,1,30,0,0
8329,-133.333333333333,3,1,1,5,0,0
8399,-133.333333333333,3,1,1,30,0,0
8608,-133.333333333333,3,1,1,5,0,0
8678,-133.333333333333,3,1,1,30,0,0
8887,-133.333333333333,3,1,1,5,0,0
8957,-133.333333333333,3,1,1,30,0,0
13353,-133.333333333333,3,1,1,5,0,0
13422,-133.333333333333,3,1,1,30,0,0
13632,-133.333333333333,3,1,1,5,0,0
13701,-133.333333333333,3,1,1,30,0,0
13911,-133.333333333333,3,1,1,5,0,0
13980,-133.333333333333,3,1,1,30,0,0
21725,-133.333333333333,3,1,1,5,0,0
21794,-133.333333333333,3,1,1,30,0,0
22004,-133.333333333333,3,1,1,5,0,0
22073,-133.333333333333,3,1,1,30,0,0
22283,-133.333333333333,3,1,1,5,0,0
22353,-133.333333333333,3,1,1,30,0,0
25911,-133.333333333333,3,1,1,5,0,0
25980,-133.333333333333,3,1,1,30,0,0
26190,-133.333333333333,3,1,1,5,0,0
26259,-133.333333333333,3,1,1,30,0,0
26469,-133.333333333333,3,1,1,5,0,0
26539,-133.333333333333,3,1,1,30,0,0
26748,-133.333333333333,3,1,1,5,0,0
26818,-133.333333333333,3,1,1,30,0,0
27027,-133.333333333333,3,1,1,5,0,0
27097,-133.333333333333,3,1,1,30,0,0
27306,-133.333333333333,3,1,1,5,0,0
27376,-133.333333333333,3,1,1,30,0,0
27585,-133.333333333333,3,1,1,5,0,0
27655,-133.333333333333,3,1,1,30,0,0
27864,-133.333333333333,3,1,1,5,0,0
27934,-133.333333333333,3,1,1,30,0,0
28143,-133.333333333333,3,1,1,5,0,0
28213,-133.333333333333,3,1,1,30,0,0
28422,-133.333333333333,3,1,1,5,0,0
28492,-133.333333333333,3,1,1,30,0,0
28701,-133.333333333333,3,1,1,5,0,0
28771,-133.333333333333,3,1,1,30,0,0
28980,-133.333333333333,3,1,1,5,0,0
29050,-133.333333333333,3,1,1,30,0,0
35120,-133.333333333333,3,1,1,5,0,0
35190,-133.333333333333,3,1,1,30,0,0
35399,-133.333333333333,3,1,1,5,0,0
35469,-133.333333333333,3,1,1,30,0,0
35678,-133.333333333333,3,1,1,5,0,0
35748,-133.333333333333,3,1,1,30,0,0
39864,-133.333333333333,3,1,1,5,0,0
39934,-133.333333333333,3,1,1,30,0,0
40143,-133.333333333333,3,1,1,5,0,0
40213,-133.333333333333,3,1,1,30,0,0
40422,-133.333333333333,3,1,1,5,0,0
40492,-133.333333333333,3,1,1,30,0,0
40980,-133.333333333333,3,1,1,5,0,0
41050,-133.333333333333,3,1,1,30,0,0
41259,-133.333333333333,3,1,1,5,0,0
41329,-133.333333333333,3,1,1,30,0,0
41539,-133.333333333333,3,1,1,5,0,0
41608,-133.333333333333,3,1,1,30,0,0
41818,-133.333333333333,3,1,1,5,0,0
41887,-133.333333333333,3,1,1,30,0,0
42097,-133.333333333333,3,1,1,5,0,0
42166,-133.333333333333,3,1,1,30,0,0
42655,-133.333333333333,3,1,1,5,0,0
42725,-133.333333333333,3,1,1,30,0,0
42934,-133.333333333333,3,1,1,5,0,0
43004,-133.333333333333,3,1,1,30,0,0
43213,-133.333333333333,3,1,1,5,0,0
43283,-133.333333333333,3,1,1,30,0,0
43492,-133.333333333333,3,1,1,5,0,0
43562,-133.333333333333,3,1,1,30,0,0
43771,-133.333333333333,3,1,1,5,0,0
43841,-133.333333333333,3,1,1,30,0,0
44050,-133.333333333333,3,1,1,5,0,0
44120,-125,3,1,1,45,0,0
44329,-125,3,1,1,5,0,0
44399,-125,3,1,1,45,0,0
44608,-125,3,1,1,5,0,0
44678,-125,3,1,1,45,0,0
44887,-125,3,1,1,5,0,0
44957,-111.111111111111,3,1,1,60,0,0
45166,-111.111111111111,3,1,1,5,0,0
45236,-111.111111111111,3,1,1,60,0,0
45446,-111.111111111111,3,1,1,5,0,0
45515,-111.111111111111,3,1,1,60,0,0
45695.0075930456,279.06976744186,4,1,1,70,1,0
47927,-100,4,1,1,40,0,0
54485,-100,4,1,1,50,0,0
57136,-100,4,1,1,70,0,0
70113,-66.6666666666667,4,1,1,70,0,0
70322,-100,4,1,1,5,0,0
70392,-100,4,1,1,70,0,0
74788,-100,4,1,1,5,0,0
74857,-100,4,1,1,70,0,0
77020,-100,4,1,1,5,0,0
77090,-100,4,1,1,70,0,0
77299,-100,4,1,1,5,0,0
77369,-100,4,1,1,70,0,0
82043,-100,4,1,1,5,0,0
82113,-100,4,1,1,70,0,0
86299,279.06976744186,4,1,1,70,1,0
90764,-100,4,1,1,50,0,0
92717,-83.3333333333333,4,1,1,50,0,0
92996,-83.3333333333333,4,1,1,70,0,1
93275,-100,4,1,1,70,0,1
110857,-100,4,1,1,40,0,0
114973,-100,4,1,1,5,0,0
115043,-100,4,1,1,40,0,0
115252,-100,4,1,1,5,0,0
115322,-100,4,1,1,70,0,0
119787,-100,4,1,1,40,0,0
124252,-100,4,1,1,70,0,0
130112,-100,4,1,1,30,0,0
130950,-100,4,1,1,70,0,1
148810,-100,4,1,1,70,0,0
149298,-100,4,1,1,5,0,0
149368,-100,4,1,1,30,0,0
150136,-100,4,1,1,5,0,0
150205,-100,4,1,1,30,0,0
150485,-100,4,1,1,40,0,0
150764,-100,4,1,1,70,0,0
151043,-100,4,1,1,70,0,1
151252,-100,4,1,1,5,0,1
151322,-100,4,1,1,70,0,1
151601,-66.6666666666667,4,1,1,70,0,1
151810,-66.6666666666667,4,1,1,5,0,1
151880,-66.6666666666667,4,1,1,70,0,1
152159,-50,4,1,1,70,0,1
152368,-50,4,1,1,5,0,1
152438,-50,4,1,1,70,0,1
152647,-50,4,1,1,5,0,1
152717,-50,4,1,1,70,0,1
152926,-50,4,1,1,5,0,1
152996,-50,4,1,1,70,0,1
153205,-50,4,1,1,5,0,1
153275,-100,4,1,1,70,0,1
157740,-66.6666666666667,4,1,1,70,0,1
158229,-66.6666666666667,4,1,1,5,0,1
158298,-66.6666666666667,4,1,1,70,0,1
159066,-66.6666666666667,4,1,1,5,0,1
159136,-66.6666666666667,4,1,1,70,0,1
159624,-66.6666666666667,4,1,1,5,0,1
159694,-66.6666666666667,4,1,1,70,0,1
159903,-66.6666666666667,4,1,1,5,0,1
159973,-100,4,1,1,70,0,1
160531,-66.6666666666667,4,1,1,70,0,1
161089,-50,4,1,1,70,0,1
161298,-50,4,1,1,5,0,1
161368,-50,4,1,1,70,0,1
161578,-50,4,1,1,5,0,1
161647,-50,4,1,1,70,0,1
161857,-50,4,1,1,5,0,1
161926,-50,4,1,1,70,0,1
162136,-50,4,1,1,5,0,1
162205,-100,4,1,1,70,0,1
166601,-100,4,1,1,5,0,1
166671,-100,4,1,1,70,0,0
185508,-100,4,1,1,70,0,0
194438,-100,4,1,1,70,0,1
199322,-66.6666666666667,4,1,1,70,0,1
199740,-50,4,1,1,70,0,1
200019,-100,4,1,1,70,0,1
205601,-66.6666666666667,4,1,1,70,0,1
206019,-100,4,1,1,70,0,1
210764,-50,4,1,1,70,0,1
212438,-100,4,1,1,25,0,0
229275,-100,4,1,1,5,0,0
229368,-100,4,1,1,25,0,0
229461,-100,4,1,1,5,0,0
229554,-100,4,1,1,25,0,0
229647,-100,4,1,1,5,0,0
229740,-100,4,1,1,25,0,0
229833,-100,4,1,1,5,0,0
229926,-100,4,1,1,25,0,0
230019,-100,4,1,1,5,0,0
230112,-100,4,1,1,25,0,0
230205,-100,4,1,1,5,0,0
230298,-100,4,1,1,25,0,0
231903,-100,4,1,1,5,0,0
231973,-100,4,1,1,25,0,0
234624,-100,4,1,1,30,0,0
239229,-133.333333333333,4,1,1,45,0,0
239717,-133.333333333333,4,1,1,5,0,0
239787,-133.333333333333,4,1,1,45,0,0
240833,-133.333333333333,4,1,1,5,0,0
240903,-133.333333333333,4,1,1,45,0,0
244182,-133.333333333333,4,1,1,5,0,0
244252,-133.333333333333,4,1,1,45,0,0
245298,-133.333333333333,4,1,1,5,0,0
245368,-133.333333333333,4,1,1,45,0,0
246415,-133.333333333333,4,1,1,5,0,0
246485,-133.333333333333,4,1,1,45,0,0
247531,-133.333333333333,4,1,1,5,0,0
247601,-133.333333333333,4,1,1,45,0,0
248647,-133.333333333333,4,1,1,5,0,0
248717,-133.333333333333,4,1,1,45,0,0
249764,-133.333333333333,4,1,1,5,0,0
249833,-133.333333333333,4,1,1,45,0,0
253112,-133.333333333333,4,1,1,5,0,0
253182,-133.333333333333,4,1,1,45,0,0
254229,-133.333333333333,4,1,1,5,0,0
254298,-133.333333333333,4,1,1,45,0,0
255322,-133.333333333333,4,1,1,5,0,0
255415,-133.333333333333,4,1,1,45,0,0
256531,-117.647058823529,4,1,1,45,0,0
257089,-133.333333333333,4,1,1,45,0,0
278298,-133.333333333333,4,1,1,45,0,0
278717,-100,4,1,1,50,0,0
279275,-100,4,1,1,70,0,0
292810,-133.333333333333,4,1,1,30,0,0
294485,-133.333333333333,4,1,1,40,0,0
294764,-133.333333333333,4,1,1,50,0,0
295043,-100,4,1,1,70,0,1
295252,-100,4,1,1,5,0,1
295322,-100,4,1,1,70,0,1
295601,-66.6666666666667,4,1,1,70,0,1
295810,-66.6666666666667,4,1,1,5,0,1
295880,-66.6666666666667,4,1,1,70,0,1
296159,-50,4,1,1,70,0,1
296368,-50,4,1,1,5,0,1
296438,-50,4,1,1,70,0,1
296647,-50,4,1,1,5,0,1
296717,-50,4,1,1,70,0,1
296926,-50,4,1,1,5,0,1
296996,-50,4,1,1,70,0,1
297205,-50,4,1,1,5,0,1
297275,-100,4,1,1,70,0,1
302229,-100,4,1,1,5,0,1
302298,-100,4,1,1,70,0,1
304182,-100,4,1,1,5,0,1
304252,-100,4,1,1,70,0,1
304531,-66.6666666666667,4,1,1,70,0,1
304740,-66.6666666666667,4,1,1,5,0,1
304810,-66.6666666666667,4,1,1,70,0,1
305089,-50,4,1,1,70,0,1
305298,-50,4,1,1,5,0,1
305368,-50,4,1,1,70,0,1
305578,-50,4,1,1,5,0,1
305647,-50,4,1,1,70,0,1
305857,-50,4,1,1,5,0,1
305926,-50,4,1,1,70,0,1
306136,-50,4,1,1,5,0,1
306205,-100,4,1,1,70,0,1
310322,-100,4,1,1,5,0,1
310392,-100,4,1,1,70,0,1
310601,-100,4,1,1,5,0,1
310671,-100,4,1,1,70,0,0
332926,-100,4,1,1,5,0,0

[Colours]
Combo1 : 165,213,241
Combo2 : 192,192,192
Combo3 : 48,215,0
Combo4 : 255,72,72

[HitObjects]
176,54,2260,6,0,P|215:45|286:74,1,105.000004005432
215,136,2678,1,0,0:0:0:0:
123,121,2818,1,0,0:0:0:0:
354,22,3097,6,0,P|363:61|333:131,2,105.000004005432
63,64,3934,6,0,B|15:125|51:158|72:210|51:268,1,210.000008010865
123,121,4771,2,0,P|178:131|222:181,1,105.000004005432
146,306,5329,1,0,0:0:0:0:
291,287,5608,6,0,L|313:232,1,52.5000020027161
394,194,5887,1,0,0:0:0:0:
468,253,6027,1,0,0:0:0:0:
448,345,6166,1,0,0:0:0:0:
354,357,6306,1,0,0:0:0:0:
255,261,6446,6,0,L|277:206,1,52.5000020027161
358,168,6725,1,0,0:0:0:0:
432,227,6865,1,0,0:0:0:0:
412,319,7004,1,0,0:0:0:0:
318,331,7144,1,0,0:0:0:0:
217,228,7283,6,0,L|239:173,1,52.5000020027161
320,135,7562,1,0,0:0:0:0:
394,194,7702,1,0,0:0:0:0:
374,286,7841,1,0,0:0:0:0:
280,298,7981,1,0,0:0:0:0:
185,199,8120,6,0,L|224:110,1,78.7500030040742
107,97,8399,2,0,L|164:175,1,78.7500030040742
234,80,8678,2,0,L|137:90,1,78.7500030040742
59,214,8957,6,0,P|93:245|114:311,1,105.000004005432
23,295,9376,1,0,0:0:0:0:
1,144,9515,1,0,0:0:0:0:
205,291,9794,6,0,P|195:335|148:387,2,105.000004005432
185,199,10632,6,0,P|250:211|302:181,1,105.000004005432
230,106,11190,1,0,0:0:0:0:
220,103,11259,1,0,0:0:0:0:
209,102,11329,1,0,0:0:0:0:
198,102,11399,1,0,0:0:0:0:
187,104,11469,6,0,B|105:54|56:218|-30:57|94:29|74:93,1,210.000008010865
56,216,12306,6,0,L|47:287,1,52.5000020027161
126,339,12585,1,0,0:0:0:0:
25,371,12725,1,0,0:0:0:0:
139,235,12864,5,0,0:0:0:0:
217,307,13004,1,0,0:0:0:0:
56,216,13143,6,0,P|84:172|125:154,1,78.7500030040742
192,135,13422,2,0,P|167:88|172:44,1,78.7500030040742
79,79,13701,2,0,P|26:76|-9:50,1,78.7500030040742
258,68,13980,6,0,L|319:68,1,52.5000020027161
405,114,14259,1,0,0:0:0:0:
410,219,14399,1,0,0:0:0:0:
322,278,14539,1,0,0:0:0:0:
230,227,14678,1,0,0:0:0:0:
318,169,14818,5,0,0:0:0:0:
139,279,15097,1,0,0:0:0:0:
56,216,15236,2,0,P|98:184|118:127,1,105.000004005432
176,54,15655,6,0,P|215:45|286:74,1,105.000004005432
215,136,16073,1,0,0:0:0:0:
117,136,16213,1,0,0:0:0:0:
354,22,16492,6,0,P|363:61|333:131,2,105.000004005432
469,113,17329,6,0,B|421:174|457:207|478:259|457:317,1,210.000008010865
292,223,18166,2,0,P|347:233|391:283,1,105.000004005432
343,121,18724,1,0,0:0:0:0:
309,311,19003,6,0,L|294:378,1,52.5000020027161
202,358,19282,1,0,0:0:0:0:
143,283,19422,1,0,0:0:0:0:
198,206,19562,1,0,0:0:0:0:
292,223,19701,1,0,0:0:0:0:
291,307,19841,6,0,L|276:374,1,52.5000020027161
184,354,20120,1,0,0:0:0:0:
125,279,20260,1,0,0:0:0:0:
180,202,20400,1,0,0:0:0:0:
274,219,20539,1,0,0:0:0:0:
278,302,20678,6,0,L|263:369,1,52.5000020027161
171,349,20957,1,0,0:0:0:0:
112,274,21097,1,0,0:0:0:0:
167,197,21237,1,0,0:0:0:0:
261,214,21376,1,0,0:0:0:0:
434,286,21515,6,0,L|473:197,1,78.7500030040742
356,184,21794,2,0,L|413:262,1,78.7500030040742
483,167,22073,2,0,L|386:177,1,78.7500030040742
270,192,22352,6,0,P|269:238|234:297,1,105.000004005432
185,219,22771,1,0,0:0:0:0:
283,102,22910,1,0,0:0:0:0:
146,305,23189,6,0,P|112:274|90:208,2,105.000004005432
355,149,24027,6,0,P|370:99|354:50,1,105.000004005432
512,185,24585,1,0,0:0:0:0:
502,182,24654,1,0,0:0:0:0:
491,181,24724,1,0,0:0:0:0:
480,181,24794,1,0,0:0:0:0:
469,183,24864,6,0,B|387:133|338:297|252:136|376:108|356:172,1,210.000008010865
334,274,25701,6,0,L|317:366,1,78.7500030040742
251,301,25980,2,0,L|190:372,1,78.7500030040742
168,282,26259,2,0,L|79:313,1,78.7500030040742
104,151,26539,6,0,P|133:117|177:107,1,78.7500030040742
172,181,26818,2,0,P|128:172|97:139,1,78.7500030040742
164,106,27097,2,0,P|178:148|165:191,1,78.7500030040742
255,187,27376,6,0,L|272:95,1,78.7500030040742
338,160,27655,2,0,L|398:88,1,78.7500030040742
421,179,27934,2,0,L|509:147,1,78.7500030040742
334,274,28213,6,0,L|317:366,1,78.7500030040742
251,301,28492,2,0,L|190:372,1,78.7500030040742
168,282,28771,2,0,L|79:313,1,78.7500030040742
6,175,29050,6,0,P|63:174|117:131,1,105.000004005432
31,87,29469,1,0,0:0:0:0:
4,268,29608,1,0,0:0:0:0:
143,58,29887,6,0,P|181:81|204:153,2,105.000004005432
102,149,30585,1,0,0:0:0:0:
179,212,30725,6,0,B|254:220|281:159|281:159|304:106|355:101,1,210.000008010865
431,257,31562,2,0,P|384:233|365:179,1,105.000004005432
460,174,32120,1,0,0:0:0:0:
460,174,32259,1,0,0:0:0:0:
399,342,32399,6,0,L|339:332,1,52.5000020027161
263,301,32678,1,0,0:0:0:0:
283,213,32818,1,0,0:0:0:0:
369,193,32957,1,0,0:0:0:0:
431,257,33097,1,0,0:0:0:0:
378,347,33236,6,0,L|318:337,1,52.5000020027161
242,306,33515,1,0,0:0:0:0:
262,218,33655,1,0,0:0:0:0:
348,198,33794,1,0,0:0:0:0:
410,262,33934,1,0,0:0:0:0:
357,352,34073,6,0,L|297:342,1,52.5000020027161
221,311,34352,1,0,0:0:0:0:
241,223,34492,1,0,0:0:0:0:
327,203,34631,1,0,0:0:0:0:
389,267,34771,1,0,0:0:0:0:
126,333,34911,6,0,L|148:238,1,78.7500030040742
30,245,35190,2,0,L|99:311,1,78.7500030040742
152,206,35469,2,0,L|58:232,1,78.7500030040742
17,162,35748,6,0,L|131:132,1,105.000004005432
220,110,36166,1,0,0:0:0:0:
135,46,36306,1,0,0:0:0:0:
302,172,36585,6,0,L|400:246,2,105.000004005432
322,68,37422,6,0,B|351:91|351:91|399:95|399:95|429:117,1,105.000004005432
344,336,37980,1,0,0:0:0:0:
327,322,38050,1,0,0:0:0:0:
309,309,38120,1,0,0:0:0:0:
292,296,38190,1,0,0:0:0:0:
275,283,38259,6,0,L|181:212,1,105.000004005432
302,172,38818,1,0,0:0:0:0:
302,172,38957,1,0,0:0:0:0:
104,264,39097,6,0,P|93:218|119:151,1,105.000004005432
191,219,39515,1,0,0:0:0:0:
184,318,39655,2,0,P|154:345|96:360,1,78.7500030040742
38,304,39934,6,0,P|68:277|126:262,1,78.7500030040742
35,227,40213,2,0,P|73:239|115:282,1,78.7500030040742
109,163,40492,1,0,0:0:0:0:
191,219,40632,1,0,0:0:0:0:
184,318,40771,6,0,P|236:308|264:286,1,78.7500030040742
324,343,41050,2,0,P|341:292|336:257,1,78.7500030040742
417,236,41329,2,0,P|382:195|349:182,1,78.7500030040742
290,128,41608,6,0,P|272:178|277:213,1,78.7500030040742
304,53,41887,2,0,P|251:63|224:85,1,78.7500030040742
365,4,42166,1,0,0:0:0:0:
290,128,42306,1,0,0:0:0:0:
148,84,42446,6,0,B|158:27|158:27|144:0,1,78.7500030040742
83,128,42725,2,0,B|126:165|126:165|157:166,1,78.7500030040742
74,50,43004,2,0,B|20:69|20:69|3:95,1,78.7500030040742
55,204,43283,6,0,L|123:266,1,78.7500030040742
38,280,43562,2,0,L|125:252,1,78.7500030040742
96,333,43841,2,0,L|115:243,1,78.7500030040742
192,290,44120,6,0,B|206:223|206:223|229:205,1,84
297,197,44399,2,0,B|231:218|231:218|217:212,1,84
165,152,44678,2,0,B|216:197|216:197|218:213,1,84
347,347,44957,6,0,L|269:273,1,94.499997116089
30,260,45236,2,0,L|133:229,1,94.499997116089
272,71,45515,1,0,0:0:0:0:
449,109,45695,5,2,0:0:0:0:
449,109,45834,1,0,0:0:0:0:
398,201,45974,2,0,P|395:254|403:283,1,70
312,330,46253,5,2,0:0:0:0:
499,236,46392,1,0,0:0:0:0:
288,232,46532,5,0,0:0:0:0:
476,322,46671,1,0,0:0:0:0:
317,133,46811,6,0,L|263:58,1,70,2|0,0:0|0:0,0:0:0:0:
30,67,47090,2,0,L|84:142,1,70,2|0,0:0|0:0,0:0:0:0:
317,133,47369,5,2,0:0:0:0:
177,128,47508,1,0,0:0:0:0:
288,232,47648,1,0,0:0:0:0:
349,37,47788,1,2,0:0:0:0:
43,332,48206,6,0,L|121:360,1,70
317,328,48485,2,0,L|239:356,1,70
46,300,48764,2,0,L|124:328,1,70
320,294,49043,6,0,L|254:317,1,70
49,266,49322,1,0,0:0:0:0:
325,250,49462,1,0,0:0:0:0:
325,250,49532,1,0,0:0:0:0:
325,250,49601,5,10,0:0:0:0:
199,186,49741,1,8,0:0:0:0:
251,351,49881,1,8,0:0:0:0:
404,152,50020,1,10,0:0:0:0:
25,44,50439,6,0,L|6:118,1,70
49,266,50718,2,0,L|30:192,1,70
113,43,50997,2,0,L|94:117,1,70
143,279,51276,6,0,L|124:205,1,70
208,56,51555,2,0,L|189:130,1,70
232,275,51834,5,8,0:0:0:0:
125,211,51974,1,8,0:0:0:0:
169,372,52113,1,8,0:0:0:0:
297,179,52253,2,8,B|381:201|431:124,1,140,8|0,0:0|0:0,0:0:0:0:
336,83,52671,6,0,P|327:45|336:11,1,70
381,256,52950,2,0,P|390:294|381:328,1,70
240,81,53229,2,0,P|231:43|240:9,1,70
473,244,53508,6,0,P|482:282|473:316,1,70
140,87,53788,2,0,P|131:49|140:15,1,70
417,49,54067,5,8,0:0:0:0:
381,183,54206,1,8,0:0:0:0:
500,108,54346,1,8,0:0:0:0:
290,114,54485,6,0,P|270:195|287:250,1,140,2|0,0:0|0:0,0:0:0:0:
412,305,54904,1,0,0:0:0:0:
240,335,55043,1,0,0:0:0:0:
381,183,55183,1,0,0:0:0:0:
408,160,55253,1,0,0:0:0:0:
425,130,55322,1,0,0:0:0:0:
432,95,55392,1,0,0:0:0:0:
428,60,55462,1,0,0:0:0:0:
252,177,55601,6,0,P|174:181|110:128,1,140,2|0,0:0|0:0,0:0:0:0:
224,4,56020,2,0,L|204:96,1,70
165,282,56299,1,0,0:0:0:0:
124,148,56439,1,0,0:0:0:0:
254,263,56578,1,0,0:0:0:0:
314,98,56718,1,2,0:0:0:0:
37,260,56997,5,0,0:0:0:0:
37,260,57136,2,0,L|59:334,1,70
124,148,57415,2,0,L|102:74,1,70
66,253,57695,2,0,L|88:327,1,70
153,141,57974,6,0,L|131:67,1,70
96,245,58253,2,0,L|118:319,1,70
242,190,58532,5,2,0:0:0:0:
269,53,58671,1,0,0:0:0:0:
153,141,58811,1,0,0:0:0:0:
326,126,58950,1,2,0:0:0:0:
298,348,59229,5,0,0:0:0:0:
298,348,59369,2,0,P|346:328|367:309,1,70
487,196,59648,2,0,P|439:216|418:235,1,70
277,321,59927,2,0,P|325:301|346:282,1,70
466,169,60206,6,0,P|418:189|397:208,1,70
258,297,60485,2,0,P|306:277|327:258,1,70
312,90,60764,5,2,0:0:0:0:
319,265,60904,1,0,0:0:0:0:
235,153,61043,1,0,0:0:0:0:
404,200,61183,1,2,0:0:0:0:
88,186,61462,5,0,0:0:0:0:
88,186,61601,2,0,B|47:173|47:173|21:147,1,70
251,57,61881,2,0,B|292:70|292:70|318:96,1,70
82,151,62160,2,0,B|41:138|41:138|15:112,1,70
245,22,62439,6,0,B|286:35|286:35|312:61,1,70
77,116,62718,2,0,B|36:103|36:103|10:77,1,70
245,22,62997,5,2,0:0:0:0:
161,178,63136,1,0,0:0:0:0:
134,40,63276,1,0,0:0:0:0:
273,123,63415,6,0,L|358:151,1,70,2|0,0:0|0:0,0:0:0:0:
494,234,63695,1,0,0:0:0:0:
350,332,63834,1,0,0:0:0:0:
327,348,63904,1,0,0:0:0:0:
299,355,63974,1,0,0:0:0:0:
271,354,64043,1,0,0:0:0:0:
244,344,64113,5,2,0:0:0:0:
251,309,64183,1,0,0:0:0:0:
245,274,64253,1,0,0:0:0:0:
223,246,64322,1,0,0:0:0:0:
189,235,64392,1,0,0:0:0:0:
328,222,64532,6,0,L|396:185,2,70,2|0|0,0:0|0:0|0:0,0:0:0:0:
176,310,64950,2,0,L|106:346,1,70,2|0,0:0|0:0,0:0:0:0:
221,160,65229,5,2,0:0:0:0:
176,310,65369,1,0,0:0:0:0:
286,132,65508,1,0,0:0:0:0:
113,342,65648,1,2,0:0:0:0:
358,207,65927,5,0,0:0:0:0:
346,347,66067,1,8,0:0:0:0:
382,212,66206,1,0,0:0:0:0:
316,336,66346,5,8,0:0:0:0:
440,273,66485,1,0,0:0:0:0:
293,256,66625,1,0,0:0:0:0:
434,357,66764,2,0,L|504:352,1,70,2|0,0:0|0:0,0:0:0:0:
484,177,67043,5,0,0:0:0:0:
378,84,67183,1,8,0:0:0:0:
461,195,67322,1,0,0:0:0:0:
403,66,67462,5,8,0:0:0:0:
356,197,67601,1,0,0:0:0:0:
491,85,67741,1,0,0:0:0:0:
333,6,67881,2,0,L|261:55,1,70,2|0,0:0|0:0,0:0:0:0:
128,141,68160,5,0,0:0:0:0:
170,8,68299,1,8,0:0:0:0:
158,147,68439,1,0,0:0:0:0:
144,8,68578,5,8,0:0:0:0:
229,119,68718,1,0,0:0:0:0:
66,54,68857,1,0,0:0:0:0:
112,223,68997,1,0,0:0:0:0:
285,204,69136,6,0,P|317:179|328:149,2,70,2|0|8,0:0|0:0|0:0,0:0:0:0:
229,307,69555,1,0,0:0:0:0:
397,346,69695,2,0,P|409:313|402:280,1,70,8|0,0:0|0:0,0:0:0:0:
229,307,69974,1,8,0:0:0:0:
63,253,70113,6,0,B|104:249|104:249|126:214|126:214|166:200|166:200|181:164|181:164,1,157.500006008148,2|0,0:0|0:0,0:0:0:0:
194,138,70392,1,0,0:0:0:0:
106,329,70532,1,8,0:0:0:0:
259,186,70671,1,0,0:0:0:0:
171,338,70811,5,8,0:0:0:0:
112,137,70950,1,0,0:0:0:0:
229,307,71090,1,0,0:0:0:0:
189,101,71229,6,0,P|230:114|256:145,1,70,2|0,0:0|0:0,0:0:0:0:
319,253,71508,1,0,0:0:0:0:
327,112,71648,1,8,0:0:0:0:
216,209,71788,1,0,0:0:0:0:
421,170,71927,5,8,0:0:0:0:
381,35,72067,1,0,0:0:0:0:
241,29,72206,1,0,0:0:0:0:
135,169,72346,6,0,P|102:197|76:208,1,70,2|0,0:0|0:0,0:0:0:0:
120,73,72625,1,0,0:0:0:0:
216,209,72764,1,8,0:0:0:0:
61,125,72904,1,0,0:0:0:0:
107,311,73043,5,8,0:0:0:0:
206,345,73183,1,0,0:0:0:0:
306,315,73322,1,0,0:0:0:0:
342,216,73462,1,0,0:0:0:0:
107,311,73601,5,2,0:0:0:0:
75,295,73671,1,0,0:0:0:0:
55,266,73741,1,0,0:0:0:0:
50,231,73811,1,0,0:0:0:0:
66,200,73881,5,2,0:0:0:0:
79,175,73950,1,0,0:0:0:0:
79,146,74020,1,0,0:0:0:0:
68,120,74090,1,0,0:0:0:0:
42,107,74160,5,2,0:0:0:0:
63,89,74229,1,0,0:0:0:0:
83,108,74299,1,0,0:0:0:0:
106,92,74369,1,0,0:0:0:0:
129,107,74439,1,0,0:0:0:0:
154,95,74508,1,0,0:0:0:0:
176,111,74578,6,0,P|198:156|247:192,1,105,2|0,0:0|0:0,0:0:0:0:
280,196,74857,1,0,0:0:0:0:
141,221,74997,1,0,0:0:0:0:
268,101,75136,5,0,0:0:0:0:
230,272,75276,1,0,0:0:0:0:
343,139,75415,1,0,0:0:0:0:
230,272,75555,1,0,0:0:0:0:
399,225,75695,6,0,P|437:177|435:98,1,140,2|0,0:0|0:0,0:0:0:0:
343,139,76113,2,0,P|305:187|307:266,1,140,2|0,0:0|0:0,0:0:0:0:
393,320,76532,5,2,0:0:0:0:
225,367,76671,1,0,0:0:0:0:
121,225,76811,2,0,P|98:177|53:146,1,105,2|0,0:0|0:0,0:0:0:0:
32,132,77090,6,0,P|95:132|147:110,1,105,2|0,0:0|0:0,0:0:0:0:
157,102,77369,1,0,0:0:0:0:
121,225,77508,1,0,0:0:0:0:
231,138,77648,5,0,0:0:0:0:
75,55,77788,1,0,0:0:0:0:
230,243,77927,1,0,0:0:0:0:
236,32,78067,1,0,0:0:0:0:
121,225,78206,6,0,P|131:304|171:345,1,140,2|0,0:0|0:0,0:0:0:0:
379,314,78625,2,0,L|339:249,1,70,2|0,0:0|0:0,0:0:0:0:
481,236,78904,1,2,0:0:0:0:
416,145,79043,1,8,0:0:0:0:
303,146,79183,1,8,0:0:0:0:
230,243,79322,6,0,P|188:182|190:113,1,140,2|0,0:0|0:0,0:0:0:0:
246,22,79741,1,0,0:0:0:0:
96,189,79881,1,2,0:0:0:0:
96,189,79950,1,0,0:0:0:0:
96,189,80020,1,0,0:0:0:0:
303,146,80160,1,0,0:0:0:0:
96,60,80299,1,0,0:0:0:0:
98,284,80439,6,0,B|151:340|151:340|217:347,1,140,2|0,0:0|0:0,0:0:0:0:
435,325,80857,2,0,B|382:269|382:269|316:262,1,140,2|0,0:0|0:0,0:0:0:0:
213,346,81276,1,0,0:0:0:0:
317,353,81415,1,0,0:0:0:0:
383,271,81555,2,0,L|324:211,1,70,2|0,0:0|0:0,0:0:0:0:
425,169,81834,6,0,P|390:129|324:113,1,105,2|0,0:0|0:0,0:0:0:0:
333,221,82113,1,0,0:0:0:0:
400,49,82253,1,0,0:0:0:0:
425,169,82392,5,0,0:0:0:0:
312,34,82532,1,0,0:0:0:0:
342,112,82671,1,0,0:0:0:0:
226,32,82811,1,0,0:0:0:0:
216,191,82950,5,2,0:0:0:0:
223,207,83020,1,0,0:0:0:0:
237,217,83090,1,0,0:0:0:0:
254,220,83160,1,0,0:0:0:0:
271,216,83229,1,0,0:0:0:0:
285,206,83299,1,0,0:0:0:0:
294,190,83369,5,2,0:0:0:0:
261,176,83439,1,0,0:0:0:0:
228,187,83508,1,0,0:0:0:0:
206,214,83578,1,0,0:0:0:0:
202,248,83648,1,0,0:0:0:0:
212,281,83718,1,0,0:0:0:0:
239,302,83788,1,0,0:0:0:0:
272,310,83857,1,0,0:0:0:0:
306,305,83927,5,2,0:0:0:0:
306,305,90764,5,0,0:0:0:0:
330,291,90833,1,0,0:0:0:0:
350,271,90903,1,0,0:0:0:0:
364,246,90973,1,0,0:0:0:0:
373,220,91043,2,8,L|382:163,1,35
307,131,91182,2,8,L|298:188,1,35
389,108,91322,5,0,0:0:0:0:
365,72,91392,1,0,0:0:0:0:
329,48,91461,1,0,0:0:0:0:
287,40,91531,1,0,0:0:0:0:
245,44,91601,2,8,L|196:62,1,35
153,163,91740,2,8,L|197:144,1,35
100,65,91880,5,0,0:0:0:0:
61,94,91950,1,0,0:0:0:0:
43,139,92019,1,0,0:0:0:0:
43,188,92089,1,0,0:0:0:0:
62,233,92159,2,8,L|86:278,1,35
164,245,92298,5,0,0:0:0:0:
159,286,92368,1,0,0:0:0:0:
137,322,92438,1,0,0:0:0:0:
101,344,92508,1,0,0:0:0:0:
58,343,92578,1,0,0:0:0:0:
268,345,92717,2,8,P|294:305|295:260,1,83.9999974365235,10|8,0:0|0:0,0:0:0:0:
153,163,92996,6,0,L|243:143,1,83.9999974365235,2|0,0:0|0:0,0:0:0:0:
393,183,93275,2,0,L|309:201,1,70
224,53,93554,5,2,0:0:0:0:
349,115,93694,1,0,0:0:0:0:
323,13,93833,1,0,0:0:0:0:
128,94,93973,1,0,0:0:0:0:
437,44,94112,6,0,L|460:129,1,70,2|0,0:0|0:0,0:0:0:0:
163,239,94392,1,0,0:0:0:0:
429,73,94531,6,0,L|452:158,1,70,2|0,0:0|0:0,0:0:0:0:
155,268,94810,1,0,0:0:0:0:
181,166,94950,1,0,0:0:0:0:
43,272,95089,1,0,0:0:0:0:
203,345,95229,6,0,P|235:308|237:278,1,70
181,166,95508,2,0,P|149:203|147:233,1,70
370,220,95787,5,2,0:0:0:0:
230,70,95926,1,0,0:0:0:0:
270,204,96066,1,0,0:0:0:0:
352,91,96205,1,0,0:0:0:0:
46,216,96345,6,0,L|46:305,1,70,2|0,0:0|0:0,0:0:0:0:
322,333,96624,1,0,0:0:0:0:
77,194,96764,6,0,L|77:283,1,70,2|0,0:0|0:0,0:0:0:0:
353,311,97043,1,0,0:0:0:0:
235,235,97182,1,0,0:0:0:0:
408,354,97322,1,0,0:0:0:0:
296,176,97461,6,0,P|261:155|226:151,1,70,2|0,0:0|0:0,0:0:0:0:
235,326,97740,1,0,0:0:0:0:
372,217,97880,1,0,0:0:0:0:
128,227,98019,6,0,P|107:262|103:297,1,70,2|0,0:0|0:0,0:0:0:0:
296,176,98298,2,0,P|317:141|321:106,1,70
102,290,98578,6,0,P|137:311|172:315,1,70,2|0,0:0|0:0,0:0:0:0:
372,217,98857,1,0,0:0:0:0:
133,269,98996,6,0,P|168:290|203:294,1,70,2|0,0:0|0:0,0:0:0:0:
403,196,99275,1,0,0:0:0:0:
276,256,99415,1,0,0:0:0:0:
407,301,99554,1,0,0:0:0:0:
466,135,99694,5,2,0:0:0:0:
452,110,99764,1,0,0:0:0:0:
430,92,99833,1,0,0:0:0:0:
402,85,99903,1,0,0:0:0:0:
374,89,99973,5,2,0:0:0:0:
344,107,100043,1,0,0:0:0:0:
313,122,100112,1,0,0:0:0:0:
278,126,100182,1,0,0:0:0:0:
243,120,100252,5,2,0:0:0:0:
200,119,100322,1,0,0:0:0:0:
166,144,100392,1,0,0:0:0:0:
160,185,100461,1,0,0:0:0:0:
179,222,100531,5,2,0:0:0:0:
225,237,100601,1,0,0:0:0:0:
271,221,100671,1,0,0:0:0:0:
286,175,100740,1,0,0:0:0:0:
278,126,100810,5,2,0:0:0:0:
275,336,100950,1,8,0:0:0:0:
81,257,101089,1,8,0:0:0:0:
284,106,101368,5,2,0:0:0:0:
280,379,101508,1,8,0:0:0:0:
28,276,101647,1,8,0:0:0:0:
294,73,101926,6,0,L|292:159,1,70,2|0,0:0|0:0,0:0:0:0:
159,257,102205,2,0,L|161:171,1,70
315,273,102485,5,2,0:0:0:0:
447,160,102624,1,0,0:0:0:0:
411,331,102764,1,0,0:0:0:0:
235,217,102903,1,0,0:0:0:0:
68,345,103043,6,0,P|39:310|33:282,1,70,2|0,0:0|0:0,0:0:0:0:
120,56,103322,1,0,0:0:0:0:
96,334,103461,6,0,P|67:299|61:271,1,70,2|0,0:0|0:0,0:0:0:0:
148,45,103740,1,0,0:0:0:0:
157,178,103880,1,0,0:0:0:0:
37,119,104019,1,0,0:0:0:0:
259,55,104159,6,0,P|312:61|335:74,1,70,2|0,0:0|0:0,0:0:0:0:
394,230,104438,2,0,P|361:273|338:286,1,70,2|0,0:0|0:0,0:0:0:0:
179,244,104717,6,0,P|158:194|158:168,1,70,2|0,0:0|0:0,0:0:0:0:
278,158,104996,1,0,0:0:0:0:
264,297,105136,1,0,0:0:0:0:
203,96,105275,6,0,L|271:47,1,70,2|0,0:0|0:0,0:0:0:0:
38,206,105554,1,0,0:0:0:0:
247,104,105694,6,0,L|315:55,1,70,2|0,0:0|0:0,0:0:0:0:
82,214,105973,1,0,0:0:0:0:
206,344,106112,1,0,0:0:0:0:
126,120,106252,1,0,0:0:0:0:
267,276,106392,6,0,P|327:251|421:277,1,140,2|0,0:0|0:0,0:0:0:0:
206,344,106810,2,0,P|180:308|175:275,1,70,2|0,0:0|0:0,0:0:0:0:
401,188,107089,1,0,0:0:0:0:
337,351,107229,1,0,0:0:0:0:
207,186,107368,1,0,0:0:0:0:
401,104,107508,6,0,P|451:121|475:154,1,70,2|0,0:0|0:0,0:0:0:0:
337,351,107787,1,0,0:0:0:0:
408,81,107926,6,0,P|458:98|482:131,1,70,2|0,0:0|0:0,0:0:0:0:
344,328,108205,1,0,0:0:0:0:
241,351,108345,1,0,0:0:0:0:
315,231,108485,1,0,0:0:0:0:
128,294,108624,5,2,0:0:0:0:
100,272,108694,1,0,0:0:0:0:
78,243,108764,1,0,0:0:0:0:
67,209,108833,1,0,0:0:0:0:
67,173,108903,5,0,0:0:0:0:
113,170,108973,1,0,0:0:0:0:
145,156,109043,1,0,0:0:0:0:
166,129,109112,1,0,0:0:0:0:
177,95,109182,5,2,0:0:0:0:
137,109,109252,1,0,0:0:0:0:
123,148,109322,1,0,0:0:0:0:
132,189,109392,1,0,0:0:0:0:
165,214,109461,5,0,0:0:0:0:
207,213,109531,1,0,0:0:0:0:
240,187,109601,1,0,0:0:0:0:
250,146,109671,1,0,0:0:0:0:
244,104,109740,2,0,L|280:124,1,35
332,53,109880,2,0,L|332:94,1,35
418,107,110019,2,0,L|382:128,3,35
452,83,110298,5,2,0:0:0:0:
331,11,110438,1,0,0:0:0:0:
208,80,110578,1,2,0:0:0:0:
207,213,110717,1,0,0:0:0:0:
340,276,110857,6,0,P|413:258|450:195,1,140,2|0,0:0|0:0,0:0:0:0:
379,371,111415,1,8,0:0:0:0:
379,371,111554,1,8,0:0:0:0:
447,206,111694,1,2,0:0:0:0:
271,204,111973,6,0,P|244:252|268:351,1,140,2|0,0:0|0:0,0:0:0:0:
340,276,112392,1,0,0:0:0:0:
271,204,112531,2,0,L|188:182,1,70,8|0,0:0|0:0,0:0:0:0:
257,333,112810,2,0,L|339:354,1,70,8|0,0:0|0:0,0:0:0:0:
418,211,113089,6,0,P|405:156|332:97,1,140,2|0,0:0|0:0,0:0:0:0:
340,276,113647,1,2,0:0:0:0:
418,211,113787,1,0,0:0:0:0:
418,211,113857,1,0,0:0:0:0:
418,211,113926,2,0,P|438:161|436:134,1,70,8|0,0:0|0:0,0:0:0:0:
344,101,114205,5,2,0:0:0:0:
245,105,114345,2,0,P|224:154|226:181,1,70,8|0,0:0|0:0,0:0:0:0:
208,258,114624,1,0,0:0:0:0:
208,258,114694,1,0,0:0:0:0:
208,258,114764,6,0,P|141:221|100:224,1,105,2|0,0:0|0:0,0:0:0:0:
72,239,115043,2,0,P|104:200|122:137,1,105
107,105,115322,6,0,L|189:106,1,70,2|0,0:0|0:0,0:0:0:0:
408,265,115601,2,0,L|326:264,1,70,2|0,0:0|0:0,0:0:0:0:
207,15,115880,5,2,0:0:0:0:
239,27,115950,1,0,0:0:0:0:
264,50,116019,1,0,0:0:0:0:
282,80,116089,1,0,0:0:0:0:
288,114,116159,1,0,0:0:0:0:
289,149,116229,1,0,0:0:0:0:
310,176,116298,1,0,0:0:0:0:
344,182,116368,1,0,0:0:0:0:
378,173,116438,6,0,L|418:142,3,35,2|0|0|0,0:0|0:0|0:0|0:0,0:0:0:0:
382,254,116717,1,0,0:0:0:0:
347,259,116787,1,0,0:0:0:0:
315,273,116857,1,0,0:0:0:0:
287,294,116926,1,0,0:0:0:0:
262,318,116996,6,0,L|233:361,3,35,2|0|0|0,0:0|0:0|0:0|0:0,0:0:0:0:
209,246,117275,1,0,0:0:0:0:
213,211,117345,1,0,0:0:0:0:
203,177,117415,1,0,0:0:0:0:
183,147,117485,1,0,0:0:0:0:
155,126,117554,5,2,0:0:0:0:
147,142,117624,1,0,0:0:0:0:
138,157,117694,1,0,0:0:0:0:
126,170,117764,1,0,0:0:0:0:
111,180,117833,1,0,0:0:0:0:
94,185,117903,1,0,0:0:0:0:
76,186,117973,1,0,0:0:0:0:
58,183,118043,1,0,0:0:0:0:
42,175,118112,5,2,0:0:0:0:
70,154,118182,1,0,0:0:0:0:
104,158,118252,1,0,0:0:0:0:
129,182,118322,1,0,0:0:0:0:
142,214,118392,1,0,0:0:0:0:
159,244,118461,1,0,0:0:0:0:
189,260,118531,1,0,0:0:0:0:
223,265,118601,1,0,0:0:0:0:
255,250,118671,6,0,P|291:220|305:192,1,70,2|0,0:0|0:0,0:0:0:0:
124,86,118950,1,8,0:0:0:0:
0,254,119089,1,8,0:0:0:0:
280,270,119229,6,0,P|316:240|330:212,1,70,2|0,0:0|0:0,0:0:0:0:
149,106,119508,1,8,0:0:0:0:
25,274,119647,1,8,0:0:0:0:
333,106,119787,6,0,P|397:133|438:205,1,140,2|0,0:0|0:0,0:0:0:0:
327,220,120205,1,0,0:0:0:0:
243,168,120345,1,8,0:0:0:0:
236,151,120415,1,0,0:0:0:0:
234,133,120485,1,0,0:0:0:0:
333,106,120624,1,8,0:0:0:0:
340,123,120694,1,0,0:0:0:0:
342,141,120764,1,0,0:0:0:0:
215,248,120903,6,0,P|173:216|161:198,1,70,2|0,0:0|0:0,0:0:0:0:
153,62,121182,1,0,0:0:0:0:
215,248,121461,1,8,0:0:0:0:
217,266,121531,1,0,0:0:0:0:
214,284,121601,1,0,0:0:0:0:
86,340,121740,1,8,0:0:0:0:
84,322,121810,1,0,0:0:0:0:
87,304,121880,1,0,0:0:0:0:
243,168,122019,6,0,P|290:208|282:302,1,140,2|0,0:0|0:0,0:0:0:0:
215,248,122438,1,0,0:0:0:0:
166,154,122578,1,8,0:0:0:0:
168,136,122647,1,0,0:0:0:0:
176,120,122717,1,0,0:0:0:0:
307,71,122857,1,8,0:0:0:0:
305,89,122926,1,0,0:0:0:0:
297,105,122996,1,0,0:0:0:0:
132,236,123136,6,0,P|95:211|79:186,1,70,2|0,0:0|0:0,0:0:0:0:
58,87,123415,1,8,0:0:0:0:
54,296,123694,1,8,0:0:0:0:
66,307,123764,1,0,0:0:0:0:
78,318,123833,1,0,0:0:0:0:
182,309,123973,1,8,0:0:0:0:
194,320,124043,1,0,0:0:0:0:
206,331,124112,1,0,0:0:0:0:
311,330,124252,5,2,0:0:0:0:
338,324,124322,1,0,0:0:0:0:
362,310,124392,1,0,0:0:0:0:
379,288,124461,1,0,0:0:0:0:
389,261,124531,1,0,0:0:0:0:
388,232,124601,1,0,0:0:0:0:
373,208,124671,1,0,0:0:0:0:
365,181,124740,1,0,0:0:0:0:
372,154,124810,5,0,0:0:0:0:
400,134,124880,1,0,0:0:0:0:
434,142,124950,1,0,0:0:0:0:
451,171,125019,1,0,0:0:0:0:
452,206,125089,1,0,0:0:0:0:
435,237,125159,1,0,0:0:0:0:
408,259,125229,1,0,0:0:0:0:
373,264,125298,1,0,0:0:0:0:
339,254,125368,6,0,L|297:232,3,35,2|0|0|0,0:0|0:0|0:0|0:0,0:0:0:0:
248,301,125647,1,0,0:0:0:0:
217,283,125717,1,0,0:0:0:0:
186,266,125787,1,0,0:0:0:0:
155,248,125857,1,0,0:0:0:0:
126,228,125926,6,0,L|86:205,3,35,2|0|0|0,0:0|0:0|0:0|0:0,0:0:0:0:
169,163,126205,1,0,0:0:0:0:
203,168,126275,1,0,0:0:0:0:
237,163,126345,1,0,0:0:0:0:
268,147,126415,1,0,0:0:0:0:
290,120,126485,6,0,P|290:160|309:201,1,70,2|0,0:0|0:0,0:0:0:0:
393,138,126764,1,0,0:0:0:0:
338,48,126903,1,0,0:0:0:0:
220,223,127043,5,2,0:0:0:0:
272,313,127182,1,0,0:0:0:0:
300,187,127322,1,0,0:0:0:0:
175,124,127461,1,0,0:0:0:0:
117,252,127601,5,2,0:0:0:0:
111,268,127671,1,0,0:0:0:0:
111,285,127740,1,0,0:0:0:0:
115,302,127810,1,0,0:0:0:0:
123,317,127880,1,0,0:0:0:0:
134,330,127950,1,0,0:0:0:0:
147,340,128019,1,0,0:0:0:0:
163,346,128089,1,0,0:0:0:0:
179,350,128159,5,2,0:0:0:0:
189,316,128229,1,0,0:0:0:0:
180,282,128298,1,0,0:0:0:0:
152,259,128368,1,0,0:0:0:0:
117,252,128438,1,8,0:0:0:0:
41,370,128578,1,8,0:0:0:0:
278,315,128717,1,2,0:0:0:0:
260,308,130182,6,0,B|244:303|247:306|214:280,2,35
278,315,130392,2,0,P|323:325|390:309,1,105,2|0,0:0|0:0,0:0:0:0:
315,77,130950,6,0,P|309:133|317:163,1,70,2|0,0:0|0:0,0:0:0:0:
380,313,131229,2,0,P|386:257|378:227,1,70
221,109,131508,5,2,0:0:0:0:
281,272,131647,1,0,0:0:0:0:
400,115,131787,1,0,0:0:0:0:
121,103,131926,1,0,0:0:0:0:
180,274,132066,6,0,L|206:351,1,70,2|0,0:0|0:0,0:0:0:0:
321,148,132345,1,0,0:0:0:0:
158,303,132485,6,0,L|184:380,1,70,2|0,0:0|0:0,0:0:0:0:
299,177,132764,1,0,0:0:0:0:
245,266,132903,1,0,0:0:0:0:
221,109,133043,1,0,0:0:0:0:
382,252,133182,6,0,P|363:281|336:303,1,70,2|0,0:0|0:0,0:0:0:0:
175,160,133461,2,0,P|193:130|220:108,1,70,2|0,0:0|0:0,0:0:0:0:
398,77,133740,5,2,0:0:0:0:
382,252,133880,1,0,0:0:0:0:
478,171,134019,1,0,0:0:0:0:
432,340,134159,1,0,0:0:0:0:
158,175,134298,6,0,P|158:130|168:95,1,70,2|0,0:0|0:0,0:0:0:0:
398,77,134578,1,0,0:0:0:0:
130,156,134717,6,0,P|130:111|140:76,1,70,2|0,0:0|0:0,0:0:0:0:
370,58,134996,1,0,0:0:0:0:
264,148,135136,1,0,0:0:0:0:
223,51,135275,1,0,0:0:0:0:
306,244,135415,6,0,L|343:331,1,70,2|0,0:0|0:0,0:0:0:0:
122,298,135694,2,0,L|85:211,1,70
264,148,135973,5,2,0:0:0:0:
225,281,136112,1,0,0:0:0:0:
185,183,136252,1,0,0:0:0:0:
347,115,136392,1,0,0:0:0:0:
333,308,136531,6,0,B|319:348|283:377,1,70,2|0,0:0|0:0,0:0:0:0:
94,233,136810,1,0,0:0:0:0:
337,267,136950,6,0,B|323:307|287:336,1,70,2|0,0:0|0:0,0:0:0:0:
98,192,137229,1,0,0:0:0:0:
211,272,137368,1,0,0:0:0:0:
104,90,137508,1,0,0:0:0:0:
88,312,137647,5,2,0:0:0:0:
104,343,137717,1,0,0:0:0:0:
133,362,137787,1,0,0:0:0:0:
166,372,137857,1,0,0:0:0:0:
200,372,137926,2,0,L|244:353,3,35
211,272,138205,5,2,0:0:0:0:
227,241,138275,1,0,0:0:0:0:
256,222,138345,1,0,0:0:0:0:
289,212,138415,1,0,0:0:0:0:
323,212,138485,2,0,L|367:231,3,35
342,314,138764,5,2,0:0:0:0:
180,130,138903,1,0,0:0:0:0:
416,63,139043,1,0,0:0:0:0:
367,350,139322,5,2,0:0:0:0:
157,111,139461,1,0,0:0:0:0:
463,24,139601,1,0,0:0:0:0:
93,345,139880,6,0,L|41:282,1,70,2|0,0:0|0:0,0:0:0:0:
157,111,140159,2,0,L|209:174,1,70
292,271,140438,5,2,0:0:0:0:
286,130,140578,1,0,0:0:0:0:
209,286,140717,1,0,0:0:0:0:
381,253,140857,1,0,0:0:0:0:
346,82,140996,6,0,P|311:57|270:54,1,70,2|0,0:0|0:0,0:0:0:0:
209,286,141275,1,0,0:0:0:0:
379,63,141415,6,0,P|344:38|303:35,1,70,2|0,0:0|0:0,0:0:0:0:
242,267,141694,1,0,0:0:0:0:
286,130,141833,1,0,0:0:0:0:
381,253,141973,1,0,0:0:0:0:
242,267,142112,6,0,L|263:197,1,70
401,185,142392,2,0,L|380:252,1,70
104,237,142671,5,2,0:0:0:0:
148,104,142810,1,0,0:0:0:0:
189,359,142950,1,0,0:0:0:0:
55,154,143089,1,0,0:0:0:0:
273,40,143229,6,0,L|322:114,1,70,2|0,0:0|0:0,0:0:0:0:
319,338,143508,1,0,0:0:0:0:
300,24,143647,6,0,L|349:98,1,70,2|0,0:0|0:0,0:0:0:0:
346,322,143926,1,0,0:0:0:0:
342,181,144066,1,0,0:0:0:0:
444,275,144205,1,0,0:0:0:0:
241,371,144345,6,0,P|161:358|118:319,1,140,2|0,0:0|0:0,0:0:0:0:
223,97,144764,1,0,0:0:0:0:
163,223,144903,5,2,0:0:0:0:
62,192,145043,1,0,0:0:0:0:
49,88,145182,1,0,0:0:0:0:
139,34,145322,1,0,0:0:0:0:
223,97,145461,6,0,P|261:144|275:150,1,70,2|0,0:0|0:0,0:0:0:0:
477,171,145740,1,0,0:0:0:0:
200,121,145880,6,0,P|238:168|252:174,1,70,2|0,0:0|0:0,0:0:0:0:
454,195,146159,1,0,0:0:0:0:
302,50,146298,1,0,0:0:0:0:
357,289,146438,1,0,0:0:0:0:
200,121,146578,5,2,0:0:0:0:
165,117,146647,1,0,0:0:0:0:
130,123,146717,1,0,0:0:0:0:
99,140,146787,1,0,0:0:0:0:
75,165,146857,2,0,L|56:207,3,35
164,215,147136,5,2,0:0:0:0:
199,219,147205,1,0,0:0:0:0:
234,213,147275,1,0,0:0:0:0:
265,196,147345,1,0,0:0:0:0:
289,171,147415,2,0,L|308:129,3,35
407,125,147694,5,2,0:0:0:0:
392,157,147764,1,0,0:0:0:0:
378,188,147833,1,0,0:0:0:0:
364,220,147903,1,0,0:0:0:0:
349,252,147973,2,0,L|324:311,3,35
438,263,148252,5,2,0:0:0:0:
235,322,148392,1,8,0:0:0:0:
473,176,148531,1,8,0:0:0:0:
320,320,148671,1,8,0:0:0:0:
186,101,148810,6,0,B|121:104|88:169|88:169|103:138|100:108|100:108|117:77|118:49,1,245
95,27,149368,2,0,B|95:72|72:97|72:97|73:133|57:171|57:171,1,140
174,190,149926,6,0,P|227:181|266:145,1,105
270,127,150205,1,8,0:0:0:0:
274,106,150275,1,8,0:0:0:0:
298,71,150345,1,8,0:0:0:0:
304,51,150415,1,8,0:0:0:0:
337,24,150485,6,0,L|312:105,1,70,2|0,0:0|0:0,0:0:0:0:
396,116,150764,2,0,L|371:197,1,70,2|0,0:0|0:0,0:0:0:0:
452,217,151043,6,0,P|404:262|352:265,1,105,2|0,0:0|0:0,0:0:0:0:
326,257,151322,1,8,0:0:0:0:
396,116,151461,1,8,0:0:0:0:
469,205,151601,6,0,P|429:261|321:268,1,157.500006008148,2|0,0:0|0:0,0:0:0:0:
294,265,151880,1,8,0:0:0:0:
394,103,152019,1,8,0:0:0:0:
483,192,152159,6,0,P|416:280|319:279,1,210,2|0,0:0|0:0,0:0:0:0:
272,259,152438,2,0,B|305:327|305:327|387:359|457:310,1,210,2|0,0:0|0:0,0:0:0:0:
472,281,152717,2,0,B|406:144|406:144|343:110,1,210,2|0,0:0|0:0,0:0:0:0:
317,97,152996,2,0,B|238:57|238:57|266:114|266:114|336:152,1,210,2|0,0:0|0:0,0:0:0:0:
343,165,153275,5,2,0:0:0:0:
307,166,153345,1,0,0:0:0:0:
272,172,153415,1,0,0:0:0:0:
239,185,153485,1,0,0:0:0:0:
210,204,153554,1,0,0:0:0:0:
183,227,153624,1,0,0:0:0:0:
161,254,153694,1,0,0:0:0:0:
144,284,153764,1,0,0:0:0:0:
128,314,153833,6,0,P|120:250|112:237,1,70,2|0,0:0|0:0,0:0:0:0:
151,73,154112,2,0,P|159:137|167:150,1,70,2|0,0:0|0:0,0:0:0:0:
270,279,154392,5,2,0:0:0:0:
316,275,154461,1,0,0:0:0:0:
349,262,154531,1,0,0:0:0:0:
378,242,154601,1,0,0:0:0:0:
400,215,154671,1,0,0:0:0:0:
415,183,154740,1,0,0:0:0:0:
423,149,154810,1,0,0:0:0:0:
420,113,154880,1,0,0:0:0:0:
409,79,154950,6,0,P|377:108|341:118,1,70,2|0,0:0|0:0,0:0:0:0:
212,98,155229,2,0,P|244:69|280:59,1,70,2|0,0:0|0:0,0:0:0:0:
280,200,155508,5,2,0:0:0:0:
265,239,155578,1,0,0:0:0:0:
238,270,155647,1,0,0:0:0:0:
198,285,155717,1,0,0:0:0:0:
155,285,155787,1,0,0:0:0:0:
117,266,155857,1,0,0:0:0:0:
96,229,155926,1,0,0:0:0:0:
94,186,155996,1,0,0:0:0:0:
107,146,156066,5,2,0:0:0:0:
149,171,156136,1,0,0:0:0:0:
165,216,156205,1,0,0:0:0:0:
157,264,156275,1,0,0:0:0:0:
132,306,156345,2,0,P|97:343|78:353,1,70,8|0,0:0|0:0,0:0:0:0:
4,193,156624,5,2,0:0:0:0:
2,157,156694,1,0,0:0:0:0:
12,123,156764,1,0,0:0:0:0:
31,94,156833,1,0,0:0:0:0:
59,73,156903,1,0,0:0:0:0:
91,59,156973,1,0,0:0:0:0:
126,59,157043,1,0,0:0:0:0:
159,69,157112,1,0,0:0:0:0:
189,86,157182,5,2,0:0:0:0:
213,98,157252,1,0,0:0:0:0:
240,101,157322,1,0,0:0:0:0:
268,99,157392,1,0,0:0:0:0:
293,88,157461,1,0,0:0:0:0:
320,83,157531,1,0,0:0:0:0:
347,87,157601,1,0,0:0:0:0:
371,100,157671,1,0,0:0:0:0:
390,116,157740,6,0,B|328:137|280:121|280:121|315:168|315:168|303:227|355:268|355:268|336:307|350:348,1,367.500014019013,2|0,0:0|0:0,0:0:0:0:
423,318,158298,2,0,B|451:242|388:195|388:195|426:188|456:164,1,210.000008010865,2|0,0:0|0:0,0:0:0:0:
274,345,158857,6,0,B|267:310|274:286|274:286|240:244|245:189,1,157.500006008148,2|0,0:0|0:0,0:0:0:0:
213,188,159136,2,0,P|209:220|221:262,3,52.5000020027161
181,184,159415,2,0,P|173:258|211:356,1,157.500006008148,2|0,0:0|0:0,0:0:0:0:
347,320,159694,2,0,P|355:246|317:148,1,157.500006008148,2|0,0:0|0:0,0:0:0:0:
209,96,159973,6,0,P|160:93|104:138,1,105,2|0,0:0|0:0,0:0:0:0:
181,184,160252,1,0,0:0:0:0:
330,167,160392,1,0,0:0:0:0:
210,85,160531,6,0,P|161:82|83:155,1,157.500006008148,2|0,0:0|0:0,0:0:0:0:
181,184,160810,1,0,0:0:0:0:
335,153,160950,1,0,0:0:0:0:
212,76,161089,6,0,P|122:85|68:188,1,210,2|0,0:0|0:0,0:0:0:0:
69,217,161368,2,0,B|57:169|33:141|33:141|95:100|111:37|111:37,1,210,2|0,0:0|0:0,0:0:0:0:
121,11,161647,2,0,B|176:51|234:43|234:43|267:100|302:116,1,210,2|0,0:0|0:0,0:0:0:0:
325,121,161926,2,0,B|409:132|462:85|462:85|448:163,1,210,2|0,0:0|0:0,0:0:0:0:
445,182,162205,5,2,0:0:0:0:
435,215,162275,1,0,0:0:0:0:
415,244,162345,1,0,0:0:0:0:
390,269,162415,1,0,0:0:0:0:
359,286,162485,1,0,0:0:0:0:
325,295,162554,1,0,0:0:0:0:
289,295,162624,1,0,0:0:0:0:
255,283,162694,1,0,0:0:0:0:
224,266,162764,6,0,P|198:232|191:198,1,70,2|0,0:0|0:0,0:0:0:0:
139,297,163043,2,0,P|165:331|172:365,1,70,2|0,0:0|0:0,0:0:0:0:
277,199,163322,5,2,0:0:0:0:
300,172,163392,1,0,0:0:0:0:
311,139,163461,1,0,0:0:0:0:
306,104,163531,1,0,0:0:0:0:
290,72,163601,1,0,0:0:0:0:
264,47,163671,1,0,0:0:0:0:
230,37,163740,1,0,0:0:0:0:
194,37,163810,1,0,0:0:0:0:
161,50,163880,6,0,P|132:83|124:118,1,70,2|0,0:0|0:0,0:0:0:0:
49,226,164159,2,0,P|78:193|86:158,1,70,2|0,0:0|0:0,0:0:0:0:
161,50,164438,5,2,0:0:0:0:
177,63,164508,1,0,0:0:0:0:
189,79,164578,1,0,0:0:0:0:
198,97,164647,1,0,0:0:0:0:
204,116,164717,1,0,0:0:0:0:
207,136,164787,1,0,0:0:0:0:
207,157,164857,1,0,0:0:0:0:
207,177,164926,1,0,0:0:0:0:
204,197,164996,5,2,0:0:0:0:
442,51,165275,1,2,0:0:0:0:
204,197,165554,5,2,0:0:0:0:
278,78,165694,1,0,0:0:0:0:
293,244,165833,1,0,0:0:0:0:
189,93,165973,1,0,0:0:0:0:
386,161,166112,2,0,P|413:260|305:372,1,245,2|0,0:0|0:0,0:0:0:0:
295,361,166671,6,0,P|342:337|363:318,1,70,2|0,0:0|0:0,0:0:0:0:
386,161,166950,2,0,P|339:185|318:204,1,70
292,339,167229,2,0,P|339:315|360:296,1,70
390,139,167508,1,0,0:0:0:0:
274,259,167647,1,0,0:0:0:0:
439,229,167787,6,0,P|475:200|487:177,1,70,2|0,0:0|0:0,0:0:0:0:
330,37,168066,2,0,P|294:66|282:89,1,70
493,95,168345,1,0,0:0:0:0:
298,175,168485,1,0,0:0:0:0:
422,7,168624,1,0,0:0:0:0:
281,182,168764,1,0,0:0:0:0:
475,103,168903,6,0,L|402:133,1,70,2|0,0:0|0:0,0:0:0:0:
214,206,169182,1,0,0:0:0:0:
385,143,169322,2,0,L|424:166,2,35
283,86,169601,1,0,0:0:0:0:
257,73,169880,1,0,0:0:0:0:
365,126,170019,6,0,L|292:89,1,70,2|0,0:0|0:0,0:0:0:0:
91,87,170298,2,0,L|164:124,1,70,2|0,0:0|0:0,0:0:0:0:
358,214,170578,5,2,0:0:0:0:
478,26,170717,1,0,0:0:0:0:
441,247,170857,5,2,0:0:0:0:
383,31,170996,1,0,0:0:0:0:
358,214,171136,6,0,P|350:262|361:288,1,70,2|0,0:0|0:0,0:0:0:0:
230,220,171415,2,0,P|238:172|227:146,1,70
367,226,171694,2,0,P|359:274|370:300,1,70
161,183,171973,1,0,0:0:0:0:
435,260,172112,1,0,0:0:0:0:
327,121,172252,6,0,L|288:59,1,70,2|0,0:0|0:0,0:0:0:0:
262,299,172531,2,0,L|301:361,1,70
334,93,172810,1,0,0:0:0:0:
255,318,172950,1,0,0:0:0:0:
171,51,173089,1,0,0:0:0:0:
249,334,173229,1,0,0:0:0:0:
344,71,173368,6,0,L|316:145,1,70,2|0,0:0|0:0,0:0:0:0:
82,203,173647,2,0,L|67:152,2,46.6666666666667
109,292,173926,1,2,0:0:0:0:
171,51,174066,1,0,0:0:0:0:
180,24,174345,1,0,0:0:0:0:
203,162,174485,6,0,L|180:241,1,70,2|0,0:0|0:0,0:0:0:0:
249,334,174764,2,0,L|272:255,1,70
212,137,175043,1,2,0:0:0:0:
274,249,175182,2,0,L|292:291,2,35
219,119,175461,1,0,0:0:0:0:
243,358,175601,6,0,B|330:342,1,70,2|0,0:0|0:0,0:0:0:0:
367,156,175880,2,0,B|280:172,1,70
195,336,176159,2,0,B|282:320,1,70,2|0,0:0|0:0,0:0:0:0:
381,131,176438,1,0,0:0:0:0:
159,170,176578,1,0,0:0:0:0:
398,246,176717,6,0,P|453:225|471:206,1,70,2|0,0:0|0:0,0:0:0:0:
278,112,176996,2,0,P|284:170|297:192,1,70
488,112,177275,1,2,0:0:0:0:
313,253,177415,1,0,0:0:0:0:
428,45,177554,1,2,0:0:0:0:
306,266,177694,1,0,0:0:0:0:
156,64,177833,2,0,P|127:105|120:140,1,70,2|0,0:0|0:0,0:0:0:0:
300,277,178252,5,0,0:0:0:0:
126,55,178392,2,0,P|97:96|90:131,1,70,2|0,0:0|0:0,0:0:0:0:
270,268,178810,5,0,0:0:0:0:
99,47,178950,2,0,L|55:116,1,70,2|0,0:0|0:0,0:0:0:0:
232,327,179229,2,0,L|276:258,1,70
203,67,179508,5,2,0:0:0:0:
154,270,179647,1,0,0:0:0:0:
333,54,179787,5,2,0:0:0:0:
95,199,179926,1,0,0:0:0:0:
403,179,180066,6,0,L|490:173,1,70,2|0,0:0|0:0,0:0:0:0:
333,54,180345,2,0,L|263:58,1,70
409,210,180624,2,0,L|496:204,1,70,2|0,0:0|0:0,0:0:0:0:
326,40,180903,1,0,0:0:0:0:
320,264,181043,1,0,0:0:0:0:
469,98,181182,6,0,B|494:62|494:62|497:22,1,70,2|0,0:0|0:0,0:0:0:0:
270,150,181461,2,0,B|245:186|245:186|242:226,1,70
407,19,181740,5,2,0:0:0:0:
409,210,181880,1,0,0:0:0:0:
212,53,182019,1,2,0:0:0:0:
409,210,182159,1,0,0:0:0:0:
104,174,182298,2,0,P|86:217|84:248,1,70,2|0,0:0|0:0,0:0:0:0:
427,225,182717,5,0,0:0:0:0:
76,202,182857,2,0,P|58:245|56:276,1,70,2|0,0:0|0:0,0:0:0:0:
399,253,183275,5,0,0:0:0:0:
51,229,183415,1,2,0:0:0:0:
184,269,183554,1,0,0:0:0:0:
55,325,183694,1,0,0:0:0:0:
47,115,183833,1,0,0:0:0:0:
256,339,183973,5,2,0:0:0:0:
206,171,184112,1,0,0:0:0:0:
368,355,184252,5,2,0:0:0:0:
318,187,184392,1,0,0:0:0:0:
465,337,184531,6,0,L|478:374,2,35,2|0|0,0:0|0:0|0:0,0:0:0:0:
397,137,184810,2,0,L|384:100,2,35,2|0|0,0:0|0:0|0:0,0:0:0:0:
261,298,185089,5,2,0:0:0:0:
226,295,185159,1,0,0:0:0:0:
195,277,185229,1,0,0:0:0:0:
174,249,185298,1,0,0:0:0:0:
167,214,185368,1,0,0:0:0:0:
175,179,185438,1,0,0:0:0:0:
196,151,185508,1,2,0:0:0:0:
114,344,185787,5,0,0:0:0:0:
256,210,185926,2,0,P|304:194|351:206,1,70
308,128,186205,2,0,P|324:176|312:223,1,70
389,180,186485,2,0,P|341:196|294:184,1,70
366,61,186764,6,0,L|432:114,1,70
421,259,187043,2,0,L|366:302,1,70
212,288,187322,5,0,0:0:0:0:
322,194,187461,1,0,0:0:0:0:
284,343,187601,1,0,0:0:0:0:
230,199,187740,1,2,0:0:0:0:
463,353,188019,5,0,0:0:0:0:
441,143,188159,2,0,B|436:97|436:97|416:73,1,70
356,98,188438,2,0,B|402:93|402:93|426:73,1,70
400,13,188717,2,0,B|405:59|405:59|425:83,1,70
346,196,188996,6,0,P|302:184|275:155,1,70
311,306,189275,2,0,P|355:318|382:347,1,70
480,243,189554,5,0,0:0:0:0:
346,196,189694,1,0,0:0:0:0:
372,333,189833,1,0,0:0:0:0:
441,143,189973,1,2,0:0:0:0:
141,324,190252,5,0,0:0:0:0:
124,149,190392,2,0,L|116:71,1,70
186,72,190671,2,0,L|108:80,1,70
109,9,190950,2,0,L|116:78,1,70
240,143,191229,6,0,B|273:112|273:112|275:77,1,70
184,195,191508,2,0,B|151:226|151:226|149:261,1,70
286,221,191787,1,0,0:0:0:0:
274,87,191926,1,0,0:0:0:0:
226,292,192066,1,0,0:0:0:0:
364,134,192205,6,0,P|414:182|418:261,1,140,2|0,0:0|0:0,0:0:0:0:
184,195,192624,1,0,0:0:0:0:
142,186,192694,1,0,0:0:0:0:
112,156,192764,1,0,0:0:0:0:
103,115,192833,1,0,0:0:0:0:
119,76,192903,5,2,0:0:0:0:
141,92,192973,1,0,0:0:0:0:
156,115,193043,1,0,0:0:0:0:
162,142,193112,1,0,0:0:0:0:
156,169,193182,1,0,0:0:0:0:
119,267,193322,6,0,L|90:336,1,70,2|0,0:0|0:0,0:0:0:0:
195,312,193601,1,0,0:0:0:0:
205,286,193671,1,0,0:0:0:0:
215,260,193740,5,2,0:0:0:0:
233,270,193810,1,0,0:0:0:0:
252,277,193880,1,0,0:0:0:0:
273,277,193950,1,0,0:0:0:0:
292,270,194019,1,2,0:0:0:0:
264,371,194159,1,0,0:0:0:0:
372,234,194298,1,0,0:0:0:0:
195,312,194438,1,2,0:0:0:0:
402,345,194717,5,0,0:0:0:0:
258,191,194857,1,8,0:0:0:0:
257,170,194926,1,0,0:0:0:0:
263,149,194996,1,0,0:0:0:0:
275,131,195066,1,0,0:0:0:0:
292,119,195136,5,8,0:0:0:0:
313,136,195205,1,0,0:0:0:0:
340,138,195275,1,0,0:0:0:0:
365,125,195345,1,0,0:0:0:0:
377,100,195415,5,8,0:0:0:0:
396,128,195485,1,0,0:0:0:0:
403,161,195554,1,0,0:0:0:0:
401,196,195624,1,0,0:0:0:0:
390,229,195694,5,10,0:0:0:0:
354,206,195764,1,0,0:0:0:0:
351,164,195833,1,0,0:0:0:0:
376,130,195903,1,0,0:0:0:0:
417,124,195973,1,0,0:0:0:0:
449,97,196043,1,0,0:0:0:0:
454,55,196112,1,0,0:0:0:0:
431,19,196182,1,0,0:0:0:0:
389,12,196252,1,8,0:0:0:0:
350,28,196322,1,0,0:0:0:0:
330,65,196392,1,0,0:0:0:0:
301,95,196461,1,0,0:0:0:0:
262,111,196531,1,0,0:0:0:0:
220,104,196601,1,0,0:0:0:0:
186,78,196671,1,0,0:0:0:0:
188,36,196740,1,0,0:0:0:0:
218,6,196810,6,0,L|265:-1,1,35,8|0,0:0|0:0,0:0:0:0:
236,32,196950,2,0,L|283:25,1,35,8|0,0:0|0:0,0:0:0:0:
162,116,197089,6,0,L|115:123,1,35,8|0,0:0|0:0,0:0:0:0:
144,90,197229,2,0,L|97:97,1,35,8|0,0:0|0:0,0:0:0:0:
262,111,197368,5,10,0:0:0:0:
301,140,197438,1,0,0:0:0:0:
318,185,197508,1,0,0:0:0:0:
307,233,197578,1,0,0:0:0:0:
271,266,197647,1,0,0:0:0:0:
222,260,197717,1,0,0:0:0:0:
184,228,197787,1,0,0:0:0:0:
134,229,197857,1,0,0:0:0:0:
98,262,197926,5,10,0:0:0:0:
124,295,197996,1,0,0:0:0:0:
165,298,198066,1,0,0:0:0:0:
201,276,198136,1,0,0:0:0:0:
217,237,198205,1,0,0:0:0:0:
241,202,198275,1,0,0:0:0:0:
278,183,198345,1,0,0:0:0:0:
317,197,198415,1,0,0:0:0:0:
340,231,198485,6,0,L|334:274,1,35,10|0,0:0|0:0,0:0:0:0:
375,276,198624,2,0,L|358:315,1,35,8|0,0:0|0:0,0:0:0:0:
401,323,198764,2,0,L|374:357,1,35,8|0,0:0|0:0,0:0:0:0:
417,369,198903,6,2,P|458:341|404:279,1,140,2|0,0:0|0:0,0:0:0:0:
417,369,199322,6,0,P|474:333|396:238,1,210.000008010865,2|0,0:0|0:0,0:0:0:0:
300,318,199740,6,8,P|274:251|288:185,1,140
410,117,200019,6,0,P|350:88|326:23,1,140,2|0,0:0|0:0,0:0:0:0:
424,18,200438,1,8,0:0:0:0:
458,41,200508,1,0,0:0:0:0:
482,75,200578,1,0,0:0:0:0:
492,115,200647,1,0,0:0:0:0:
487,157,200717,1,8,0:0:0:0:
467,193,200787,1,0,0:0:0:0:
435,220,200857,1,0,0:0:0:0:
395,234,200926,1,0,0:0:0:0:
354,232,200996,1,8,0:0:0:0:
315,215,201066,1,0,0:0:0:0:
287,186,201136,6,0,P|246:228|139:241,1,140,2|0,0:0|0:0,0:0:0:0:
124,114,201554,1,0,0:0:0:0:
144,85,201624,1,0,0:0:0:0:
174,67,201694,1,0,0:0:0:0:
209,64,201764,1,0,0:0:0:0:
242,72,201833,6,0,L|283:45,1,35,8|0,0:0|0:0,0:0:0:0:
271,88,201973,2,0,L|312:61,1,35,8|0,0:0|0:0,0:0:0:0:
379,50,202112,6,0,L|420:23,1,35,8|0,0:0|0:0,0:0:0:0:
418,57,202252,2,0,L|459:30,1,35,8|0,0:0|0:0,0:0:0:0:
480,100,202392,5,10,0:0:0:0:
348,146,202531,1,8,0:0:0:0:
348,146,202601,1,8,0:0:0:0:
348,146,202671,1,8,0:0:0:0:
475,202,202810,1,8,0:0:0:0:
475,202,202880,1,8,0:0:0:0:
475,202,202950,2,8,L|501:242,2,35
379,50,203229,1,0,0:0:0:0:
387,224,203368,6,0,P|324:223|259:165,1,140,2|0,0:0|0:0,0:0:0:0:
256,281,203787,2,0,P|300:308|312:334,1,70
348,146,204066,5,8,0:0:0:0:
191,222,204205,1,0,0:0:0:0:
242,54,204345,1,8,0:0:0:0:
185,242,204485,1,0,0:0:0:0:
104,64,204624,6,0,P|50:86|35:103,1,70,10|0,0:0|0:0,0:0:0:0:
18,288,204903,2,0,P|72:266|87:249,1,70,8|0,0:0|0:0,0:0:0:0:
104,64,205182,5,2,0:0:0:0:
185,242,205322,1,8,0:0:0:0:
242,54,205461,1,8,0:0:0:0:
79,258,205601,6,0,P|99:310|243:333,1,210.000008010865,2|0,0:0|0:0,0:0:0:0:
299,289,205950,1,0,0:0:0:0:
332,314,206019,5,2,0:0:0:0:
373,319,206089,1,0,0:0:0:0:
411,302,206159,1,0,0:0:0:0:
436,268,206229,1,0,0:0:0:0:
438,226,206298,1,0,0:0:0:0:
418,188,206368,1,0,0:0:0:0:
379,171,206438,5,2,0:0:0:0:
489,325,206578,1,0,0:0:0:0:
367,247,206717,1,8,0:0:0:0:
337,228,206787,1,8,0:0:0:0:
307,209,206857,6,0,L|241:166,1,70,2|0,0:0|0:0,0:0:0:0:
420,91,207136,1,0,0:0:0:0:
420,91,207275,1,0,0:0:0:0:
278,227,207415,2,0,L|212:184,1,70,2|0,0:0|0:0,0:0:0:0:
481,140,207694,1,0,0:0:0:0:
255,250,207833,6,0,L|189:207,1,70,2|0,0:0|0:0,0:0:0:0:
372,326,208112,1,0,0:0:0:0:
134,264,208252,2,0,P|116:218|119:192,1,70,8|0,0:0|0:0,0:0:0:0:
201,310,208531,2,0,P|169:338|135:346,1,70,8|0,0:0|0:0,0:0:0:0:
196,211,208810,2,0,L|245:189,2,35,8|0|0,0:0|0:0|0:0,0:0:0:0:
22,243,209089,5,2,0:0:0:0:
16,194,209159,1,0,0:0:0:0:
40,151,209229,1,0,0:0:0:0:
84,132,209298,1,0,0:0:0:0:
131,145,209368,5,2,0:0:0:0:
147,191,209438,1,0,0:0:0:0:
196,211,209508,1,0,0:0:0:0:
238,185,209578,1,0,0:0:0:0:
235,136,209647,5,2,0:0:0:0:
193,162,209717,1,0,0:0:0:0:
196,211,209787,1,0,0:0:0:0:
238,236,209857,1,0,0:0:0:0:
280,212,209926,5,2,0:0:0:0:
337,229,209996,1,0,0:0:0:0:
367,280,210066,1,0,0:0:0:0:
365,339,210136,1,0,0:0:0:0:
319,376,210205,6,0,L|270:377,1,35,10|0,0:0|0:0,0:0:0:0:
300,345,210345,2,0,L|251:346,1,35,8|0,0:0|0:0,0:0:0:0:
440,316,210485,6,0,L|489:315,1,35,10|0,0:0|0:0,0:0:0:0:
459,347,210624,2,0,L|508:346,1,35,8|0,0:0|0:0,0:0:0:0:
337,229,210764,6,0,P|323:205|328:157,1,70,10|0,0:0|0:0,0:0:0:0:
378,119,210903,2,0,P|392:143|387:191,1,70,8|0,0:0|0:0,0:0:0:0:
343,216,211043,6,0,P|329:192|334:144,1,70,10|0,0:0|0:0,0:0:0:0:
384,106,211182,2,0,P|398:130|393:178,1,70,8|0,0:0|0:0,0:0:0:0:
231,266,211322,6,0,B|193:239|193:239|193:205,1,70,10|0,0:0|0:0,0:0:0:0:
184,278,211461,2,0,B|176:232|176:232|200:207,1,70,8|0,0:0|0:0,0:0:0:0:
142,253,211601,2,0,B|168:215|168:215|202:215,1,70,8|0,0:0|0:0,0:0:0:0:
129,206,211740,2,0,B|174:198|174:198|199:222,1,70,8|0,0:0|0:0,0:0:0:0:
153,156,211880,6,0,L|201:229,1,70,10|0,0:0|0:0,0:0:0:0:
147,348,212019,2,0,L|59:353,1,70,10|0,0:0|0:0,0:0:0:0:
5,229,212159,2,0,L|44:150,1,70,10|0,0:0|0:0,0:0:0:0:
246,151,212298,5,2,0:0:0:0:
365,324,212578,1,0,0:0:0:0:
314,246,212717,1,0,0:0:0:0:
284,343,212857,1,8,0:0:0:0:
266,332,212926,1,8,0:0:0:0:
248,320,212996,2,0,P|229:290|219:254,1,70
170,347,213275,1,0,0:0:0:0:
314,246,213415,6,0,P|323:208|279:112,1,140,2|0,0:0|0:0,0:0:0:0:
402,247,213833,1,0,0:0:0:0:
239,180,213973,1,8,0:0:0:0:
218,174,214043,1,8,0:0:0:0:
197,168,214112,2,0,P|150:173|126:186,1,70
219,72,214392,1,0,0:0:0:0:
182,242,214531,6,0,P|206:275|237:290,2,70,2|0|0,0:0|0:0|0:0,0:0:0:0:
127,75,214950,1,0,0:0:0:0:
61,236,215089,1,8,0:0:0:0:
55,256,215159,1,8,0:0:0:0:
49,276,215229,2,0,P|65:325|87:340,1,70
182,242,215508,1,2,0:0:0:0:
113,346,215647,1,0,0:0:0:0:
231,288,215787,5,2,0:0:0:0:
136,195,215926,1,0,0:0:0:0:
247,302,216066,5,2,0:0:0:0:
124,182,216205,1,0,0:0:0:0:
187,353,216345,5,2,0:0:0:0:
316,245,216485,1,0,0:0:0:0:
198,126,216624,1,0,0:0:0:0:
326,327,216764,6,0,P|387:287|393:216,1,140,2|0,0:0|0:0,0:0:0:0:
316,245,217182,1,8,0:0:0:0:
289,236,217252,1,8,0:0:0:0:
260,236,217322,1,8,0:0:0:0:
233,245,217392,1,8,0:0:0:0:
212,263,217461,2,0,P|187:300|183:329,1,70
326,327,217740,1,0,0:0:0:0:
488,260,217880,6,0,P|492:212|485:183,2,70,2|0|0,0:0|0:0|0:0,0:0:0:0:
326,327,218298,1,0,0:0:0:0:
212,263,218438,1,8,0:0:0:0:
189,246,218508,1,8,0:0:0:0:
166,229,218578,2,0,P|154:193|160:157,1,70
88,283,218857,1,0,0:0:0:0:
232,185,218996,6,0,P|240:129|179:46,1,140,2|0,0:0|0:0,0:0:0:0:
329,177,219415,1,0,0:0:0:0:
158,161,219554,1,8,0:0:0:0:
130,157,219624,1,8,0:0:0:0:
102,151,219694,2,0,P|66:124|51:92,1,70
36,206,219973,1,2,0:0:0:0:
119,52,220112,1,0,0:0:0:0:
155,259,220252,5,2,0:0:0:0:
163,268,220322,1,0,0:0:0:0:
172,275,220392,1,0,0:0:0:0:
181,282,220461,1,0,0:0:0:0:
192,287,220531,1,0,0:0:0:0:
202,291,220601,1,0,0:0:0:0:
214,294,220671,1,0,0:0:0:0:
225,296,220740,1,0,0:0:0:0:
237,297,220810,1,0,0:0:0:0:
248,296,220880,1,0,0:0:0:0:
260,294,220950,1,0,0:0:0:0:
271,291,221019,1,0,0:0:0:0:
282,287,221089,1,0,0:0:0:0:
232,185,221229,5,2,0:0:0:0:
74,323,221508,1,0,0:0:0:0:
155,259,221647,1,0,0:0:0:0:
231,331,221787,1,8,0:0:0:0:
253,348,221857,1,8,0:0:0:0:
275,365,221926,2,0,P|320:370|355:357,1,70
394,271,222205,2,0,P|349:266|314:279,1,70
231,331,222485,5,2,0:0:0:0:
438,304,222624,1,0,0:0:0:0:
238,370,222764,1,0,0:0:0:0:
423,272,222903,1,8,0:0:0:0:
406,249,222973,1,8,0:0:0:0:
391,224,223043,2,0,P|386:194|401:144,1,70
456,70,223322,1,0,0:0:0:0:
275,175,223461,1,0,0:0:0:0:
484,196,223601,5,2,0:0:0:0:
262,173,223740,1,0,0:0:0:0:
438,304,223880,1,0,0:0:0:0:
250,170,224019,1,8,0:0:0:0:
222,164,224089,1,8,0:0:0:0:
194,156,224159,2,0,P|147:159|103:180,1,70
91,266,224438,2,0,P|138:263|182:242,1,70
268,74,224717,5,2,0:0:0:0:
28,131,224857,1,0,0:0:0:0:
291,101,224996,5,2,0:0:0:0:
51,158,225136,1,8,0:0:0:0:
70,178,225205,1,8,0:0:0:0:
90,197,225275,2,0,L|151:260,1,70
183,151,225554,1,0,0:0:0:0:
47,262,225694,6,0,L|151:372,1,140,2|0,0:0|0:0,0:0:0:0:
183,168,226112,1,0,0:0:0:0:
164,374,226252,1,8,0:0:0:0:
191,380,226322,1,8,0:0:0:0:
219,380,226392,2,0,P|258:375|288:357,1,70
185,188,226671,1,0,0:0:0:0:
303,343,226810,2,0,P|332:305|336:275,2,70
185,206,227229,5,0,0:0:0:0:
353,106,227368,1,8,0:0:0:0:
381,106,227438,1,8,0:0:0:0:
409,107,227508,2,0,P|447:132|459:165,1,70
362,199,227787,1,0,0:0:0:0:
484,29,227926,1,0,0:0:0:0:
272,154,228066,5,2,0:0:0:0:
458,247,228205,1,0,0:0:0:0:
257,145,228345,1,0,0:0:0:0:
470,252,228485,1,8,0:0:0:0:
481,277,228554,1,8,0:0:0:0:
491,302,228624,2,0,P|491:346|480:370,1,70
351,266,228903,2,0,P|351:222|362:198,1,70
344,359,229182,6,0,L|296:339,1,46.6666666666667,8|0,0:0|0:0,0:0:0:0:
170,207,229368,2,0,L|218:227,1,46.6666666666667,8|0,0:0|0:0,0:0:0:0:
327,372,229554,2,0,L|279:352,1,46.6666666666667,8|0,0:0|0:0,0:0:0:0:
194,190,229740,6,0,B|226:204|226:204|248:206,1,46.6666666666667,8|0,0:0|0:0,0:0:0:0:
100,331,229926,2,0,B|68:317|68:317|46:315,1,46.6666666666667,8|0,0:0|0:0,0:0:0:0:
213,224,230112,2,0,B|245:238|245:238|267:240,1,46.6666666666667,8|0,0:0|0:0,0:0:0:0:
80,178,230298,5,2,0:0:0:0:
193,311,230438,1,0,0:0:0:0:
359,254,230578,1,0,0:0:0:0:
119,154,230857,5,2,0:0:0:0:
193,311,230996,1,0,0:0:0:0:
366,291,231136,2,0,P|411:295|448:317,1,70
343,197,231415,6,0,B|279:227|231:182|231:182|224:158|225:123|171:122|152:182|215:186,1,245
294,131,231973,6,0,P|248:74|167:71,1,140
203,184,232392,1,0,0:0:0:0:
388,87,232531,5,2,0:0:0:0:
411,225,232671,1,0,0:0:0:0:
310,321,232810,1,0,0:0:0:0:
399,54,232950,1,8,0:0:0:0:
412,70,233019,1,8,0:0:0:0:
425,86,233089,5,2,0:0:0:0:
411,225,233229,1,0,0:0:0:0:
285,286,233368,2,0,P|246:294|214:321,1,70
203,184,233647,2,0,P|191:132|172:106,2,70
92,271,234066,1,8,0:0:0:0:
63,272,234136,1,8,0:0:0:0:
35,274,234205,2,0,P|47:222|66:196,1,70
182,118,234485,1,0,0:0:0:0:
352,217,234624,6,0,P|381:286|356:347,1,140,2|0,0:0|0:0,0:0:0:0:
285,286,235043,1,2,0:0:0:0:
483,89,235322,1,0,0:0:0:0:
285,286,235601,1,0,0:0:0:0:
408,162,235740,6,0,P|336:142|281:185,1,140,2|0,0:0|0:0,0:0:0:0:
352,217,236159,1,2,0:0:0:0:
179,97,236438,2,0,P|136:161|157:221,1,140,2|0,0:0|0:0,0:0:0:0:
215,168,236857,2,0,P|257:112|240:48,1,140,2|0,0:0|0:0,0:0:0:0:
179,97,237275,1,2,0:0:0:0:
404,262,237554,5,2,0:0:0:0:
319,199,237694,1,0,0:0:0:0:
325,303,237833,2,0,P|350:341|381:349,1,70
403,175,238112,5,2,0:0:0:0:
392,141,238182,1,0,0:0:0:0:
370,113,238252,1,0,0:0:0:0:
341,92,238322,1,0,0:0:0:0:
308,79,238392,1,0,0:0:0:0:
273,76,238461,1,0,0:0:0:0:
238,83,238531,1,0,0:0:0:0:
208,102,238601,1,0,0:0:0:0:
185,129,238671,5,2,0:0:0:0:
222,148,238740,1,0,0:0:0:0:
264,137,238810,1,0,0:0:0:0:
286,100,238880,1,0,0:0:0:0:
276,58,238950,1,0,0:0:0:0:
241,34,239019,1,0,0:0:0:0:
199,41,239089,1,0,0:0:0:0:
173,74,239159,1,0,0:0:0:0:
174,109,239229,6,0,P|198:162|131:280,1,183.750007009506,2|0,0:0|0:0,0:0:0:0:
127,282,239787,1,0,0:0:0:0:
304,169,240066,1,0,0:0:0:0:
115,180,240345,6,0,P|40:235|34:324,1,183.750007009506,2|0,0:0|0:0,0:0:0:0:
42,344,240903,1,0,0:0:0:0:
262,343,241182,1,0,0:0:0:0:
115,180,241461,5,2,0:0:0:0:
180,224,241601,1,0,0:0:0:0:
248,184,241740,1,0,0:0:0:0:
96,167,242019,5,2,0:0:0:0:
180,224,242159,1,0,0:0:0:0:
269,173,242298,1,0,0:0:0:0:
70,149,242578,6,0,B|77:215|77:215|119:242,1,105.000004005432,2|0,0:0|0:0,0:0:0:0:
199,290,243136,1,2,0:0:0:0:
182,133,243415,1,0,0:0:0:0:
56,301,243694,6,0,B|159:364|159:364|232:364,1,183.750007009506,2|0,0:0|0:0,0:0:0:0:
248,365,244252,1,0,0:0:0:0:
112,284,244531,1,0,0:0:0:0:
337,364,244810,6,0,P|394:323|411:215,1,183.750007009506,2|0,0:0|0:0,0:0:0:0:
398,193,245368,1,0,0:0:0:0:
478,328,245647,1,0,0:0:0:0:
305,251,245926,6,0,P|285:213|351:88,1,183.750007009506,2|0,0:0|0:0,0:0:0:0:
361,84,246485,1,0,0:0:0:0:
184,197,246764,1,0,0:0:0:0:
398,193,247043,6,0,P|451:148|448:37,1,183.750007009506
436,17,247601,1,2,0:0:0:0:
387,343,247787,1,2,0:0:0:0:
361,84,247973,1,2,0:0:0:0:
398,193,248159,6,0,B|349:196|319:164|319:164|276:120|216:147,1,183.750007009506,2|0,0:0|0:0,0:0:0:0:
207,153,248717,1,0,0:0:0:0:
387,343,248996,1,0,0:0:0:0:
383,112,249275,6,0,P|369:89|401:119,1,183.750007009506,2|0,0:0|0:0,0:0:0:0:
401,129,249833,1,0,0:0:0:0:
255,280,250112,1,0,0:0:0:0:
181,82,250392,5,2,0:0:0:0:
114,123,250531,1,0,0:0:0:0:
103,201,250671,1,0,0:0:0:0:
202,70,250950,5,2,0:0:0:0:
114,123,251089,1,0,0:0:0:0:
100,224,251229,1,0,0:0:0:0:
236,50,251508,6,0,B|180:33|180:33|135:62,1,105.000004005432,2|0,0:0|0:0,0:0:0:0:
249,171,252066,2,0,B|304:187|304:187|350:159,1,105.000004005432,2|0,0:0|0:0,0:0:0:0:
210,245,252624,6,0,L|390:299,1,183.750007009506,2|0,0:0|0:0,0:0:0:0:
410,306,253182,1,0,0:0:0:0:
203,344,253461,1,0,0:0:0:0:
344,162,253740,6,0,B|304:187|304:187|169:147,1,183.750007009506,2|0,0:0|0:0,0:0:0:0:
148,139,254298,1,0,0:0:0:0:
349,199,254578,1,0,0:0:0:0:
198,52,254857,6,0,P|106:49|49:118,1,183.750007009506,2|0,0:0|0:0,0:0:0:0:
50,140,255415,1,0,0:0:0:0:
186,250,255624,1,0,0:0:0:0:
198,52,255764,1,0,0:0:0:0:
83,279,255973,5,2,0:0:0:0:
93,303,256043,1,0,0:0:0:0:
109,323,256112,1,0,0:0:0:0:
129,339,256182,1,0,0:0:0:0:
152,350,256252,1,0,0:0:0:0:
177,355,256322,1,0,0:0:0:0:
203,355,256392,1,0,0:0:0:0:
228,350,256461,1,0,0:0:0:0:
253,334,256531,6,0,L|284:376,2,39.6666674232483
345,287,256810,2,0,L|387:340,2,39.6666674232483
448,304,257089,5,2,0:0:0:0:
412,325,257182,1,0,0:0:0:0:
370,319,257275,1,0,0:0:0:0:
344,285,257368,1,0,0:0:0:0:
343,243,257461,1,0,0:0:0:0:
362,205,257554,1,0,0:0:0:0:
395,179,257647,5,2,0:0:0:0:
409,139,257740,1,0,0:0:0:0:
405,97,257833,1,0,0:0:0:0:
382,61,257926,1,0,0:0:0:0:
343,45,258019,1,0,0:0:0:0:
301,45,258112,1,0,0:0:0:0:
263,62,258205,5,2,0:0:0:0:
238,96,258298,1,0,0:0:0:0:
237,138,258392,1,0,0:0:0:0:
255,175,258485,1,0,0:0:0:0:
262,216,258578,1,0,0:0:0:0:
251,256,258671,1,0,0:0:0:0:
224,288,258764,6,0,L|184:318,2,35.0000013351441,2|0|0,0:0|0:0|0:0,0:0:0:0:
306,316,259043,2,0,L|346:286,2,35.0000013351441
182,218,259322,5,2,0:0:0:0:
105,236,259461,1,0,0:0:0:0:
83,312,259601,1,0,0:0:0:0:
206,213,259880,5,2,0:0:0:0:
105,236,260019,1,0,0:0:0:0:
77,335,260159,1,0,0:0:0:0:
243,206,260438,5,2,0:0:0:0:
236,164,260531,1,0,0:0:0:0:
215,127,260624,1,0,0:0:0:0:
185,97,260717,2,0,L|149:72,2,35.0000013351441
269,73,260996,5,2,0:0:0:0:
305,93,261089,1,0,0:0:0:0:
341,113,261182,1,0,0:0:0:0:
376,135,261275,2,0,L|422:161,2,35.0000013351441
395,49,261554,5,2,0:0:0:0:
435,58,261647,1,0,0:0:0:0:
466,86,261740,1,0,0:0:0:0:
477,126,261833,1,0,0:0:0:0:
477,167,261926,1,0,0:0:0:0:
461,205,262019,1,0,0:0:0:0:
433,236,262112,5,2,0:0:0:0:
396,255,262205,1,0,0:0:0:0:
354,256,262298,1,0,0:0:0:0:
319,231,262392,1,0,0:0:0:0:
288,202,262485,1,0,0:0:0:0:
248,188,262578,1,0,0:0:0:0:
206,187,262671,5,2,0:0:0:0:
169,208,262764,1,0,0:0:0:0:
162,249,262857,1,0,0:0:0:0:
187,282,262950,1,0,0:0:0:0:
228,285,263043,1,0,0:0:0:0:
260,258,263136,1,0,0:0:0:0:
262,216,263229,5,2,0:0:0:0:
244,177,263322,1,0,0:0:0:0:
236,135,263415,1,0,0:0:0:0:
257,98,263508,1,0,0:0:0:0:
296,84,263601,1,0,0:0:0:0:
336,93,263694,1,0,0:0:0:0:
362,125,263787,5,2,0:0:0:0:
371,165,263880,1,0,0:0:0:0:
362,206,263973,1,0,0:0:0:0:
337,239,264066,1,0,0:0:0:0:
297,253,264159,1,0,0:0:0:0:
255,250,264252,1,0,0:0:0:0:
222,223,264345,2,0,P|259:199|335:220,1,105.000004005432,2|0,0:0|0:0,0:0:0:0:
186,293,264903,5,2,0:0:0:0:
138,281,264996,1,0,0:0:0:0:
109,241,265089,1,0,0:0:0:0:
106,192,265182,1,0,0:0:0:0:
125,147,265275,1,0,0:0:0:0:
166,121,265368,1,0,0:0:0:0:
214,118,265461,5,2,0:0:0:0:
190,161,265554,1,0,0:0:0:0:
144,180,265647,1,0,0:0:0:0:
98,162,265740,1,0,0:0:0:0:
73,119,265833,1,0,0:0:0:0:
71,70,265926,1,0,0:0:0:0:
105,34,266019,5,2,0:0:0:0:
117,74,266112,1,0,0:0:0:0:
106,114,266205,1,0,0:0:0:0:
81,148,266298,1,0,0:0:0:0:
53,179,266392,1,0,0:0:0:0:
47,220,266485,1,0,0:0:0:0:
57,260,266578,5,2,0:0:0:0:
86,290,266671,1,0,0:0:0:0:
125,303,266764,1,0,0:0:0:0:
166,297,266857,1,0,0:0:0:0:
200,272,266950,1,0,0:0:0:0:
216,233,267043,1,0,0:0:0:0:
216,191,267136,5,2,0:0:0:0:
180,213,267229,1,0,0:0:0:0:
172,254,267322,1,0,0:0:0:0:
184,294,267415,1,0,0:0:0:0:
213,324,267508,1,0,0:0:0:0:
253,334,267601,1,0,0:0:0:0:
291,318,267694,2,0,P|260:290|192:304,1,105.000004005432,2|0,0:0|0:0,0:0:0:0:
386,261,268252,5,2,0:0:0:0:
347,191,268392,1,0,0:0:0:0:
268,182,268531,1,0,0:0:0:0:
398,282,268810,5,2,0:0:0:0:
347,191,268950,1,0,0:0:0:0:
245,180,269089,1,0,0:0:0:0:
412,306,269368,5,2,0:0:0:0:
447,284,269461,1,0,0:0:0:0:
461,244,269554,1,0,0:0:0:0:
463,202,269647,5,2,0:0:0:0:
426,169,269740,1,0,0:0:0:0:
410,122,269833,1,0,0:0:0:0:
423,74,269926,5,2,0:0:0:0:
454,120,270019,1,0,0:0:0:0:
426,169,270112,1,0,0:0:0:0:
370,172,270205,1,8,0:0:0:0:
323,140,270298,1,0,0:0:0:0:
266,143,270392,1,0,0:0:0:0:
223,179,270485,5,2,0:0:0:0:
252,197,270578,1,0,0:0:0:0:
286,197,270671,1,0,0:0:0:0:
314,177,270764,1,0,0:0:0:0:
323,140,270857,1,0,0:0:0:0:
316,105,270950,1,0,0:0:0:0:
292,79,271043,5,2,0:0:0:0:
325,53,271136,1,0,0:0:0:0:
366,46,271229,1,0,0:0:0:0:
406,57,271322,1,0,0:0:0:0:
435,87,271415,1,0,0:0:0:0:
449,126,271508,1,0,0:0:0:0:
444,167,271601,5,2,0:0:0:0:
430,199,271694,1,0,0:0:0:0:
403,222,271787,1,0,0:0:0:0:
368,229,271880,1,0,0:0:0:0:
342,253,271973,1,0,0:0:0:0:
329,285,272066,1,0,0:0:0:0:
334,319,272159,5,2,0:0:0:0:
371,299,272252,1,0,0:0:0:0:
377,257,272345,1,0,0:0:0:0:
362,217,272438,1,0,0:0:0:0:
327,192,272531,1,0,0:0:0:0:
285,196,272624,1,0,0:0:0:0:
250,220,272717,6,0,L|227:252,3,26.2500010013581
334,319,272996,1,0,0:0:0:0:
321,329,273066,1,0,0:0:0:0:
306,334,273136,1,0,0:0:0:0:
290,336,273205,1,0,0:0:0:0:
274,333,273275,6,0,L|243:313,1,26.2500010013581
241,354,273415,2,0,L|233:317,1,26.2500010013581
205,349,273554,2,0,L|225:318,1,26.2500010013581
182,319,273694,2,0,L|218:311,1,26.2500010013581
186,283,273833,5,0,0:0:0:0:
177,247,273903,1,0,0:0:0:0:
155,216,273973,1,0,0:0:0:0:
121,200,274043,1,0,0:0:0:0:
84,204,274112,1,0,0:0:0:0:
84,182,274182,1,0,0:0:0:0:
84,160,274252,1,0,0:0:0:0:
84,138,274322,1,0,0:0:0:0:
84,116,274392,5,0,0:0:0:0:
122,132,274461,1,0,0:0:0:0:
164,135,274531,1,0,0:0:0:0:
204,124,274601,1,0,0:0:0:0:
239,101,274671,1,0,0:0:0:0:
278,89,274740,1,0,0:0:0:0:
318,101,274810,1,0,0:0:0:0:
343,134,274880,1,0,0:0:0:0:
342,176,274950,5,2,0:0:0:0:
329,116,278717,5,0,0:0:0:0:
298,253,278857,1,0,0:0:0:0:
440,152,278996,1,0,0:0:0:0:
239,87,279136,1,0,0:0:0:0:
331,350,279275,1,2,0:0:0:0:
239,87,279554,5,0,0:0:0:0:
136,183,279694,2,0,L|166:266,1,70
298,253,279973,2,0,L|268:170,1,70
136,183,280252,2,0,L|166:266,1,70
335,259,280531,6,0,B|318:216|318:216|324:190,1,70
105,181,280810,2,0,B|122:224|122:224|116:250,1,70
362,259,281089,5,2,0:0:0:0:
230,143,281229,1,0,0:0:0:0:
267,313,281368,1,0,0:0:0:0:
451,212,281508,1,2,0:0:0:0:
178,275,281787,5,0,0:0:0:0:
323,192,281926,1,0,0:0:0:0:
345,165,281996,1,0,0:0:0:0:
350,130,282066,1,0,0:0:0:0:
347,94,282136,1,0,0:0:0:0:
329,64,282205,1,0,0:0:0:0:
297,47,282275,1,0,0:0:0:0:
261,47,282345,1,0,0:0:0:0:
232,68,282415,1,0,0:0:0:0:
221,101,282485,1,0,0:0:0:0:
194,123,282554,1,0,0:0:0:0:
159,126,282624,1,0,0:0:0:0:
132,102,282694,1,0,0:0:0:0:
134,67,282764,5,2,0:0:0:0:
227,249,282903,1,0,0:0:0:0:
282,112,283043,1,0,0:0:0:0:
315,105,283112,1,0,0:0:0:0:
349,98,283182,1,0,0:0:0:0:
383,91,283252,1,0,0:0:0:0:
417,84,283322,5,2,0:0:0:0:
354,208,283461,1,0,0:0:0:0:
351,2,283601,1,0,0:0:0:0:
485,161,283740,1,2,0:0:0:0:
227,249,284019,5,0,0:0:0:0:
354,208,284159,2,0,P|370:259|364:287,1,70
240,315,284438,2,0,P|224:264|230:236,1,70
366,184,284717,2,0,P|382:235|376:263,1,70
156,226,284996,6,0,L|192:154,1,70
313,101,285275,2,0,L|277:173,1,70
85,164,285554,1,2,0:0:0:0:
240,315,285694,1,0,0:0:0:0:
148,92,285833,1,0,0:0:0:0:
21,233,285973,1,2,0:0:0:0:
148,92,286252,5,0,0:0:0:0:
313,101,286392,2,0,B|356:104|356:104|379:131,1,70
259,254,286671,2,0,B|216:251|216:251|193:224,1,70
323,78,286950,2,0,B|366:81|366:81|389:108,1,70
305,327,287229,6,0,L|229:324,1,70
343,195,287508,2,0,L|419:198,1,70
259,254,287787,5,2,0:0:0:0:
373,124,287926,1,0,0:0:0:0:
407,289,288066,1,0,0:0:0:0:
263,156,288205,2,0,P|201:172|160:249,1,140,2|0,0:0|0:0,0:0:0:0:
60,330,288624,6,0,L|27:259,1,70
53,127,288903,2,0,L|86:198,1,70
221,212,289182,2,0,L|189:138,1,70
284,40,289461,6,0,P|335:25|367:28,1,70
260,133,289740,2,0,P|209:148|177:145,1,70
347,144,290019,5,2,0:0:0:0:
212,68,290159,1,0,0:0:0:0:
374,129,290298,5,0,0:0:0:0:
197,30,290438,2,0,P|118:28|63:83,1,140,2|0,0:0|0:0,0:0:0:0:
175,187,290857,1,0,0:0:0:0:
152,106,290996,1,0,0:0:0:0:
64,187,291136,5,2,0:0:0:0:
74,219,291205,1,0,0:0:0:0:
97,245,291275,1,0,0:0:0:0:
126,264,291345,1,0,0:0:0:0:
159,274,291415,1,0,0:0:0:0:
194,273,291485,1,0,0:0:0:0:
227,280,291554,1,0,0:0:0:0:
257,296,291624,1,0,0:0:0:0:
285,317,291694,5,2,0:0:0:0:
295,290,291764,1,0,0:0:0:0:
313,269,291833,1,0,0:0:0:0:
338,256,291903,1,0,0:0:0:0:
365,252,291973,2,0,L|411:250,3,35
358,173,292252,5,2,0:0:0:0:
330,168,292322,1,0,0:0:0:0:
305,154,292392,1,0,0:0:0:0:
287,132,292461,1,0,0:0:0:0:
273,107,292531,2,0,L|264:67,3,35
370,71,292810,6,0,B|412:90|421:126|421:126|422:167|463:188|493:164|500:124|444:112|451:135,1,210.000008010865,2|0,0:0|0:0,0:0:0:0:
315,293,293647,1,0,0:0:0:0:
370,71,293926,6,0,P|324:65|277:88,1,78.7500030040742
271,89,294205,2,8,L|240:117,3,26.2500010013581
338,169,294485,2,0,P|309:205|291:220,1,52.5000020027161,2|0,0:0|0:0,0:0:0:0:
364,274,294764,2,0,P|320:290|297:294,1,52.5000020027161,2|0,0:0|0:0,0:0:0:0:
210,305,295043,6,0,P|194:218|169:199,1,105,2|0,0:0|0:0,0:0:0:0:
158,187,295322,1,0,0:0:0:0:
127,276,295461,1,0,0:0:0:0:
183,338,295601,6,0,P|159:207|121:179,1,157.500006008148,2|0,0:0|0:0,0:0:0:0:
105,161,295880,1,0,0:0:0:0:
59,294,296019,1,0,0:0:0:0:
148,362,296159,6,0,P|116:192|68:155,1,210,2|0,0:0|0:0,0:0:0:0:
53,172,296438,2,0,B|113:156|142:107|142:107|197:106|237:68,1,210,2|0,0:0|0:0,0:0:0:0:
204,40,296717,2,0,P|190:115|292:185,1,210,2|0,0:0|0:0,0:0:0:0:
326,169,296996,2,0,B|284:239|284:239|196:232|166:178,1,210,2|0,0:0|0:0,0:0:0:0:
163,167,297275,5,2,0:0:0:0:
162,131,297345,1,0,0:0:0:0:
172,97,297415,1,0,0:0:0:0:
189,66,297485,1,0,0:0:0:0:
214,42,297554,1,0,0:0:0:0:
245,26,297624,1,0,0:0:0:0:
279,19,297694,1,0,0:0:0:0:
313,22,297764,1,0,0:0:0:0:
345,32,297833,6,0,P|378:58|396:91,1,70,2|0,0:0|0:0,0:0:0:0:
326,169,298112,2,0,P|293:143|275:110,1,70,2|0,0:0|0:0,0:0:0:0:
412,163,298392,5,2,0:0:0:0:
416,197,298461,1,0,0:0:0:0:
405,230,298531,1,0,0:0:0:0:
386,259,298601,1,0,0:0:0:0:
357,279,298671,1,0,0:0:0:0:
325,291,298740,1,0,0:0:0:0:
290,287,298810,1,0,0:0:0:0:
258,272,298880,1,0,0:0:0:0:
231,248,298950,6,0,P|206:204|206:173,1,70,2|0,0:0|0:0,0:0:0:0:
119,297,299229,2,0,P|144:341|144:372,1,70,2|0,0:0|0:0,0:0:0:0:
127,220,299508,5,2,0:0:0:0:
111,188,299578,1,0,0:0:0:0:
107,153,299647,1,0,0:0:0:0:
114,118,299717,1,0,0:0:0:0:
130,87,299787,1,0,0:0:0:0:
157,64,299857,1,0,0:0:0:0:
189,52,299926,1,0,0:0:0:0:
224,49,299996,1,0,0:0:0:0:
257,58,300066,5,8,0:0:0:0:
229,89,300136,1,0,0:0:0:0:
191,107,300205,1,0,0:0:0:0:
149,101,300275,1,0,0:0:0:0:
112,80,300345,2,0,P|87:41|84:15,1,70,2|0,0:0|0:0,0:0:0:0:
168,20,300624,5,2,0:0:0:0:
192,54,300694,1,0,0:0:0:0:
201,95,300764,1,0,0:0:0:0:
191,135,300833,1,0,0:0:0:0:
162,166,300903,1,0,0:0:0:0:
123,183,300973,1,0,0:0:0:0:
92,212,301043,1,0,0:0:0:0:
82,252,301112,1,0,0:0:0:0:
97,291,301182,5,2,0:0:0:0:
128,307,301252,1,0,0:0:0:0:
162,299,301322,1,0,0:0:0:0:
187,274,301392,1,0,0:0:0:0:
212,250,301461,1,0,0:0:0:0:
245,238,301531,1,0,0:0:0:0:
279,242,301601,1,0,0:0:0:0:
307,262,301671,1,0,0:0:0:0:
325,290,301740,6,0,P|228:201|291:177,1,245,2|0,0:0|0:0,0:0:0:0:
288,172,302298,1,0,0:0:0:0:
65,334,302578,1,0,0:0:0:0:
279,242,302857,6,0,B|334:252|334:252|391:241,1,105,2|0,0:0|0:0,0:0:0:0:
405,213,303136,2,0,P|427:205|453:211,3,35
398,171,303415,2,0,P|349:168|322:153,1,70,2|0,0:0|0:0,0:0:0:0:
382,67,303694,2,0,P|341:39|325:13,1,70,2|0,0:0|0:0,0:0:0:0:
255,98,303973,6,0,P|234:156|244:202,1,105,2|0,0:0|0:0,0:0:0:0:
264,224,304252,1,0,0:0:0:0:
330,159,304392,1,0,0:0:0:0:
245,66,304531,6,0,P|213:153|228:222,1,157.500006008148,2|0,0:0|0:0,0:0:0:0:
258,255,304810,1,0,0:0:0:0:
357,157,304950,1,0,0:0:0:0:
242,35,305089,6,0,P|194:165|217:269,1,210,2|0,0:0|0:0,0:0:0:0:
227,268,305368,2,0,P|246:187|191:68,1,210,2|0,0:0|0:0,0:0:0:0:
161,52,305647,2,0,B|246:85|246:85|281:145|274:209,1,210,2|0,0:0|0:0,0:0:0:0:
266,239,305926,2,0,B|181:205|181:205|129:233|129:233|198:261,1,210,2|0,0:0|0:0,0:0:0:0:
216,268,306205,5,2,0:0:0:0:
248,282,306275,1,0,0:0:0:0:
282,289,306345,1,0,0:0:0:0:
316,285,306415,1,0,0:0:0:0:
348,272,306485,1,0,0:0:0:0:
374,250,306554,1,0,0:0:0:0:
390,219,306624,1,0,0:0:0:0:
394,184,306694,1,0,0:0:0:0:
392,148,306764,6,0,P|382:107|365:82,1,70,2|0,0:0|0:0,0:0:0:0:
277,139,307043,2,0,P|287:180|304:205,1,70,2|0,0:0|0:0,0:0:0:0:
288,63,307322,5,2,0:0:0:0:
253,57,307392,1,0,0:0:0:0:
218,63,307461,1,0,0:0:0:0:
188,81,307531,1,0,0:0:0:0:
164,106,307601,1,0,0:0:0:0:
150,138,307671,1,0,0:0:0:0:
145,172,307740,1,0,0:0:0:0:
151,206,307810,1,0,0:0:0:0:
164,238,307880,6,0,P|191:273|229:288,1,70,2|0,0:0|0:0,0:0:0:0:
109,301,308159,2,0,P|82:266|44:251,1,70,2|0,0:0|0:0,0:0:0:0:
248,198,308438,5,2,0:0:0:0:
276,197,308508,1,0,0:0:0:0:
303,203,308578,1,0,0:0:0:0:
326,218,308647,1,0,0:0:0:0:
345,238,308717,1,0,0:0:0:0:
369,252,308787,1,0,0:0:0:0:
396,254,308857,1,0,0:0:0:0:
420,241,308926,1,0,0:0:0:0:
433,216,308996,1,0,0:0:0:0:
433,187,309066,1,0,0:0:0:0:
420,162,309136,1,0,0:0:0:0:
394,150,309205,1,0,0:0:0:0:
365,151,309275,5,2,0:0:0:0:
347,112,309345,1,0,0:0:0:0:
363,73,309415,1,0,0:0:0:0:
402,59,309485,1,0,0:0:0:0:
442,68,309554,5,2,0:0:0:0:
385,203,309694,1,0,0:0:0:0:
279,76,309833,1,0,0:0:0:0:
458,155,309973,1,0,0:0:0:0:
246,154,310112,6,0,P|207:120|198:58,1,105,8|0,0:0|0:0,0:0:0:0:
279,76,310392,2,0,L|179:134,1,105,8|0,0:0|0:0,0:0:0:0:
156,144,310671,6,0,B|149:185|149:185|183:211,1,70,2|0,0:0|0:0,0:0:0:0:
304,169,310950,2,0,B|271:142|271:142|236:162,1,70
277,256,311229,2,0,B|309:282|309:282|345:263,1,70
386,177,311508,1,0,0:0:0:0:
214,297,311647,1,0,0:0:0:0:
363,334,311787,6,0,L|435:288,1,70,2|0,0:0|0:0,0:0:0:0:
444,139,312066,2,0,L|372:185,1,70
474,232,312345,1,0,0:0:0:0:
277,256,312485,1,0,0:0:0:0:
474,232,312624,1,0,0:0:0:0:
286,135,312764,1,0,0:0:0:0:
363,334,312903,6,0,P|320:353|285:350,1,70,2|0,0:0|0:0,0:0:0:0:
109,257,313182,1,0,0:0:0:0:
277,256,313322,2,0,L|319:237,2,35
85,343,313601,1,0,0:0:0:0:
59,354,313880,1,0,0:0:0:0:
186,297,314019,6,0,P|195:249|183:215,1,70,2|0,0:0|0:0,0:0:0:0:
75,96,314298,2,0,P|66:144|78:178,1,70
277,256,314578,5,2,0:0:0:0:
150,136,314717,1,0,0:0:0:0:
273,329,314857,5,2,0:0:0:0:
188,75,314996,1,0,0:0:0:0:
104,268,315136,6,0,P|101:320|119:350,1,70,2|0,0:0|0:0,0:0:0:0:
244,225,315415,2,0,P|200:196|165:196,1,70
217,367,315694,2,0,P|263:343|280:313,1,70
293,155,315973,1,0,0:0:0:0:
190,287,316112,1,0,0:0:0:0:
346,224,316252,6,0,P|377:181|379:157,1,70,2|0,0:0|0:0,0:0:0:0:
233,80,316531,2,0,P|202:123|200:147,1,70
338,69,316810,1,0,0:0:0:0:
217,206,316950,1,0,0:0:0:0:
338,69,317089,1,0,0:0:0:0:
279,242,317229,1,0,0:0:0:0:
379,165,317368,6,0,B|421:161|421:161|462:189,1,70,2|0,0:0|0:0,0:0:0:0:
394,269,317647,2,0,L|346:315,2,46.6666666666667
472,195,317926,1,0,0:0:0:0:
279,242,318066,1,0,0:0:0:0:
252,249,318345,1,0,0:0:0:0:
338,69,318485,6,0,L|434:58,1,70,2|0,0:0|0:0,0:0:0:0:
298,150,318764,2,0,L|202:161,1,70
403,175,319043,5,2,0:0:0:0:
259,75,319182,2,0,L|242:30,2,35
320,239,319461,1,0,0:0:0:0:
146,209,319601,6,0,B|130:170|130:170|135:129,1,70,2|0,0:0|0:0,0:0:0:0:
259,230,319880,2,0,B|300:235|300:235|333:260,1,70
181,314,320159,2,0,B|155:347|155:347|117:363,1,70
85,262,320438,1,0,0:0:0:0:
266,368,320578,1,0,0:0:0:0:
259,230,320717,6,0,P|247:189|252:148,1,70,2|0,0:0|0:0,0:0:0:0:
362,80,320996,2,0,P|374:121|369:162,1,70
261,61,321275,1,0,0:0:0:0:
349,236,321415,1,0,0:0:0:0:
261,61,321554,1,0,0:0:0:0:
452,178,321694,1,0,0:0:0:0:
298,310,321833,6,0,P|246:317|213:302,1,70,2|0,0:0|0:0,0:0:0:0:
349,236,322112,2,0,P|381:277|384:313,1,70
261,223,322392,1,0,0:0:0:0:
453,253,322531,1,0,0:0:0:0:
480,258,322810,1,0,0:0:0:0:
261,223,322950,6,0,P|254:178|274:145,1,70,2|0,0:0|0:0,0:0:0:0:
129,270,323229,2,0,P|136:315|116:348,1,70
353,196,323508,5,2,0:0:0:0:
146,164,323647,1,0,0:0:0:0:
275,330,323787,5,2,0:0:0:0:
277,85,323926,1,0,0:0:0:0:
129,270,324066,6,0,P|88:252|65:222,1,70
277,85,324345,2,0,P|313:58|350:53,1,70
373,296,324624,2,0,P|377:340|363:375,1,70
146,164,324903,1,0,0:0:0:0:
356,161,325043,1,0,0:0:0:0:
210,310,325182,6,0,L|157:365,1,70,2|0,0:0|0:0,0:0:0:0:
146,164,325461,2,0,L|199:109,1,70
283,222,325740,1,0,0:0:0:0:
75,259,325880,1,0,0:0:0:0:
283,222,326019,1,0,0:0:0:0:
63,128,326159,1,0,0:0:0:0:
210,310,326298,6,0,L|296:338,1,70,2|0,0:0|0:0,0:0:0:0:
453,331,326578,2,0,L|502:311,2,46.6666666666667
364,361,326857,5,0,0:0:0:0:
431,200,326996,1,0,0:0:0:0:
442,174,327275,1,0,0:0:0:0:
283,222,327415,5,2,0:0:0:0:
400,282,327554,1,0,0:0:0:0:
355,134,327694,1,0,0:0:0:0:
220,294,327833,1,0,0:0:0:0:
246,84,327973,5,2,0:0:0:0:
307,320,328112,1,0,0:0:0:0:
321,53,328252,5,2,0:0:0:0:
249,364,328392,1,0,0:0:0:0:
442,174,328531,6,0,L|488:154,2,35,2|0|0,0:0|0:0|0:0,0:0:0:0:
119,312,328810,2,0,L|73:332,2,35,2|0|0,0:0|0:0|0:0,0:0:0:0:
246,84,329089,5,10,0:0:0:0:
291,66,329159,1,8,0:0:0:0:
336,83,329229,1,8,0:0:0:0:
355,127,329298,1,8,0:0:0:0:
348,175,329368,1,8,0:0:0:0:
305,198,329438,1,8,0:0:0:0:
256,192,329508,5,10,0:0:0:0:
256,192,329578,12,0,332996,0:0:0:0:
